<?xml version="1.0" standalone="no"?>
<!DOCTYPE svg PUBLIC "-//W3C//DTD SVG 1.1//EN" "http://www.w3.org/Graphics/SVG/1.1/DTD/svg11.dtd" >
<svg xmlns="http://www.w3.org/2000/svg" xmlns:xlink="http://www.w3.org/1999/xlink" version="1.1">
<metadata></metadata>
<defs>
<font id="amertype_md_btbold" horiz-adv-x="1356" >
<font-face units-per-em="2048" ascent="1638" descent="-410" />
<missing-glyph horiz-adv-x="678" />
<glyph horiz-adv-x="0" />
<glyph unicode="&#xd;" horiz-adv-x="678" />
<glyph unicode=" "  horiz-adv-x="678" />
<glyph unicode="&#x09;" horiz-adv-x="678" />
<glyph unicode="&#xa0;" horiz-adv-x="678" />
<glyph unicode="!" horiz-adv-x="725" d="M168 174q0 83 56 140t138 57q81 0 139 -58.5t58 -140.5q0 -81 -58 -139t-139 -58t-137.5 58t-56.5 141zM168 1223q0 85 49 128.5t145 43.5q98 0 147.5 -43.5t49.5 -128.5q0 -9 -2.5 -24l-3.5 -21l-49 -604q-8 -96 -34 -115t-108 -19q-127 0 -139 131v2l-49 605l-3.5 21 t-2.5 24z" />
<glyph unicode="&#x22;" horiz-adv-x="678" d="M80 879v559h192v-559h-192zM406 879v559h192v-559h-192z" />
<glyph unicode="#" horiz-adv-x="1575" d="M45 406l76 200h282l86 242h-299l74 201h297l148 415h221l-146 -415h242l148 415h221l-148 -415h283l-74 -201h-280l-84 -242h290l-71 -200h-291l-148 -416h-221l148 416h-244l-149 -416h-220l146 416h-287zM621 604h251l86 244h-249z" />
<glyph unicode="$" d="M199 406q0 82 43.5 134t111.5 52q71 0 113.5 -41.5t42.5 -110.5q0 -40 -27 -78q-8 -11 -8 -14q0 -19 43.5 -38t99.5 -19h7v319q-185 44 -285 138.5t-100 224.5q0 149 108.5 250.5t276.5 107.5v101q0 21 17.5 33t49.5 12q37 0 52.5 -10.5t15.5 -34.5v-98 q163 -8 255.5 -77.5t92.5 -185.5q0 -68 -39 -105.5t-111 -37.5q-59 0 -95 28t-36 74q0 13 4.5 33t4.5 29q0 16 -19 26t-51 10h-6v-247q221 -71 303 -157t82 -241q0 -164 -98 -267t-287 -136v-115q0 -34 -16 -47.5t-54 -13.5q-35 0 -50 13.5t-15 47.5l-1 107 q-193 1 -309 92.5t-116 241.5zM498 1018q0 -37 33 -62t102 -41v209q-62 -7 -98.5 -36t-36.5 -70zM745 301q67 15 104.5 53.5t37.5 91.5q0 49 -32.5 79.5t-109.5 54.5v-279z" />
<glyph unicode="%" horiz-adv-x="1384" d="M2 1014q0 167 79 261.5t218 94.5q87 0 228.5 -80t228.5 -80q65 0 117 26.5t92 80.5q28 37 43.5 45t70.5 8q33 0 42 -7t9 -26q0 -8 -4 -22.5t-12 -28.5l-719 -1272q-13 -23 -29.5 -33t-39.5 -10q-45 0 -72 11t-27 28q0 7 6.5 22t18.5 38l586 1026q-33 -9 -59 -13t-50 -4 q-44 0 -80.5 13t-66.5 38q7 -31 10.5 -57t3.5 -49q0 -172 -79.5 -269.5t-219.5 -97.5q-137 0 -216 95.5t-79 261.5zM211 1014q0 -89 23 -137t65 -48t64 47.5t22 137.5t-22 138t-64 48t-65 -48.5t-23 -137.5zM762 328q0 167 79.5 262.5t217.5 95.5q136 0 216.5 -97t80.5 -261 q0 -165 -80.5 -261t-218.5 -96q-137 0 -216 95.5t-79 261.5zM971 328q0 -91 22.5 -138t65.5 -47q42 0 64 46.5t22 138.5q0 90 -22.5 138t-63.5 48q-42 0 -65 -48.5t-23 -137.5z" />
<glyph unicode="&#x26;" horiz-adv-x="1688" d="M61 463q0 151 76.5 249.5t206.5 116.5q-61 34 -95 93t-34 133q0 148 127.5 247t327.5 99q179 0 283 -72.5t104 -195.5q0 -82 -50.5 -129.5t-136.5 -47.5q-62 0 -99.5 28t-45.5 79q-2 11 -3 30q-4 62 -65 62q-49 0 -80.5 -29.5t-31.5 -74.5q0 -50 25.5 -78.5t80.5 -40.5 q9 -2 25 -5q106 -21 106 -110q0 -79 -27.5 -119t-83.5 -43q-170 -10 -222 -50.5t-52 -129.5q0 -91 71 -146t191 -55q116 0 183 44t67 120q0 50 -41 132.5t-41 121.5q0 71 59 116.5t152 45.5q63 0 160.5 -23.5t130.5 -23.5q15 0 30.5 5t45.5 19h-12q-55 0 -88 34.5t-33 88.5 q0 74 47 120t121 46q94 0 152.5 -68.5t58.5 -181.5q0 -138 -81.5 -216.5t-226.5 -78.5q-53 0 -98.5 10.5t-85.5 30.5q38 -57 56 -110.5t18 -110.5q0 -187 -162 -305.5t-424 -118.5t-424 136t-162 356z" />
<glyph unicode="'" horiz-adv-x="352" d="M80 879v559h192v-559h-192z" />
<glyph unicode="(" horiz-adv-x="1057" d="M57 514q0 197 65 362.5t193 294.5q107 110 252.5 175t282.5 65q58 0 94.5 -31.5t36.5 -81.5q0 -100 -144 -127q-48 -9 -71 -16q-190 -57 -280.5 -213.5t-90.5 -427.5q0 -272 90.5 -428.5t280.5 -212.5q23 -7 70 -16q145 -28 145 -129q0 -48 -36.5 -79.5t-92.5 -31.5 q-96 0 -210.5 39t-207.5 104q-185 131 -281 323t-96 431z" />
<glyph unicode=")" horiz-adv-x="1057" d="M74 -270q0 101 144 129q45 9 69 16q190 57 280 212.5t90 426.5q0 272 -90.5 428.5t-279.5 212.5q-23 7 -69 16q-144 28 -144 129q0 49 35.5 80t91.5 31q97 0 211 -38t206 -103q186 -131 282.5 -324t96.5 -432q0 -195 -65.5 -361t-194.5 -296q-107 -110 -252 -175 t-282 -65q-58 0 -93.5 31.5t-35.5 81.5z" />
<glyph unicode="*" horiz-adv-x="1024" d="M168 913q0 33 19 49.5t57 16.5h6q24 -2 45 -2q27 0 63 13l2 1l80 27v14l-80 29q-20 6 -39 9t-36 3h-15l-17 -1t-34 -1q-20 0 -35.5 19.5t-15.5 46.5q0 46 37 93.5t78 47.5q29 0 60.5 -56.5t62.5 -82.5l63 -56l12 9l-16 84q-8 36 -37 84.5t-29 64.5q0 32 30 51t83 19 q50 0 79.5 -18t29.5 -48q0 -20 -28 -67t-36 -86l-16 -84l14 -5l63 54q33 28 60.5 82.5t62.5 54.5q39 0 77 -47.5t38 -91.5q0 -33 -19 -49.5t-57 -16.5q-1 0 -7 1q-23 1 -44 1q-27 0 -63 -13l-2 -1l-80 -27v-14l80 -29q20 -6 39 -9t36 -3h15l17 1t34 1q20 0 35.5 -19 t15.5 -47q0 -46 -37 -93.5t-78 -47.5q-29 0 -61 55.5t-62 81.5l-63 58l-12 -8l16 -84q8 -37 37 -85.5t29 -64.5q0 -32 -30 -51t-83 -19q-50 0 -79.5 18t-29.5 48q0 20 28 67t36 87l16 84l-14 6l-63 -56q-34 -31 -61 -84t-62 -53q-39 0 -77 48t-38 91z" />
<glyph unicode="+" horiz-adv-x="1706" d="M254 512v199h498v510h202v-510h498v-199h-498v-512h-202v512h-498z" />
<glyph unicode="," horiz-adv-x="678" d="M141 156q0 94 58 154.5t149 60.5q96 0 150.5 -73t54.5 -202q0 -90 -37.5 -197.5t-101.5 -199.5q-71 -102 -107 -135t-69 -33q-34 0 -58 22.5t-24 53.5q0 47 61 134q11 15 16 23q41 60 67 112.5t26 70.5q0 35 -47 47q-9 2 -15 4q-53 15 -88 60t-35 98z" />
<glyph unicode="-" horiz-adv-x="678" d="M47 530q0 74 25 99.5t108 25.5h318q82 0 106.5 -25t24.5 -100q0 -73 -24 -97.5t-107 -24.5h-318q-84 0 -108.5 25t-24.5 97z" />
<glyph unicode="." horiz-adv-x="678" d="M141 168q0 83 58 140t141 57q80 0 137.5 -58.5t57.5 -140.5q0 -81 -57.5 -139t-137.5 -58q-82 0 -140.5 58.5t-58.5 140.5z" />
<glyph unicode="/" horiz-adv-x="559" d="M-39 -154q0 7 1 14t3 15l397 1448h1q18 72 108 72q47 0 58.5 -8t11.5 -31q0 -11 -0.5 -17t-1.5 -11l-398 -1449q0 -1 -1 -4q-18 -67 -107 -68q-48 0 -60 8t-12 31z" />
<glyph unicode="0" d="M74 676q0 329 161 516.5t443 187.5q279 0 442.5 -189.5t163.5 -514.5q0 -326 -163 -515.5t-445 -189.5q-280 0 -441 189t-161 516zM418 674q0 -217 65.5 -327.5t194.5 -110.5q127 0 193.5 112t66.5 326q0 213 -67 325.5t-193 112.5t-193 -113t-67 -325z" />
<glyph unicode="1" d="M274 143q0 60 34 95.5t89 35.5q23 0 64.5 -7t58.5 -7q32 0 43.5 11t11.5 61v698q0 49 -11 59.5t-44 10.5q-17 0 -58.5 -6.5t-64.5 -6.5q-55 0 -89 36t-34 96q0 68 37 103.5t109 35.5q2 0 104.5 -6t204.5 -6q33 0 68 6t39 6q44 0 58.5 -28t14.5 -113v-898q0 -37 11 -48 t41 -11q16 0 53.5 7t58.5 7q51 0 84 -36.5t33 -96.5q0 -70 -36 -108.5t-101 -38.5q-8 0 -99 11t-174 11q-162 0 -324 -19q-29 -3 -36 -3q-69 0 -107.5 39t-38.5 110z" />
<glyph unicode="2" d="M76 264q0 155 95.5 272t299.5 209q63 29 176 68q211 73 211 170q0 68 -57.5 109t-153.5 41q-67 0 -116.5 -17.5t-49.5 -34.5q0 -1 7 -8q40 -35 40 -94q0 -82 -49.5 -130t-132.5 -48q-101 0 -162 57.5t-61 153.5q0 158 147.5 261t380.5 103q266 0 411.5 -104.5 t145.5 -294.5q0 -162 -106.5 -258t-370.5 -164q-23 -6 -66 -16q-288 -70 -290 -252q57 63 119 94t133 31q44 0 88.5 -14t77.5 -38q21 -15 58 -44q73 -58 110 -58q18 0 31.5 7.5t24.5 25.5h-3q-38 0 -65 32t-27 76q0 65 47.5 108.5t117.5 43.5q83 0 135 -69t52 -185 q0 -144 -101.5 -235t-263.5 -91q-72 0 -129.5 24t-142.5 95q-8 7 -23 20q-80 70 -112 70q-8 0 -20 -8q-5 -3 -7 -4q9 -19 13 -34t4 -30q0 -63 -48 -98t-135 -35q-104 0 -168.5 80.5t-64.5 212.5z" />
<glyph unicode="3" d="M78 358q0 108 61 173t162 65q82 0 133 -53t51 -140q0 -65 -42 -106q-7 -6 -7 -8q0 -19 52.5 -38.5t123.5 -19.5q124 0 196.5 58t72.5 157q0 80 -54.5 125t-148.5 45q-6 0 -19.5 -1t-19.5 -1q-66 0 -98.5 28t-32.5 85q0 66 75 141q5 4 7 6l213 216h-309q-50 0 -66 -14.5 t-16 -49.5q0 -11 9 -51.5t9 -69.5q0 -68 -37 -106.5t-102 -38.5q-80 0 -121 39t-41 114q0 21 5 80.5t5 98.5q0 34 -5 81t-5 60q0 61 26.5 88t86.5 27q26 0 85.5 -5.5t92.5 -5.5h522q21 0 78.5 5.5t93.5 5.5q58 0 91.5 -36t33.5 -98q0 -77 -115 -186q-45 -43 -67 -67 l-144 -156q167 -15 254.5 -105t87.5 -247q0 -220 -171 -354t-453 -134q-250 0 -401.5 109t-151.5 284z" />
<glyph unicode="4" d="M35 543q0 32 21 71t85 117l408 498q78 95 140.5 128.5t148.5 33.5q104 0 144 -46.5t40 -214.5v-495h160q53 0 79.5 -28.5t26.5 -84.5q0 -66 -25.5 -94.5t-84.5 -28.5h-156v-120q0 -33 10.5 -42.5t42.5 -9.5q17 0 55.5 6.5t59.5 6.5q52 0 84.5 -33.5t32.5 -87.5 q0 -64 -37 -99.5t-103 -35.5q-5 0 -30 3q-143 17 -291 17q-98 0 -197.5 -10t-101.5 -10q-69 0 -107.5 35t-38.5 100q0 57 35 89t96 32q20 0 58 -6.5t57 -6.5q35 0 46.5 11t11.5 55v106h-457q-118 0 -165.5 33.5t-47.5 110.5zM393 631h328l18 485z" />
<glyph unicode="5" d="M109 317q0 93 61 154t152 61q88 0 135 -45t47 -129q0 -28 -5.5 -49t-17.5 -37q23 -26 53.5 -37.5t83.5 -11.5q124 0 192.5 54.5t68.5 152.5q0 91 -75 147t-200 56q-72 0 -164 -25.5t-118 -25.5q-68 0 -115 40t-47 93q0 9 1 21.5t1 17.5l39 475q5 66 29.5 87t121.5 21h748 q37 0 49 -16t12 -76v-71v-107q0 -83 -31 -116t-110 -33q-57 0 -86.5 19.5t-48.5 82.5q-12 40 -33.5 48.5t-91.5 8.5h-127q-102 0 -124 -19.5t-22 -109.5v-94q71 22 134 32.5t118 10.5q223 0 360.5 -121t137.5 -319q0 -225 -170.5 -357.5t-460.5 -132.5q-221 0 -359 100 t-138 250z" />
<glyph unicode="6" d="M92 666q0 330 175.5 521t477.5 191q200 0 313 -73t113 -201q0 -82 -49.5 -129t-136.5 -47q-80 0 -124 32.5t-44 90.5q0 15 4 34t4 23q0 12 -26.5 20.5t-67.5 8.5q-116 0 -193 -89.5t-77 -216.5q0 -9 0.5 -20t1.5 -23q77 53 164 80t178 27q216 0 351.5 -123.5 t135.5 -322.5q0 -224 -153.5 -353t-421.5 -129q-296 0 -460.5 183.5t-164.5 515.5zM467 436q0 -93 65 -146.5t179 -53.5q115 0 180 53t65 147t-65.5 147.5t-179.5 53.5q-115 0 -179.5 -53.5t-64.5 -147.5z" />
<glyph unicode="7" d="M121 899q0 23 8 79.5t8 88.5q0 27 -8 86t-8 92q0 64 29 94.5t90 30.5q51 0 77.5 -20.5t26.5 -61.5q0 -20 0.5 -33t1.5 -26q25 72 90 110.5t162 38.5q131 0 256 -55t139 -55q31 0 72.5 49t89.5 49q72 0 122 -56.5t50 -142.5q0 -135 -224 -377q-22 -23 -34 -36 q-149 -164 -191 -245t-42 -165q0 -37 12 -110t12 -109q0 -78 -43.5 -118t-128.5 -40q-117 0 -181.5 79t-64.5 222q0 148 58 265t190 235q54 47 156.5 127t128.5 117q-38 -18 -78.5 -26.5t-83.5 -8.5q-104 0 -222 67.5t-136 67.5t-32.5 -11t-14.5 -26q0 -20 11 -75.5 t11 -92.5q0 -76 -42 -116.5t-120 -40.5q-72 0 -109.5 38t-37.5 111z" />
<glyph unicode="8" d="M78 391q0 120 54 205t169 145q-87 47 -128.5 109.5t-41.5 146.5q0 171 148 276t399 105t399 -105t148 -276q0 -85 -41 -147t-127 -109q114 -60 167.5 -144.5t53.5 -205.5q0 -204 -155 -314t-445 -110t-445 110t-155 314zM420 430q0 -89 68.5 -139.5t189.5 -50.5 q122 0 189 49.5t67 140.5q0 90 -67 139t-189 49t-190 -49.5t-68 -138.5zM492 999q0 -61 49 -97t135 -36q87 0 134.5 35t47.5 98q0 65 -47.5 100.5t-134.5 35.5q-85 0 -134.5 -36.5t-49.5 -99.5z" />
<glyph unicode="9" d="M76 895q0 222 154 351.5t421 129.5q295 0 460 -183t165 -509q0 -336 -190 -527.5t-527 -191.5q-208 0 -324 68t-116 188q0 86 56.5 134t158.5 48q77 0 128.5 -36.5t51.5 -87.5q0 -10 -3 -25t-3 -21q0 -10 26.5 -17t71.5 -7q118 0 197.5 90.5t79.5 228.5v9 q-78 -57 -158 -84t-166 -27q-220 0 -351.5 127t-131.5 342zM414 907q0 -97 61.5 -152t171.5 -55t173 55.5t63 151.5q0 97 -63.5 153t-172.5 56t-171 -55.5t-62 -153.5z" />
<glyph unicode=":" horiz-adv-x="725" d="M166 174q0 83 57 140t139 57q81 0 139 -58.5t58 -140.5q0 -81 -58 -139t-139 -58q-82 0 -139 58.5t-57 140.5zM166 723q0 83 57 140t139 57t139.5 -57.5t57.5 -139.5q0 -81 -58 -139t-139 -58q-82 0 -139 57.5t-57 139.5z" />
<glyph unicode=";" horiz-adv-x="725" d="M166 164q0 93 54 150t142 57q95 0 148 -72t53 -203q0 -94 -35.5 -201t-97.5 -196q-69 -99 -106.5 -133.5t-71.5 -34.5t-57 22.5t-23 53.5q0 45 57 127q14 20 21 31q46 68 69 121t23 89q0 12 -32.5 17t-49.5 12q-44 16 -69 59t-25 101zM166 723q0 83 57 140t139 57 t141.5 -58t59.5 -139q0 -80 -59.5 -138.5t-141.5 -58.5t-139 57.5t-57 139.5z" />
<glyph unicode="&#x3c;" horiz-adv-x="1706" d="M264 512v199l1178 483v-219l-893 -365l893 -364v-219z" />
<glyph unicode="=" horiz-adv-x="1706" d="M254 297v199h1198v-199h-1198zM254 727v199h1198v-199h-1198z" />
<glyph unicode="&#x3e;" horiz-adv-x="1706" d="M264 27v219l895 364l-895 365v219l1178 -483v-199z" />
<glyph unicode="?" horiz-adv-x="1241" d="M94 987q0 178 158.5 293t411.5 115q234 0 370.5 -112.5t136.5 -301.5q0 -89 -34.5 -158t-106.5 -123q-63 -48 -156 -78.5t-100 -33.5q-19 -10 -23.5 -53t-11.5 -58q-11 -25 -50.5 -41t-92.5 -16q-89 0 -128.5 35t-39.5 114q0 98 48 153t173 91q102 30 141 67.5t39 100.5 q0 76 -54 120t-148 44q-75 0 -124.5 -18.5t-68.5 -53.5q33 -12 50.5 -46t17.5 -85q0 -75 -56.5 -125.5t-142.5 -50.5q-88 0 -148.5 62.5t-60.5 158.5zM403 174q0 83 57 140t140 57q81 0 139 -58.5t58 -140.5q0 -81 -58 -139t-139 -58q-82 0 -139.5 58.5t-57.5 140.5z" />
<glyph unicode="@" horiz-adv-x="2048" d="M90 520q0 167 52.5 318.5t154.5 275.5q148 181 356 274t463 93q169 0 317.5 -45.5t258.5 -128.5q135 -105 201.5 -239.5t66.5 -303.5q0 -165 -65.5 -304.5t-188.5 -238.5q-70 -56 -152.5 -85.5t-171.5 -29.5q-106 0 -159.5 42t-55.5 124q-55 -84 -127 -123.5t-170 -39.5 q-158 0 -240.5 86t-82.5 254q0 239 139.5 401t343.5 162q80 0 139 -33t97 -98l53 98h178l-147 -598q-3 -11 -5 -22.5t-2 -18.5q0 -35 24 -52.5t71 -17.5q39 0 81.5 20t79.5 56q86 80 130.5 187t44.5 235q0 240 -185.5 394.5t-478.5 154.5q-141 0 -262.5 -34t-220.5 -101 q-170 -114 -261.5 -285t-91.5 -375q0 -307 207 -490.5t553 -183.5q162 0 316.5 49t287.5 142l82 -117q-153 -115 -324.5 -173t-357.5 -58q-192 0 -353 48.5t-286 143.5q-155 121 -232 279t-77 358zM760 444q0 -92 40.5 -140t117.5 -48q83 0 151.5 63t93.5 164l54 217 q-13 81 -57.5 123.5t-117.5 42.5q-114 0 -198 -124t-84 -298z" />
<glyph unicode="A" horiz-adv-x="1659" d="M-74 139q0 58 33 94.5t84 36.5q12 0 49 -6t62 -6q26 0 43.5 21t44.5 100l290 874q31 91 75 119.5t220 28.5q178 0 220.5 -26.5t74.5 -121.5l291 -874q25 -78 43 -99.5t45 -21.5q23 0 60 6t51 6q50 0 83.5 -36.5t33.5 -94.5q0 -72 -40.5 -111.5t-113.5 -39.5 q-18 0 -107.5 10t-160.5 10q-73 0 -156 -7t-94 -7q-97 0 -146 38.5t-49 114.5q0 56 29.5 89.5t79.5 33.5q15 0 28 -10l2 -2q28 0 44 13t16 34q0 8 -1 14.5t-3 13.5l-27 113q-9 1 -25 2q-129 7 -184 7q-25 0 -107 -5q-46 -2 -75 -4l-39 -112q-2 -7 -3 -12.5t-1 -14.5 q0 -23 16 -36t43 -13l2 1q14 11 29 11q49 0 78 -33.5t29 -89.5q0 -77 -48 -115t-145 -38q-11 0 -95 7t-157 7q-71 0 -160 -10t-108 -10q-74 0 -114 39.5t-40 111.5zM709 694h237l-119 408z" />
<glyph unicode="B" horiz-adv-x="1546" d="M55 133q0 60 30.5 95.5t80.5 35.5q20 0 53 -6t45 -6q32 0 42.5 10t10.5 51v11v714q0 51 -11.5 63.5t-41.5 12.5q-18 0 -53.5 -7t-52.5 -7q-46 0 -73.5 34t-27.5 91q0 72 33 109.5t96 37.5q7 0 37 -2q190 -16 389 -16q44 0 164.5 9t196.5 9q198 0 305.5 -90t107.5 -256 q0 -129 -70.5 -200t-213.5 -85q164 -21 247 -105.5t83 -229.5q0 -203 -137 -307.5t-402 -104.5q-77 0 -223 7t-215 7q-74 0 -161 -9t-101 -9q-70 0 -104 35.5t-34 107.5zM668 319q0 -33 26 -44t131 -11q117 0 171.5 40t54.5 126q0 82 -65 123t-195 41q-81 0 -102 -8.5 t-21 -48.5v-218zM668 879q0 -34 13.5 -41t61.5 -7q131 0 191.5 33.5t60.5 104.5q0 74 -51 107.5t-166 33.5q-68 0 -89 -9t-21 -38v-184z" />
<glyph unicode="C" horiz-adv-x="1337" d="M72 680q0 332 172 525.5t467 193.5q110 0 184.5 -34t114.5 -103q9 64 39.5 95.5t85.5 31.5q56 0 87 -28t31 -79q0 -19 -6 -81.5t-6 -106.5q0 -36 6 -95.5t6 -83.5q0 -73 -38 -109t-115 -36q-72 0 -108.5 32t-47.5 108q-20 129 -64 171.5t-135 42.5q-141 0 -215.5 -113.5 t-74.5 -328.5q0 -208 73.5 -326t202.5 -118q99 0 156.5 42.5t66.5 122.5q4 28 4.5 82t10.5 72q18 36 53 55t82 19q90 0 138 -55.5t48 -159.5q0 -208 -157 -327.5t-435 -119.5q-288 0 -457 192t-169 519z" />
<glyph unicode="D" horiz-adv-x="1583" d="M16 129q0 61 35 98t92 37q21 0 61.5 -9t59.5 -9q32 0 43.5 11.5t11.5 64.5v720q0 50 -10.5 60t-44.5 10q-17 0 -58.5 -5t-64.5 -5q-56 0 -90.5 36t-34.5 95q0 70 38.5 107.5t109.5 37.5q5 0 105.5 -8t195.5 -8q64 0 177 8t163 8q355 0 523.5 -171t168.5 -531 q0 -326 -167.5 -507t-469.5 -181q-9 0 -150 7t-276 7q-92 0 -182.5 -7t-91.5 -7q-68 0 -106 37t-38 104zM694 334q0 -62 19.5 -75t109.5 -13q149 0 218 108t69 342q0 218 -65.5 317t-208.5 99h-15q-93 0 -110 -15t-17 -91v-39v-633z" />
<glyph unicode="E" horiz-adv-x="1579" d="M16 131q0 61 35 98t92 37q21 0 60.5 -6t58.5 -6q33 0 44 10.5t11 59.5v714q0 57 -12.5 71.5t-42.5 14.5q-18 0 -58 -13t-63 -13q-56 0 -90.5 35.5t-34.5 95.5q0 69 37.5 106t108.5 37q4 0 26 -2q206 -16 463 -16q214 0 429 9l216 9q69 0 103.5 -30.5t34.5 -92.5 q0 -20 -5.5 -67.5t-5.5 -75.5q0 -35 5.5 -100t5.5 -95q0 -75 -41.5 -117t-116.5 -42q-61 0 -100 33t-39 81q0 17 3 52.5t3 54.5q0 89 -39.5 120t-214.5 31h-31q-113 0 -150.5 -20.5t-37.5 -85.5v-191q17 -4 32.5 -6t28.5 -2q44 0 69 16t25 44q0 13 -3 39.5t-3 39.5 q0 40 28.5 63t78.5 23q64 0 96.5 -28t32.5 -84q0 -16 -9.5 -94t-9.5 -142q0 -58 9.5 -126.5t9.5 -77.5q0 -52 -33.5 -79.5t-95.5 -27.5q-50 0 -78.5 22.5t-28.5 61.5q0 13 3 40t3 40q0 28 -25.5 44.5t-68.5 16.5q-6 0 -16.5 -1.5t-44.5 -8.5v-231q0 -64 44 -89.5t160 -25.5 q196 0 238.5 33.5t42.5 130.5q0 20 -3 59t-3 58q0 49 42 83.5t105 34.5q80 0 124 -44.5t44 -125.5q0 -25 -6 -99t-6 -122q0 -18 6 -63t6 -72q0 -69 -35.5 -102t-109.5 -33q-11 0 -62 3q-289 15 -581 15q-264 0 -482 -16q-26 -2 -30 -2q-73 0 -110.5 35t-37.5 104z" />
<glyph unicode="F" horiz-adv-x="1464" d="M16 131q0 61 35 98t92 37q21 0 60.5 -7t58.5 -7q32 0 43.5 11t11.5 61v714q0 50 -11.5 61t-43.5 11q-18 0 -58 -6t-63 -6q-56 0 -90.5 35.5t-34.5 95.5q0 69 37.5 106t108.5 37q4 0 26 -2q206 -16 463 -16q214 0 429 9l216 9q69 0 103.5 -30.5t34.5 -92.5 q0 -20 -5.5 -67.5t-5.5 -75.5q0 -35 5.5 -100t5.5 -95q0 -75 -41.5 -117t-116.5 -42q-61 0 -101 33.5t-40 80.5q0 17 4 52.5t4 54.5q0 90 -40.5 121.5t-213.5 31.5h-31q-112 0 -150 -21t-38 -87v-201q21 -5 35.5 -7.5t25.5 -2.5q43 0 68.5 16.5t25.5 44.5q0 14 -3 40.5 t-3 39.5q0 39 28.5 61.5t78.5 22.5q64 0 96.5 -28.5t32.5 -83.5q0 -15 -9.5 -93t-9.5 -143q0 -58 9.5 -126t9.5 -79q0 -51 -33 -77.5t-96 -26.5q-50 0 -78.5 22.5t-28.5 61.5q0 13 3 39.5t3 40.5q0 27 -25 43t-69 16q-11 0 -27 -2t-34 -6v-289q0 -28 13.5 -38.5t51.5 -10.5 q22 0 69.5 7t74.5 7q67 0 108 -37t41 -98q0 -68 -44.5 -103.5t-129.5 -35.5q-6 0 -34 2q-185 12 -386 12q-80 0 -170 -7t-100 -7q-74 0 -111 35t-37 104z" />
<glyph unicode="G" horiz-adv-x="1579" d="M72 680q0 327 172.5 521t464.5 194q104 0 190 -31t141 -88q8 56 45 88.5t93 32.5q57 0 92 -29.5t35 -75.5q0 -21 -4.5 -83t-4.5 -103q0 -26 4.5 -75t4.5 -73q0 -73 -41 -107t-127 -34q-77 0 -112.5 29.5t-55.5 118.5q-17 74 -74.5 116.5t-140.5 42.5q-147 0 -223 -112.5 t-76 -329.5q0 -213 73.5 -326.5t210.5 -113.5q95 0 153 45.5t58 120.5q0 39 -12 61.5t-33 22.5q-9 0 -35.5 -5.5t-42.5 -5.5q-56 0 -89 34t-33 93q0 75 36.5 112.5t110.5 37.5q13 0 103 -9.5t167 -9.5q92 0 191.5 9.5t107.5 9.5q74 0 112 -37.5t38 -110.5q0 -56 -32 -92.5 t-79 -36.5q-20 0 -49 5.5t-37 5.5q-26 0 -45.5 -26t-19.5 -63q0 -60 18.5 -158.5t18.5 -138.5q0 -67 -42 -102t-122 -35q-69 0 -105.5 29.5t-36.5 83.5q0 4 1 11t1 11q-52 -62 -150.5 -98.5t-213.5 -36.5q-272 0 -439 195.5t-167 515.5z" />
<glyph unicode="H" horiz-adv-x="1802" d="M18 133q0 61 35 97t92 36q21 0 60.5 -7t58.5 -7q32 0 43.5 11t11.5 61v725q0 41 -11 51t-42 10q-17 0 -58.5 -7t-64.5 -7q-55 0 -90 36.5t-35 96.5q0 70 38 106.5t110 36.5q11 0 101 -8t169 -8q53 0 137.5 8t116.5 8q82 0 124 -38t42 -111q0 -55 -23 -83t-69 -30 q-52 -11 -63 -23t-11 -43v-170q62 -4 117.5 -6t99.5 -2q50 0 173 7q20 1 30 1v191q0 14 -13 23t-59 22q-48 2 -70 28t-22 81q0 77 41 115t123 38q33 0 118.5 -8t137.5 -8q79 0 168 8t100 8q72 0 111 -37.5t39 -105.5q0 -61 -35.5 -97t-93.5 -36q-24 0 -64.5 7t-56.5 7 q-31 0 -42 -12t-11 -60v-731q0 -34 11.5 -44.5t43.5 -10.5q19 0 60.5 7t64.5 7q54 0 88.5 -37t34.5 -96q0 -68 -39 -106.5t-107 -38.5q-17 0 -101.5 9t-152.5 9q-65 0 -157 -9t-117 -9q-84 0 -124 37t-40 114q0 56 23.5 84.5t68.5 28.5q43 10 57.5 20t14.5 27v25v264 q-10 0 -30 1q-123 7 -173 7q-44 0 -99.5 -2t-117.5 -6v-264q0 -35 10.5 -49t40.5 -23q64 0 89.5 -26t25.5 -83q0 -77 -41.5 -116t-124.5 -39q-22 0 -117 9t-170 9q-68 0 -149.5 -9t-93.5 -9q-67 0 -104.5 38.5t-37.5 106.5z" />
<glyph unicode="I" horiz-adv-x="1049" d="M33 131q0 62 35 99.5t92 37.5q20 0 59.5 -8t59.5 -8q32 0 43.5 11t11.5 61v714v11q0 41 -11.5 52t-41.5 11q-18 0 -59.5 -7t-63.5 -7q-56 0 -90.5 35.5t-34.5 95.5q0 69 38.5 107t108.5 38q7 0 102 -9t185 -9q167 0 349 15q42 3 52 3q72 0 109 -35.5t37 -105.5 q0 -62 -34 -98.5t-91 -36.5q-21 0 -61.5 7t-59.5 7q-33 0 -44 -10.5t-11 -59.5v-733q0 -34 11.5 -45.5t43.5 -11.5q18 0 59.5 8t63.5 8q55 0 89 -35.5t34 -95.5q0 -70 -38 -108.5t-108 -38.5q-6 0 -101.5 10t-184.5 10q-167 0 -351 -16q-43 -4 -53 -4q-71 0 -108 35.5 t-37 105.5z" />
<glyph unicode="J" horiz-adv-x="1366" d="M-18 399q0 151 96.5 246.5t247.5 95.5q109 0 181.5 -65t72.5 -164q0 -80 -44 -124t-122 -44q-47 0 -74.5 26.5t-28.5 26.5q-11 0 -16.5 -6t-5.5 -18q0 -63 50 -103.5t130 -40.5q118 0 183 72.5t65 204.5v86v444q0 52 -13.5 62t-58.5 10q-23 0 -65.5 -6t-61.5 -6 q-52 0 -86.5 37t-34.5 94q0 69 40.5 107t115.5 38q9 0 108 -9t191 -9q158 0 332 15q39 3 49 3q71 0 106 -35t35 -106q0 -62 -33 -98.5t-88 -36.5q-19 0 -58 6t-58 6q-32 0 -43 -10t-11 -58v-540q0 -155 -24 -226.5t-80 -132.5q-76 -82 -198.5 -127t-272.5 -45 q-246 0 -386 115t-140 315z" />
<glyph unicode="K" horiz-adv-x="1749" d="M16 133q0 61 35 98t92 37q21 0 60.5 -9t58.5 -9q32 0 43.5 11.5t11.5 62.5v714q0 50 -11.5 61t-43.5 11q-18 0 -58 -6t-63 -6q-56 0 -90.5 35.5t-34.5 95.5q0 70 38 106.5t110 36.5q11 0 101 -8t169 -8q53 0 137.5 8t116.5 8q81 0 122.5 -37.5t41.5 -111.5 q0 -56 -22 -83.5t-68 -29.5q-52 -11 -63 -23t-11 -43v-251l350 307q9 8 14 18t5 19q0 22 -35 53.5t-35 64.5q0 60 34 88.5t103 28.5q13 0 97.5 -8t156.5 -8q68 0 145 8t87 8q49 0 80.5 -37t31.5 -96q0 -68 -31 -100.5t-96 -32.5q-13 0 -39 2t-40 2q-19 0 -33 -5.5t-28 -18.5 l-259 -234q-11 -12 -18 -22t-7 -17q0 -8 3.5 -17t9.5 -20l280 -481q16 -27 33.5 -36t48.5 -9q25 0 66.5 9t58.5 9q37 0 61.5 -33.5t24.5 -87.5q0 -78 -40 -118.5t-118 -40.5q-9 0 -81 10t-136 10q-60 0 -149.5 -10t-118.5 -10q-66 0 -97.5 30t-31.5 95q0 47 42 77t42 50 q0 7 -3.5 17t-10.5 22l-191 335l-176 -149v-141q0 -35 10.5 -49t40.5 -25q64 0 88.5 -25t24.5 -82q0 -77 -41 -116t-123 -39q-22 0 -118 10t-171 10q-69 0 -149 -10t-92 -10q-67 0 -104.5 38.5t-37.5 106.5z" />
<glyph unicode="L" horiz-adv-x="1470" d="M16 131q0 61 35 98t92 37q21 0 60.5 -6t58.5 -6q33 0 44 10.5t11 59.5v714q0 50 -11.5 61t-43.5 11q-18 0 -58 -6t-63 -6q-56 0 -90.5 35.5t-34.5 95.5q0 70 38 107.5t108 37.5q7 0 39 -3q159 -17 315 -17q129 0 275 16q40 4 51 4q72 0 110.5 -38.5t38.5 -110.5 q0 -61 -32.5 -94t-92.5 -33q-22 0 -63 6t-60 6q-32 0 -43.5 -11.5t-11.5 -60.5v-669q0 -65 37 -90t141 -25q151 0 200.5 36t49.5 138q0 19 -3 58t-3 59q0 50 41.5 85.5t105.5 35.5q80 0 124 -45.5t44 -126.5q0 -31 -6 -102.5t-6 -110.5q0 -32 6 -82.5t6 -69.5 q0 -70 -35.5 -103.5t-111.5 -33.5q-15 0 -76 3q-273 15 -526 15q-264 0 -482 -16q-26 -2 -30 -2q-73 0 -110.5 35t-37.5 104z" />
<glyph unicode="M" horiz-adv-x="2175" d="M59 133q0 60 30.5 96.5t78.5 36.5q18 0 51 -7t49 -7q27 0 37 11.5t10 60.5v714q0 49 -10 60.5t-37 11.5q-13 0 -47 -6t-55 -6q-47 0 -77 36t-30 95q0 70 32.5 106.5t94.5 36.5q6 0 31 -3q156 -17 326 -17q46 0 130 10t122 10q66 0 96 -25t45 -96l117 -561 q6 -30 13.5 -94.5t14.5 -154.5q7 75 15 139.5t16 109.5l115 561q14 70 45 95.5t98 25.5q37 0 121 -10t131 -10q171 0 328 17q25 3 30 3q62 0 93.5 -36.5t31.5 -106.5q0 -59 -29.5 -95t-76.5 -36q-21 0 -55 6t-48 6q-26 0 -36.5 -11.5t-10.5 -60.5v-721q0 -45 10 -55t37 -10 q17 0 50 7t51 7q48 0 78 -36.5t30 -96.5q0 -68 -31 -106.5t-85 -38.5q-5 0 -26 3q-96 13 -187 13q-69 0 -149.5 -8t-92.5 -8q-78 0 -117 39t-39 116q0 57 23.5 83t83.5 26q29 10 39 23.5t10 48.5v573q0 53 4 116.5t12 141.5h-20l-256 -995q-27 -104 -60 -132t-133 -28 t-132 26.5t-60 133.5l-256 995h-16q7 -65 10.5 -129.5t3.5 -128.5v-573q0 -35 10 -48.5t39 -23.5q60 0 83 -26t23 -83q0 -77 -39 -116t-116 -39q-12 0 -92.5 8t-149.5 8q-92 0 -186 -13q-20 -3 -25 -3q-55 0 -87 38.5t-32 106.5z" />
<glyph unicode="N" horiz-adv-x="1835" d="M47 133q0 64 27.5 98.5t79.5 34.5q22 0 57.5 -7t48.5 -7q34 0 45.5 10t11.5 51v11v714q0 51 -13 62.5t-48 11.5q-19 0 -52.5 -7t-47.5 -7q-42 0 -75.5 39t-33.5 94q0 64 38.5 102.5t100.5 38.5q7 0 34 -3q146 -15 296 -15q55 0 137 9t111 9q79 0 115 -94q7 -20 12 -31 l319 -757q7 -16 25 -68t39 -116q-9 92 -13 206q-1 26 -1 35l-17 492q-2 42 -13 57.5t-36 15.5q-18 0 -50 -7t-44 -7q-54 0 -82.5 33t-28.5 96q0 72 31.5 108.5t93.5 36.5q7 0 33 -3q119 -15 231 -15q152 0 297 15q26 3 31 3q69 0 104 -36t35 -107q0 -61 -32.5 -96t-88.5 -35 q-23 0 -58.5 7t-47.5 7q-26 0 -39.5 -14.5t-13.5 -40.5q0 -3 1 -9.5t1 -9.5v-850q0 -121 -46 -160.5t-231 -39.5q-191 0 -262 162q-3 7 -4 10l-344 780q-2 4 -6 14q-35 78 -53 150q0 -29 2 -80q4 -138 6 -160l22 -540q2 -41 13 -56.5t36 -15.5q14 0 46 7t51 7q48 0 78 -36.5 t30 -96.5q0 -69 -33.5 -107t-93.5 -38q-7 0 -36 3q-118 13 -226 13q-133 0 -284 -13q-41 -3 -52 -3q-68 0 -100.5 35t-32.5 110z" />
<glyph unicode="O" horiz-adv-x="1464" d="M76 682q0 336 173.5 524.5t483.5 188.5q306 0 481 -190.5t175 -522.5q0 -331 -176 -521t-484 -190q-307 0 -480 188t-173 523zM455 682q0 -211 71 -322.5t205 -111.5q132 0 204.5 113t72.5 321q0 211 -71.5 322.5t-205.5 111.5t-205 -111.5t-71 -322.5z" />
<glyph unicode="P" horiz-adv-x="1395" d="M55 133q0 61 30.5 97t80.5 36q20 0 53 -8t45 -8q31 0 42 10.5t11 52.5v11v714v11q0 39 -10 48t-41 9q-10 0 -44 -6t-56 -6q-50 0 -80.5 35.5t-30.5 95.5q0 72 34 111.5t95 39.5q5 0 28 -3q141 -19 292 -19q91 0 215 11t160 11q221 0 347 -122.5t126 -338.5 q0 -110 -42 -201.5t-120 -152.5q-64 -49 -152.5 -69.5t-275.5 -20.5q-15 0 -35 2t-25 2q-17 0 -25.5 -5.5t-8.5 -16.5v-152q0 -28 11.5 -39.5t39.5 -11.5q14 0 57.5 8t71.5 8q62 0 98.5 -36.5t36.5 -98.5q0 -67 -39 -105t-108 -38q-8 0 -39 3q-144 17 -281 17 q-180 0 -319 -18q-16 -2 -19 -2q-57 0 -90 39t-33 106zM668 788q0 -33 12 -43t43 -10q136 0 207 45.5t71 132.5q0 95 -53 144t-155 49q-81 0 -103 -11t-22 -51v-256z" />
<glyph unicode="Q" horiz-adv-x="1464" d="M76 682q0 336 173.5 524.5t483.5 188.5q306 0 481 -190t175 -523q0 -223 -86.5 -388.5t-247.5 -252.5l14 -55q1 -3 2 -7q15 -59 57 -59q30 0 50 51q10 24 16 35q12 22 34 33.5t50 11.5q61 0 102 -39.5t41 -99.5q0 -121 -93 -192.5t-255 -71.5q-152 0 -225.5 72t-73.5 221 v30h-55q-300 0 -471.5 190.5t-171.5 520.5zM455 666q0 -190 63.5 -298.5t179.5 -117.5q-11 22 -65.5 69t-54.5 107q0 49 47.5 87t115.5 38q70 0 121.5 -43t81.5 -127q33 50 50.5 128t17.5 173q0 207 -74 320.5t-207 113.5q-136 0 -206 -114.5t-70 -335.5z" />
<glyph unicode="R" horiz-adv-x="1602" d="M55 133q0 63 31 97t88 34q20 0 53 -7t45 -7q26 0 35.5 11t9.5 52v11v714v13q0 37 -9 46t-36 9q-13 0 -47 -4t-55 -4q-54 0 -84.5 33.5t-30.5 93.5q0 70 33.5 109.5t91.5 39.5q5 0 27 -3q160 -23 348 -23q67 0 204 13t210 13q209 0 323.5 -95t114.5 -269q0 -128 -68 -196 t-221 -93q121 -22 180 -67.5t78 -131.5q4 -22 6 -45t2 -49q0 -18 -1 -49t-1 -43q0 -46 12 -66t38 -20q5 0 39.5 7t62.5 7q54 0 84.5 -32t30.5 -91q0 -76 -46 -113.5t-139 -37.5q-18 0 -66 7t-77 7q-16 0 -49.5 -7t-50.5 -7q-105 0 -158 62.5t-53 185.5q0 28 1 68.5t1 51.5 q0 114 -50 155.5t-190 41.5q-70 0 -87 -19.5t-17 -82.5v-144q0 -37 11.5 -48t43.5 -11q18 0 50.5 7t45.5 7q44 0 70 -35t26 -94q0 -71 -31 -108t-91 -37q-4 0 -20 1q-124 13 -275 13q-146 0 -283 -12q-22 -2 -27 -2q-66 0 -99.5 35.5t-33.5 107.5zM668 852q0 -37 14.5 -44 t67.5 -7q140 0 204 36t64 113q0 81 -56 118.5t-178 37.5q-72 0 -94 -10t-22 -41v-203z" />
<glyph unicode="S" horiz-adv-x="1305" d="M55 979q0 183 137.5 301.5t354.5 118.5q110 0 199.5 -31.5t170.5 -99.5q-1 7 -4 19q-4 18 -4 24q0 35 36.5 59.5t90.5 24.5q65 0 100 -37t35 -105q0 -19 -6 -70t-6 -85q0 -25 6 -67t6 -60q0 -49 -41 -83t-104 -34q-112 0 -150 141q-5 18 -8 27q-15 53 -69 83t-135 30 q-96 0 -151.5 -36t-55.5 -98q0 -93 229 -130q106 -17 166 -31q202 -47 298.5 -147t96.5 -263q0 -212 -151.5 -338.5t-403.5 -126.5q-123 0 -209.5 33t-146.5 102v-6q0 -58 -33 -88.5t-96 -30.5q-68 0 -107 33t-39 90q0 15 7.5 65t7.5 85q0 39 -7.5 97.5t-7.5 76.5 q0 75 44 117.5t122 42.5q36 0 68 -13.5t55 -38.5q31 -33 41 -114q4 -35 8 -54q11 -47 77.5 -81.5t156.5 -34.5q95 0 149 39.5t54 109.5q0 111 -219 153q-116 22 -187 42q-186 50 -280.5 148t-94.5 241z" />
<glyph unicode="T" horiz-adv-x="1374" d="M27 885q0 25 6 89.5t6 102.5q0 29 -6 87.5t-6 88.5q0 57 38 88t109 31q9 0 52 -2q232 -12 460 -12t462 12q43 2 52 2q70 0 108 -30.5t38 -88.5q0 -30 -5.5 -88.5t-5.5 -87.5q0 -38 5.5 -102.5t5.5 -89.5q0 -72 -44 -112t-124 -40q-69 0 -109.5 33.5t-40.5 87.5q0 24 6 74 t6 78q0 48 -19 73t-56 25q-43 0 -68 -21.5t-25 -58.5q0 -4 1 -13.5t1 -13.5v-688q0 -33 11.5 -43t44.5 -10q17 0 58.5 6t64.5 6q56 0 90.5 -35.5t34.5 -95.5q0 -70 -39 -108.5t-109 -38.5q-7 0 -39 3q-156 17 -305 17t-303 -17q-31 -3 -39 -3q-70 0 -108.5 38.5t-38.5 108.5 q0 60 34.5 95.5t90.5 35.5q22 0 63.5 -6t58.5 -6q33 0 44.5 10.5t11.5 59.5v671q0 4 1 13.5t1 13.5q0 37 -25 58.5t-67 21.5q-38 0 -58 -25t-20 -73q0 -28 7 -78t7 -74q0 -54 -41.5 -87.5t-109.5 -33.5q-80 0 -124 40t-44 112z" />
<glyph unicode="U" horiz-adv-x="1753" d="M2 1225q0 72 36.5 109.5t106.5 37.5q21 0 105.5 -9t148.5 -9q59 0 150 9t121 9q81 0 122.5 -39t41.5 -116q0 -58 -23.5 -83.5t-89.5 -25.5q-30 -11 -40.5 -24.5t-10.5 -45.5v-442q0 -204 46 -264t163 -60t162.5 59.5t45.5 264.5v444q0 34 -8 46.5t-30 21.5q-6 0 -19 1 q-106 5 -106 112q0 76 40.5 113.5t122.5 37.5q30 0 121 -9t150 -9q65 0 149.5 9t104.5 9q73 0 111 -35.5t38 -103.5q0 -63 -36 -102t-93 -39q-25 0 -65 8t-56 8q-30 0 -40.5 -10.5t-10.5 -59.5v-444q0 -186 -19 -273t-65 -149q-71 -96 -200 -148.5t-295 -52.5 q-170 0 -299.5 52.5t-200.5 148.5q-44 62 -63 147.5t-19 258.5v143v313q0 52 -11.5 63t-43.5 11q-18 0 -59.5 -8t-63.5 -8q-54 0 -86.5 36t-32.5 97z" />
<glyph unicode="V" horiz-adv-x="1579" d="M-74 1229q0 69 39 106t111 37q11 0 100 -8t168 -8q53 0 138.5 8t117.5 8q82 0 123 -38.5t41 -114.5q0 -45 -20 -75.5t-49 -33.5q-14 -3 -39 -5q-60 -4 -60 -38q0 -3 1.5 -11t4.5 -20l191 -671l192 671q3 12 4.5 19.5t1.5 11.5q0 34 -60 38q-25 2 -38 5q-29 3 -49.5 33.5 t-20.5 75.5q0 76 41 114.5t123 38.5q33 0 118.5 -8t137.5 -8q79 0 168 8t100 8q73 0 111.5 -37t38.5 -106q0 -57 -32 -94t-81 -37q-14 0 -50 6t-58 6q-26 0 -43.5 -21.5t-40.5 -95.5l-279 -858q-29 -89 -72 -117t-194 -28h-43q-143 0 -185.5 26t-72.5 119l-279 858 q-23 74 -40 95.5t-44 21.5q-21 0 -57.5 -6t-50.5 -6q-48 0 -80.5 37t-32.5 94z" />
<glyph unicode="W" horiz-adv-x="2128" d="M-92 1235q0 61 39.5 99t103.5 38q12 0 94.5 -9t153.5 -9q46 0 125.5 9t112.5 9q83 0 131.5 -40.5t48.5 -108.5q0 -58 -29.5 -84.5t-93.5 -26.5q-35 0 -51.5 -11.5t-16.5 -35.5q0 -2 2 -13t2 -16l142 -696h18l133 905q10 64 35 86.5t100 22.5h101h98q77 0 101.5 -21.5 t33.5 -87.5l135 -905h17l141 696q1 4 3.5 13.5t2.5 15.5q0 23 -16 35t-45 12q-69 0 -99 25t-30 82q0 72 47.5 112.5t132.5 40.5q33 0 111 -9t125 -9q69 0 151.5 9t95.5 9q65 0 105.5 -38t40.5 -99q0 -58 -33 -95.5t-86 -37.5q-18 0 -46 5t-38 5q-34 0 -51.5 -22t-36.5 -97 l-217 -874q-19 -78 -58.5 -100.5t-218.5 -22.5h-51q-117 0 -151.5 25.5t-42.5 93.5l-109 803h-22l-111 -803q-10 -68 -45 -93.5t-152 -25.5h-51q-175 0 -214.5 22t-59.5 101l-217 874q-20 76 -37.5 97.5t-52.5 21.5q-11 0 -38.5 -5t-43.5 -5q-53 0 -86 37.5t-33 95.5z" />
<glyph unicode="X" horiz-adv-x="1575" d="M-27 135q0 57 27.5 94t67.5 37q11 0 42 -5t50 -5q31 0 52.5 14t51.5 56l250 370l-238 342q-30 45 -50.5 57.5t-55.5 12.5q-12 0 -43 -5t-49 -5q-36 0 -63 37.5t-27 93.5q0 69 34.5 106t98.5 37q16 0 94.5 -8t138.5 -8q57 0 138.5 8t105.5 8q71 0 111.5 -35.5t40.5 -97.5 q0 -65 -51.5 -94t-51.5 -45q0 -11 20 -43q4 -6 7 -11l112 -188l115 188q3 5 7 11q20 32 20 43q0 16 -51.5 45t-51.5 94q0 62 40.5 97.5t111.5 35.5q24 0 105.5 -8t138.5 -8q60 0 138.5 8t94.5 8q64 0 98.5 -37t34.5 -106q0 -56 -27 -93.5t-63 -37.5q-18 0 -49 5t-43 5 q-35 0 -55.5 -12.5t-51.5 -57.5l-237 -342l250 -370q29 -42 51 -56t53 -14q19 0 50 5t42 5q40 0 67.5 -37t27.5 -94q0 -70 -35.5 -107.5t-100.5 -37.5q-10 0 -92 10t-153 10q-46 0 -128 -10t-116 -10q-71 0 -111.5 36.5t-40.5 100.5q0 34 12.5 54.5t41.5 33.5q9 4 24 9 q37 13 37 40q0 23 -18 50q-5 7 -6 9l-130 220l-127 -220q-1 -2 -6 -9q-18 -27 -18 -50q0 -28 43 -42q1 -1 2 -1q41 -14 55.5 -34.5t14.5 -59.5q0 -64 -40.5 -100.5t-111.5 -36.5q-34 0 -116 10t-128 10q-71 0 -153 -10t-92 -10q-66 0 -101 37.5t-35 107.5z" />
<glyph unicode="Y" horiz-adv-x="1675" d="M-39 1229q0 70 40 106.5t116 36.5q20 0 110 -8t158 -8q62 0 147 8t107 8q77 0 120.5 -35t43.5 -98q0 -35 -13 -58.5t-38 -35.5q-10 -5 -28 -11q-34 -11 -34 -34q0 -14 22 -54q0 -1 1 -2l123 -239l120 239q4 7 11 20q14 26 14 36q0 22 -35 34q-19 6 -29 11 q-25 12 -38 35.5t-13 58.5q0 63 43.5 98t120.5 35q22 0 107 -8t147 -8q68 0 158 8t110 8q76 0 116 -36.5t40 -106.5q0 -55 -32 -93t-74 -38q-22 0 -58 5t-49 5q-42 0 -71.5 -16.5t-53.5 -53.5l-332 -514q-8 -15 -12 -31.5t-4 -43.5v-11v-110v-29q0 -24 12 -33.5t41 -9.5 q18 0 62.5 7t70.5 7q66 0 105 -35.5t39 -97.5q0 -69 -43 -107t-121 -38q-3 0 -121.5 10t-235.5 10q-101 0 -215 -10t-127 -10q-82 0 -127 38t-45 107q0 61 41 97t109 36q26 0 69.5 -7t61.5 -7q31 0 43 10t12 37v25v110q0 26 -5.5 47t-16.5 39l-332 514q-24 37 -53.5 53.5 t-71.5 16.5q-13 0 -48.5 -5t-57.5 -5q-43 0 -75 38t-32 93z" />
<glyph unicode="Z" horiz-adv-x="1389" d="M47 150q0 78 87 177q30 33 44 52l567 729h-243q-52 0 -75.5 -15t-23.5 -49q0 -14 8.5 -55t8.5 -65q0 -60 -41.5 -95.5t-112.5 -35.5q-66 0 -107.5 37.5t-41.5 95.5q0 23 6 89t6 109q0 26 -6 77t-6 77q0 47 36 73.5t101 26.5q17 0 114 -6t177 -6h407q22 0 76.5 6t85.5 6 q84 0 123 -32.5t39 -102.5q0 -65 -75 -159q-4 -5 -7 -9l-612 -788h313q63 0 88 18t25 64q0 27 -15.5 89.5t-15.5 96.5q0 55 47.5 91t122.5 36q73 0 115.5 -42t42.5 -112q0 -30 -8.5 -110t-8.5 -129q0 -21 8.5 -80t8.5 -98q0 -57 -40 -88t-114 -31q-3 0 -95 4t-179 4h-523 q-20 0 -73.5 -4t-85.5 -4q-66 0 -107 43.5t-41 114.5z" />
<glyph unicode="[" horiz-adv-x="1057" d="M135 -301v1530v8q0 98 31.5 123.5t109.5 25.5q39 0 130.5 -7t144.5 -7q52 0 139 7t123 7q81 0 125.5 -38t44.5 -109q0 -68 -39.5 -104.5t-114.5 -36.5q-48 0 -152.5 19.5t-156.5 19.5q-11 0 -23.5 -3t-29.5 -10v-1322q13 -6 26 -8.5t27 -2.5q52 0 156.5 19.5t152.5 19.5 q75 0 114.5 -36.5t39.5 -104.5q0 -71 -44.5 -109.5t-125.5 -38.5q-36 0 -123 7.5t-139 7.5q-53 0 -144.5 -7.5t-130.5 -7.5q-78 0 -109.5 25.5t-31.5 124.5v8z" />
<glyph unicode="\" horiz-adv-x="559" d="M12 1356q0 23 10.5 31t53.5 8h30q66 0 85 -66q1 -4 2 -6l397 -1448q1 -2 1.5 -7.5t0.5 -21.5q0 -23 -12 -31t-60 -8q-86 0 -105 67q-1 4 -1 5l-398 1449q-2 11 -3 17.5t-1 10.5z" />
<glyph unicode="]" horiz-adv-x="1057" d="M72 -311q0 68 39.5 104.5t113.5 36.5q49 0 153.5 -19.5t156.5 -19.5q14 0 27 2.5t25 7.5l1 1323q-17 7 -29.5 10t-23.5 3q-52 0 -156.5 -19.5t-153.5 -19.5q-74 0 -113.5 36.5t-39.5 104.5q0 71 44 109t126 38q36 0 123 -7t139 -7t144 7t130 7q79 0 110.5 -25.5 t31.5 -123.5v-8v-1530v-8q0 -99 -31.5 -124.5t-110.5 -25.5q-38 0 -130 7.5t-144 7.5t-139 -7.5t-123 -7.5q-82 0 -126 38.5t-44 109.5z" />
<glyph unicode="^" horiz-adv-x="2048" d="M416 899l481 561h252l481 -561h-235l-371 371l-373 -371h-235z" />
<glyph unicode="_" horiz-adv-x="1024" d="M0 -279h1024v-204h-1024v204z" />
<glyph unicode="`" horiz-adv-x="1024" d="M156 1452q0 46 31 77.5t77 31.5q32 0 63 -17t93 -80l172 -174q11 -11 30 -29q58 -57 58 -73q0 -14 -13.5 -23.5t-33.5 -9.5q-36 0 -129 48l-2 1l-244 127q-56 29 -79 57t-23 64z" />
<glyph unicode="a" horiz-adv-x="1247" d="M45 287q0 147 79 220t289 105q14 2 41 6q251 39 251 136q0 52 -35.5 85t-91.5 33q-49 0 -71 -12.5t-22 -40.5q0 -12 2 -31.5t2 -25.5q0 -40 -50.5 -70t-125.5 -30q-81 0 -130.5 43.5t-49.5 113.5q0 116 112 177t326 61q128 0 217.5 -22t147.5 -68q48 -39 68 -94t20 -183 v-33v-383q0 -50 78 -54q13 0 21 -1q36 -3 56.5 -29t20.5 -71q0 -71 -52 -111.5t-144 -40.5q-78 0 -131.5 31t-81.5 92q-74 -65 -162 -94t-217 -29q-167 0 -267 88t-100 232zM385 307q0 -51 34.5 -82.5t90.5 -31.5q94 0 141 48.5t47 145.5v78q-61 -31 -187 -52.5t-126 -105.5 z" />
<glyph unicode="b" horiz-adv-x="1229" d="M-139 1251q0 69 34.5 98t116.5 29q31 0 110 -6t128 -6q30 0 77 6t64 6q35 0 48.5 -18.5t13.5 -69.5v-366q29 61 105 99t169 38q191 0 308.5 -146t117.5 -387q0 -262 -115.5 -411.5t-316.5 -149.5q-95 0 -171 35.5t-134 108.5v-39q0 -59 -21.5 -74.5t-111.5 -15.5 q-92 0 -112.5 15.5t-20.5 74.5v1032q-1 28 -14 36.5t-54 8.5q-20 0 -59.5 -6t-59.5 -6q-45 0 -73.5 31.5t-28.5 82.5zM446 430q0 -104 51.5 -161.5t143.5 -57.5q98 0 151.5 76t53.5 217q0 150 -51.5 224.5t-155.5 74.5q-95 0 -144 -55t-49 -162v-156z" />
<glyph unicode="c" horiz-adv-x="1071" d="M61 512q0 249 145.5 398t389.5 149q191 0 304.5 -83t113.5 -220q0 -76 -48.5 -125t-123.5 -49q-77 0 -123.5 32.5t-46.5 85.5q0 14 8 39t8 37q0 14 -24.5 23.5t-63.5 9.5q-105 0 -161 -76t-56 -221q0 -138 56 -218.5t151 -80.5q52 0 89 26.5t54 75.5q25 72 55.5 96.5 t81.5 24.5q68 0 110 -42.5t42 -110.5q0 -136 -125 -226t-319 -90q-231 0 -374 150.5t-143 394.5z" />
<glyph unicode="d" horiz-adv-x="1284" d="M72 524q0 238 117.5 381.5t310.5 143.5q82 0 148.5 -27.5t125.5 -85.5v147q0 42 -10 53t-43 11q-18 0 -57.5 -5t-61.5 -5q-58 0 -88.5 29t-30.5 85q0 68 35.5 97.5t116.5 29.5q31 0 110.5 -6t126.5 -6q30 0 78 6t66 6q34 0 46.5 -18t12.5 -70v-1003q0 -37 11 -47.5 t42 -10.5q14 0 46.5 5.5t50.5 5.5q46 0 72 -30.5t26 -82.5q0 -65 -32 -101t-89 -36q-10 0 -72 7t-114 7q-34 0 -84.5 -7t-67.5 -7q-30 0 -43.5 10t-13.5 33v71q-68 -72 -139 -104.5t-162 -32.5q-203 0 -318.5 148t-115.5 409zM381 504q0 -141 53 -217t152 -76q92 0 143 57.5 t51 161.5v156q0 107 -48.5 162t-143.5 55q-104 0 -155.5 -74.5t-51.5 -224.5z" />
<glyph unicode="e" horiz-adv-x="1161" d="M61 512q0 250 144.5 397.5t392.5 147.5q240 0 376 -128t136 -354q0 -58 -18 -84t-58 -26h-624q0 -130 54.5 -194t166.5 -64q59 0 94 23.5t55 80.5q16 42 55.5 66t92.5 24q79 0 123.5 -36.5t44.5 -102.5q0 -126 -134.5 -210.5t-347.5 -84.5q-258 0 -405.5 145.5 t-147.5 399.5zM422 650l350 -1q0 87 -44.5 133.5t-127.5 46.5q-79 0 -127 -48.5t-51 -130.5z" />
<glyph unicode="f" horiz-adv-x="948" d="M25 117q0 53 31.5 88t78.5 35q22 0 56.5 -7.5t46.5 -7.5q33 0 44 10.5t11 53.5v446q0 36 -11 47t-44 11q-14 0 -46.5 -4.5t-50.5 -4.5q-48 0 -75 30t-27 83q0 59 30.5 91t86.5 32q27 0 64 -2t83 -6q0 9 -1 25t-1 24q0 174 92.5 259t282.5 85q170 0 260 -56.5t90 -162.5 q0 -64 -42.5 -101.5t-115.5 -37.5q-54 0 -96.5 29t-42.5 63q0 7 2 16.5t2 11.5q0 19 -13 30t-34 11q-42 0 -63 -36.5t-21 -110.5q0 -20 0.5 -30t1.5 -19q48 0 97 4t51 4q47 0 75.5 -32.5t28.5 -86.5t-26.5 -85.5t-71.5 -31.5q-17 0 -48 4.5t-44 4.5q-31 0 -41.5 -9.5 t-10.5 -48.5v-456q0 -34 10.5 -44t43.5 -10q11 0 45.5 7.5t56.5 7.5q48 0 80.5 -35t32.5 -88q0 -61 -34 -93t-99 -32q-4 0 -25 2q-127 12 -264 12q-151 0 -283 -12q-20 -2 -24 -2q-64 0 -96.5 32t-32.5 93z" />
<glyph unicode="g" horiz-adv-x="1114" d="M18 -104q0 92 50.5 147t160.5 82q-81 8 -122 54.5t-41 129.5q0 76 40.5 128t122.5 81q-36 30 -52.5 73.5t-16.5 106.5q0 161 112.5 257t302.5 96q19 0 39.5 -1.5t44.5 -4.5v12q0 97 65.5 151t182.5 54q96 0 154.5 -46.5t58.5 -121.5q0 -58 -32 -90.5t-89 -32.5 q-52 0 -78 44t-42 44q-15 0 -28 -12.5t-13 -26.5q0 -2 1 -13.5t1 -21.5q101 -48 146.5 -120t45.5 -181q0 -164 -118.5 -261t-319.5 -97q-78 0 -146 26.5t-71 26.5q-14 0 -25.5 -13.5t-11.5 -31.5q0 -55 55.5 -75.5t294.5 -22.5q4 -1 11 -1q227 -4 313 -67 q55 -41 84.5 -108.5t29.5 -151.5q0 -169 -149.5 -264t-415.5 -95q-260 0 -402.5 90.5t-142.5 256.5zM330 -86q0 -57 54 -85t167 -28q140 0 206 26.5t66 82.5q0 43 -30.5 65.5t-90.5 22.5h-104q-52 0 -96.5 4.5t-86.5 13.5q-38 -12 -61.5 -40t-23.5 -62zM461 696 q0 -69 36.5 -110t98.5 -41t98.5 41t36.5 110q0 70 -36.5 111t-98.5 41t-98.5 -41t-36.5 -111z" />
<glyph unicode="h" horiz-adv-x="1470" d="M27 119q0 53 25.5 85t68.5 32q19 0 49 -5.5t41 -5.5q28 0 37.5 11.5t9.5 52.5v798q0 37 -10 46.5t-41 9.5q-13 0 -42 -4t-46 -4q-43 0 -67.5 29t-24.5 81q0 66 29 101.5t83 35.5q7 0 71 -6t122 -6q77 0 160 10q20 2 26 2q33 0 45 -20t12 -76v-354q53 60 126 89.5 t169 29.5t169.5 -31t121.5 -92q34 -42 48 -103.5t14 -199.5v-334q0 -38 11 -52t40 -14q8 0 35.5 5.5t46.5 5.5q45 0 71.5 -30t26.5 -81q0 -70 -28.5 -102.5t-88.5 -32.5q-10 0 -71.5 8t-112.5 8q-70 0 -153.5 -8t-96.5 -8q-60 0 -88.5 31.5t-28.5 97.5q0 51 13 73.5t65 32.5 q23 5 30 15t7 39v323q0 78 -39.5 121t-111.5 43q-91 0 -133 -61.5t-42 -196.5v-217q0 -35 8 -48t32 -18q5 -1 13 -2q95 -16 95 -104q0 -65 -36.5 -97t-111.5 -32q-50 0 -132 8t-113 8q-40 0 -101.5 -8t-83.5 -8q-61 0 -89.5 30.5t-28.5 98.5z" />
<glyph unicode="i" horiz-adv-x="915" d="M33 121q0 55 29.5 87t80.5 32q22 0 57 -7.5t48 -7.5q31 0 42 13t11 51v456q0 37 -12 48.5t-45 11.5q-21 0 -55.5 -4t-47.5 -4q-48 0 -78 30t-30 80q0 59 37.5 94t97.5 35q8 0 111.5 -6t197.5 -6q21 0 53.5 6t42.5 6q34 0 49 -22.5t15 -73.5v-657q0 -36 11 -47t44 -11 q12 0 46 7.5t57 7.5q50 0 80 -32.5t30 -86.5q0 -66 -33 -97.5t-102 -31.5q-6 0 -33 2q-146 12 -295 12q-84 0 -175 -7t-99 -7q-69 0 -102 31.5t-33 97.5zM262 1264q0 80 56 134t139 54q81 0 137.5 -55.5t56.5 -134.5q0 -78 -57 -133.5t-137 -55.5q-81 0 -138 56t-57 135z " />
<glyph unicode="j" horiz-adv-x="868" d="M-121 -160q0 81 49.5 129.5t130.5 48.5q61 0 103.5 -37t42.5 -87q0 -12 -4 -30.5t-4 -25.5q0 -5 5 -7.5t17 -2.5q72 0 99.5 65t27.5 302v94v456q0 37 -12.5 49.5t-44.5 12.5q-22 0 -58.5 -5t-52.5 -5q-40 0 -67 31t-27 79q0 59 36 94t95 35q8 0 111.5 -6t197.5 -6 q22 0 54 6t43 6q33 0 48 -22.5t15 -73.5v-831v-21q0 -142 -17.5 -205.5t-58.5 -113.5q-60 -73 -162 -114.5t-223 -41.5q-154 0 -249 64t-95 163zM303 1264q0 80 56 134t139 54q81 0 136.5 -55t55.5 -135q0 -79 -56 -134t-136 -55q-81 0 -138 56t-57 135z" />
<glyph unicode="k" horiz-adv-x="1460" d="M14 121q0 53 24.5 81.5t67.5 28.5q13 0 50 -6t61 -6q35 0 48.5 12.5t13.5 57.5v798q0 37 -12 48.5t-44 11.5q-20 0 -55 -5t-49 -5q-47 0 -76 30.5t-29 81.5q0 60 36.5 93.5t99.5 33.5q18 0 92 -5t131 -5q8 0 44 5t64 5h33q41 0 54.5 -19t13.5 -93v-672l188 158q9 7 15 19 t6 24q0 24 -50.5 55.5t-50.5 83.5q0 48 29.5 76t79.5 28q4 0 23 -2q119 -14 245 -14q79 0 155 8l76 8q56 0 89.5 -33t33.5 -90q0 -53 -25 -84.5t-67 -31.5q-18 0 -53.5 15t-54.5 15q-14 0 -26 -5t-28 -17l-180 -143q-11 -8 -15.5 -15t-4.5 -16q0 -6 1.5 -12.5t4.5 -10.5 l217 -332q20 -29 37 -43t33 -14q7 0 39 6t57 6q54 0 85.5 -29.5t31.5 -80.5q0 -63 -37 -97t-105 -34q-15 0 -78 8t-110 8q-56 0 -126.5 -8t-84.5 -8q-53 0 -80 24t-27 72q0 20 14.5 53t14.5 49q0 14 -5 28t-18 34l-110 172q-6 9 -12.5 13.5t-14.5 4.5q-5 0 -13 -3.5 t-13 -8.5l-99 -80v-72q0 -37 7.5 -47t27.5 -10q7 0 30.5 6t39.5 6q38 0 63 -32.5t25 -83.5q0 -59 -27 -92t-73 -33q-6 0 -81.5 8t-148.5 8q-75 0 -170 -8t-115 -8q-70 0 -101.5 30.5t-31.5 100.5z" />
<glyph unicode="l" horiz-adv-x="854" d="M14 121q0 55 29 87t78 32q21 0 57 -7.5t51 -7.5q29 0 39.5 11.5t10.5 52.5v798q0 38 -12 49t-44 11q-21 0 -56 -4t-48 -4q-48 0 -76.5 30t-28.5 80q0 59 36 94t95 35q11 0 111 -6t190 -6q22 0 55 6t44 6q35 0 49 -22t14 -92v-977q0 -39 9 -50.5t32 -11.5q14 0 45 7.5 t49 7.5q43 0 69 -32.5t26 -86.5q0 -67 -28 -98t-87 -31q-4 0 -24 2q-131 12 -271 12q-114 0 -241 -11q-35 -3 -44 -3q-66 0 -97.5 31t-31.5 98z" />
<glyph unicode="m" horiz-adv-x="2028" d="M35 119q0 55 26.5 88t69.5 33q19 0 49 -7.5t41 -7.5q28 0 37.5 15t9.5 65v430q0 44 -10.5 55t-38.5 11q-14 0 -43.5 -5t-46.5 -5q-43 0 -68.5 30t-25.5 82q0 65 29.5 100t82.5 35q8 0 70 -4t117 -4q40 0 82 4t47 4q32 0 47.5 -23t15.5 -71v-98q44 100 122.5 152.5 t187.5 52.5q93 0 157 -34t119 -112q84 76 166 111t176 35q89 0 162 -31.5t119 -89.5q33 -42 47 -100t14 -205v-355q0 -24 11.5 -34.5t39.5 -10.5q16 0 46 7.5t42 7.5q34 0 56 -33t22 -84q0 -63 -26.5 -98t-73.5 -35q-7 0 -64.5 8t-109.5 8q-77 0 -162.5 -8t-93.5 -8 q-51 0 -76 32t-25 97q0 53 11.5 75.5t42.5 30.5q30 2 38.5 10.5t8.5 26.5v17v335q0 81 -35 121.5t-105 40.5q-68 0 -104.5 -41.5t-36.5 -120.5v-323q0 -37 6.5 -49.5t26.5 -16.5q3 0 11 -2q81 -16 81 -106q0 -65 -31 -96t-94 -31q-25 0 -82.5 8t-89.5 8q-36 0 -81.5 -8 t-55.5 -8q-55 0 -83 32.5t-28 96.5q0 52 13.5 75t62.5 31q22 5 28.5 14.5t6.5 39.5v331q0 79 -37.5 122.5t-105.5 43.5q-85 0 -123.5 -61t-38.5 -197v-227q0 -38 6.5 -49.5t28.5 -16.5q4 -1 13 -2q89 -17 89 -106q0 -65 -34 -96t-103 -31q-43 0 -123.5 8t-118.5 8 q-42 0 -105.5 -8t-84.5 -8q-63 0 -92 31t-29 98z" />
<glyph unicode="n" horiz-adv-x="1475" d="M31 119q0 54 26 86.5t68 32.5q19 0 49 -6.5t41 -6.5q28 0 37.5 11.5t9.5 52.5v456q0 37 -9.5 46.5t-39.5 9.5q-13 0 -43 -5t-47 -5q-43 0 -67.5 30t-24.5 82q0 66 29 101.5t81 35.5q8 0 70 -5t117 -5q31 0 77 5t62 5q30 0 41.5 -21t11.5 -75v-98q53 102 142 153.5 t212 51.5q97 0 170 -31t121 -92q35 -43 49.5 -106.5t14.5 -196.5v-334q0 -43 11 -54.5t48 -11.5q10 0 38.5 6.5t47.5 6.5q38 0 62 -32t24 -83q0 -63 -28.5 -97t-81.5 -34q-11 0 -72 8t-113 8q-70 0 -156.5 -8t-103.5 -8q-58 0 -86 31t-28 96q0 51 13 73.5t66 32.5 q22 5 28.5 14.5t6.5 39.5v323q0 79 -39 121.5t-110 42.5q-88 0 -128 -61t-40 -197v-217q0 -36 7 -48.5t30 -17.5q5 -1 13 -2q91 -16 91 -106q0 -64 -34.5 -94.5t-106.5 -30.5q-47 0 -129.5 8t-118.5 8q-43 0 -106.5 -8t-83.5 -8q-63 0 -91 30t-28 97z" />
<glyph unicode="o" horiz-adv-x="1200" d="M61 512q0 249 145 397t392 148q249 0 395 -147.5t146 -397.5q0 -252 -145.5 -398.5t-397.5 -146.5q-245 0 -390 148.5t-145 396.5zM383 512q0 -143 56.5 -220t160.5 -77t159.5 77t55.5 220q0 140 -57 218.5t-158 78.5q-105 0 -161 -76t-56 -221z" />
<glyph unicode="p" horiz-adv-x="1321" d="M2 -299q0 54 27 87.5t69 33.5q17 0 49 -6t46 -6q23 0 31.5 12t8.5 51v872q0 39 -9.5 47.5t-39.5 8.5q-12 0 -42.5 -5t-47.5 -5q-42 0 -67 29.5t-25 80.5q0 63 30.5 99t82.5 36q17 0 72 -6t94 -6q38 0 85.5 6t55.5 6q33 0 45 -18t12 -70v-59q71 87 148 126.5t178 39.5 q202 0 317 -148t115 -409q0 -239 -117 -383t-309 -144q-80 0 -148 27.5t-131 85.5v-211q0 -38 12 -50.5t46 -12.5q18 0 58 6t61 6q56 0 86 -30.5t30 -86.5q0 -68 -34 -99.5t-109 -31.5q-3 0 -107 7t-208 7q-81 0 -164 -7t-84 -7q-59 0 -88 31.5t-29 95.5zM532 436 q0 -109 47.5 -164t141.5 -55q104 0 156.5 75t52.5 224q0 141 -53.5 218t-151.5 77q-92 0 -142.5 -57t-50.5 -162v-156z" />
<glyph unicode="q" horiz-adv-x="1225" d="M72 498q0 261 115.5 409t318.5 148q95 0 166 -34t137 -108v35q0 60 20.5 75t102.5 15q101 0 122 -15t21 -75v-1075q0 -38 9.5 -50.5t33.5 -12.5q14 0 46 6t48 6q43 0 71 -33.5t28 -87.5q0 -63 -30.5 -95t-90.5 -32q-1 0 -83 7t-163 7q-104 0 -209.5 -7t-107.5 -7 q-75 0 -109.5 31.5t-34.5 99.5q0 56 31.5 86.5t87.5 30.5q21 0 61 -6t58 -6q32 0 42.5 11t10.5 52v211q-59 -57 -126.5 -85t-147.5 -28q-193 0 -310.5 144t-117.5 383zM381 516q0 -150 51.5 -224.5t155.5 -74.5q95 0 143.5 55.5t48.5 163.5v156q0 104 -51 161.5t-143 57.5 q-98 0 -151.5 -77t-53.5 -218z" />
<glyph unicode="r" horiz-adv-x="1133" d="M39 121q0 55 26 87t70 32q18 0 51 -7.5t47 -7.5q25 0 34 13t9 51v456q0 39 -11.5 50.5t-39.5 11.5q-21 0 -54.5 -7t-45.5 -7q-35 0 -60.5 33t-25.5 81q0 61 34 95t93 34q11 0 89 -6t144 -6q16 0 40.5 6t33.5 6q27 0 38 -20t11 -76v-111q48 112 122.5 165t184.5 53 q135 0 212 -75t77 -206q0 -86 -47.5 -135t-130.5 -49q-75 0 -119.5 41t-44.5 112q0 14 4.5 30t11.5 33q-92 -9 -141 -84t-49 -208v-223q0 -36 11 -47t44 -11q12 0 46.5 7.5t56.5 7.5q50 0 80 -32.5t30 -86.5q0 -67 -32 -98t-101 -31q-10 0 -48 3q-151 13 -286 13 q-71 0 -152 -8t-91 -8q-63 0 -92 30.5t-29 98.5z" />
<glyph unicode="s" horiz-adv-x="1120" d="M80 74q0 8 3 41.5t3 58.5q0 29 -3 78.5t-3 69.5q0 51 31 76.5t94 25.5q86 0 116 -87q8 -25 15 -36q27 -45 83.5 -72.5t123.5 -27.5q78 0 121 23t43 65q0 68 -160 105q-79 19 -127 34q-173 37 -250.5 111t-77.5 200q0 144 110 231t296 87q94 0 166.5 -24.5t107.5 -67.5v6 q0 44 25.5 64t83.5 20q51 0 71.5 -19t20.5 -63q0 -8 -4 -36t-4 -48q0 -25 4 -68t4 -61q0 -49 -26 -75t-75 -26q-70 0 -122 69q-17 22 -27 34q-37 42 -71.5 59t-90.5 17t-90.5 -24t-34.5 -62q0 -70 195 -104q71 -13 112 -21q174 -36 241 -104.5t67 -200.5q0 -168 -119 -261.5 t-332 -93.5q-114 0 -191.5 28.5t-111.5 82.5q-8 -53 -36 -78t-81 -25q-52 0 -76 24t-24 75z" />
<glyph unicode="t" horiz-adv-x="973" d="M-12 885q0 67 18 94.5t90 32.5l113 6q10 0 15 12.5t5 38.5v148q0 59 43.5 88.5t130.5 29.5q74 0 99.5 -19t25.5 -97v-146q0 -21 13.5 -35t33.5 -14h197q67 0 91 -24t24 -82q0 -73 -28 -99t-142 -26h-127q-32 0 -45 -10.5t-13 -34.5v-408q0 -68 15 -90.5t55 -22.5 q41 0 59.5 25.5t18.5 81.5q0 9 -1 35t-1 43q0 64 24.5 90t81.5 26q61 0 92 -52t31 -154q0 -175 -93.5 -265t-274.5 -90q-84 0 -146 26t-104 79q-36 45 -51 110.5t-15 225.5v26v285q0 36 -9.5 51.5t-31.5 15.5h-110q-46 0 -65 23t-19 76z" />
<glyph unicode="u" horiz-adv-x="1446" d="M-12 907q0 61 31.5 97t82.5 36q2 0 68.5 -5t132.5 -5q39 0 98 5t78 5q40 0 54 -19t14 -75v-530q0 -79 39 -122.5t110 -43.5q87 0 126.5 60.5t39.5 197.5v237q0 37 -9.5 47.5t-35.5 10.5q-13 0 -35.5 -3t-31.5 -3q-56 0 -87.5 31t-31.5 85q0 56 32 91.5t80 35.5 q12 0 71 -5t108 -5q52 0 118 5t80 5q39 0 53.5 -20t14.5 -74v-678q0 -19 13 -29t40 -10q14 0 45 5.5t49 5.5q47 0 74 -30.5t27 -82.5q0 -65 -32 -101t-89 -36q-11 0 -73 8t-114 8q-34 0 -85.5 -8t-67.5 -8q-30 0 -43.5 10t-13.5 33v133q-34 -87 -135 -144t-224 -57 q-86 0 -156 32t-118 93q-34 43 -48 103.5t-14 197.5v354q0 36 -10.5 47t-40.5 11q-11 0 -40 -3t-48 -3q-44 0 -70 29.5t-26 80.5z" />
<glyph unicode="v" horiz-adv-x="1276" d="M-47 911q0 60 30 93.5t83 33.5q2 0 90.5 -6t175.5 -6q47 0 104.5 6t67.5 6q46 0 75 -31t29 -81q0 -49 -20 -79t-58 -38q-23 -2 -36 -14.5t-13 -30.5q0 -8 0.5 -11t1.5 -5l101 -300q5 -16 21.5 -84t31.5 -120q14 50 31.5 118.5t23.5 86.5l101 299q1 3 1.5 6t0.5 10 q0 18 -14.5 30.5t-38.5 14.5q-38 11 -56 39.5t-18 77.5q0 48 29 80t71 32q12 0 69.5 -6t104.5 -6q87 0 176.5 6t91.5 6q53 0 83 -33.5t30 -93.5q0 -50 -28.5 -81t-73.5 -31q-11 0 -28.5 5t-25.5 5q-29 0 -46.5 -16.5t-30.5 -57.5l-232 -665q-21 -59 -51 -81t-86 -22h-164 q-57 0 -87.5 22t-51.5 81l-232 665q-15 43 -32.5 58.5t-44.5 15.5q-8 0 -25.5 -5t-28.5 -5q-46 0 -74 31t-28 81z" />
<glyph unicode="w" horiz-adv-x="1722" d="M-96 911q0 60 31 94.5t83 34.5q4 0 88.5 -7t167.5 -7q46 0 103.5 7t71.5 7q46 0 75 -34t29 -88q0 -39 -16.5 -65.5t-51.5 -43.5q-2 0 -8 -1q-53 -4 -53 -36q0 -6 0.5 -10t1.5 -8l102 -547l127 702q14 76 44 103.5t128 27.5h47q84 0 113.5 -26t44.5 -105l144 -702l84 547 v8q0 15 -5.5 28t-13.5 19q-66 15 -86 38.5t-20 70.5q0 55 28 88.5t74 33.5q13 0 71 -7t103 -7q83 0 169 7t89 7q52 0 82.5 -34.5t30.5 -94.5q0 -50 -28.5 -81t-74.5 -31q-14 0 -36.5 5t-30.5 5q-15 0 -29 -19.5t-22 -54.5l-166 -665q-17 -66 -39.5 -84.5t-100.5 -18.5h-143 q-70 0 -99.5 23.5t-41.5 87.5l-127 717l-127 -717q-12 -63 -42 -87t-102 -24h-143q-75 0 -98 17.5t-39 85.5l-168 665q-10 37 -22 55.5t-27 18.5q-8 0 -32 -5t-38 -5q-45 0 -73.5 31t-28.5 81z" />
<glyph unicode="x" horiz-adv-x="1395" d="M-29 117q0 48 27.5 83.5t62.5 35.5q19 0 52 -7.5t47 -7.5q53 0 92 54l4 6l182 243l-174 224q-24 30 -47.5 44.5t-48.5 14.5q-9 0 -28.5 -4t-28.5 -4q-48 0 -76.5 30.5t-28.5 81.5q0 62 31 95.5t88 33.5q1 0 88 -7t174 -7q47 0 103.5 7t66.5 7q46 0 74 -31t28 -81 q0 -56 -31.5 -92.5t-31.5 -49.5q0 -10 6.5 -24t22.5 -37l73 -104l72 104q13 17 20 33t7 28q0 13 -32 49.5t-32 92.5q0 50 29 81t76 31q10 0 66.5 -7t103.5 -7q87 0 174 7t88 7q56 0 86 -33.5t30 -95.5q0 -51 -27.5 -81.5t-74.5 -30.5q-9 0 -29.5 4t-29.5 4q-26 0 -49 -14 t-48 -45l-176 -224l187 -244q2 -2 7 -9q38 -50 89 -50q14 0 47 7.5t51 7.5q36 0 63 -35.5t27 -83.5q0 -60 -32 -94.5t-86 -34.5q-11 0 -70 8t-109 8q-62 0 -138 -8t-91 -8q-71 0 -106 26t-35 78q0 59 34.5 91.5t34.5 37.5t-2.5 10.5t-9.5 16.5l-117 162l-117 -163 q-4 -5 -7 -12.5t-3 -13.5q0 -4 34 -36.5t34 -92.5q0 -52 -34.5 -78t-104.5 -26q-15 0 -91.5 8t-138.5 8q-49 0 -109 -8t-71 -8q-54 0 -85.5 34.5t-31.5 94.5z" />
<glyph unicode="y" d="M-27 915q0 57 35 91t92 34q9 0 44 -3q126 -11 235 -11q47 0 103.5 7t66.5 7q47 0 74.5 -31.5t27.5 -86.5q0 -39 -11.5 -56t-47.5 -28q-5 -2 -12 -4q-41 -12 -41 -48q0 -1 4.5 -12.5t7.5 -21.5l108 -309q11 -30 17 -66t8 -84h16q5 55 29 127q4 13 6 18l94 299q3 10 7 23 q8 25 8 31q0 10 -10.5 19t-36.5 19q-38 15 -53 40t-15 71q0 45 27.5 72.5t72.5 27.5q11 0 66 -7t102 -7q87 0 175.5 7t89.5 7q56 0 86 -33.5t30 -95.5q0 -51 -28.5 -81.5t-75.5 -30.5q-9 0 -28 5t-29 5q-31 0 -55.5 -20t-37.5 -54l-215 -571q-103 -274 -256.5 -409.5 t-359.5 -135.5q-135 0 -214 65.5t-79 176.5q0 72 49 119t125 47q59 0 97 -38t38 -93v-23q0 -21 9 -28t30 -7q55 0 104.5 57.5t49.5 124.5q0 30 -9.5 65t-39.5 108l-236 557q-12 29 -27 44t-32 15q-11 0 -37.5 -5t-42.5 -5q-44 0 -74.5 33.5t-30.5 82.5z" />
<glyph unicode="z" horiz-adv-x="1128" d="M72 139q0 66 71 141l2 3l496 510h-254q-24 -1 -33.5 -11.5t-9.5 -38.5q0 -6 1 -23t1 -28q0 -58 -30.5 -91.5t-84.5 -33.5q-55 0 -84.5 35.5t-29.5 102.5q0 26 2 76t2 73v68q0 62 23 84t83 22q13 0 41.5 -2t44.5 -2h475q22 0 57 2t48 2q81 0 119.5 -38t38.5 -120 q0 -44 -19.5 -83.5t-64.5 -86.5l-443 -458h248q26 0 37.5 12.5t11.5 40.5q0 12 -3 36.5t-3 37.5q0 62 28 94.5t81 32.5q60 0 91.5 -28.5t31.5 -82.5q0 -3 -4.5 -64t-4.5 -118q0 -48 4.5 -97.5t4.5 -52.5q0 -28 -22 -42.5t-64 -14.5q-4 0 -23 1q-82 3 -160 3h-547 q-82 0 -120.5 34t-38.5 105z" />
<glyph unicode="{" horiz-adv-x="1024" d="M158 426v209q7 0 21 -1t20 -1q120 0 171.5 58t51.5 196v250q0 143 23.5 201t80.5 92q47 25 114 37t167 12q12 0 37 -1t39 -1v-209q-9 0 -25 1t-22 1q-101 0 -136.5 -38.5t-35.5 -162.5v-240q0 -148 -45 -210t-162 -89q117 -27 162 -88t45 -209v-241q0 -123 35 -161 t137 -38q6 0 22 1t25 1v-209q-14 0 -39 -1t-37 -1q-100 0 -167 12t-114 37q-57 34 -80.5 91.5t-23.5 199.5v252q0 137 -51 194.5t-172 57.5q-6 0 -20 -1t-21 -1z" />
<glyph unicode="|" horiz-adv-x="1024" d="M410 -483v2048h206v-2048h-206z" />
<glyph unicode="}" horiz-adv-x="1024" d="M143 -205q9 0 25 -1t22 -1q101 0 136.5 38.5t35.5 160.5v239q0 150 45 211.5t162 87.5q-117 27 -162 89t-45 210v242q0 122 -35.5 160.5t-136.5 38.5q-6 0 -22 -1t-25 -1v209h68q110 0 177 -12t112 -38q57 -32 80.5 -91.5t23.5 -198.5v-252q0 -137 51 -194.5t172 -57.5 q6 0 20 1t21 1v-209h-37q-125 0 -176 -56t-51 -194v-252q0 -143 -23.5 -201t-80.5 -90q-47 -25 -114 -37t-167 -12q-12 0 -37 1t-39 1v209z" />
<glyph unicode="~" horiz-adv-x="1706" d="M178 418v221q107 72 204 107.5t183 35.5q117 0 291 -58q3 -1 4 -1q18 -6 55 -19q155 -55 240 -55t175 37t200 117v-221q-104 -71 -196.5 -104.5t-182.5 -33.5q-46 0 -92 8t-92 23q-24 8 -71 25q-219 75 -333 75q-85 0 -177.5 -37.5t-207.5 -119.5z" />
<glyph unicode="&#xa0;" />
<glyph unicode="&#xa1;" horiz-adv-x="725" d="M166 147q0 9 2.5 24.5t3.5 21.5l49 603q8 97 33.5 115.5t105.5 18.5q77 0 105.5 -20.5t36.5 -112.5l49 -604q1 -6 3.5 -21.5t2.5 -24.5q0 -85 -49 -128.5t-146 -43.5t-146.5 43.5t-49.5 128.5zM166 1198q0 81 57 139t137 58q83 0 140 -58.5t57 -140.5q0 -83 -57 -140 t-140 -57q-80 0 -137 58.5t-57 140.5z" />
<glyph unicode="&#xa2;" d="M264 694q0 179 87.5 296t246.5 151v133q0 45 21.5 58.5t80.5 13.5t77 -14t18 -79v-110q136 -15 215.5 -87t79.5 -177q0 -72 -47.5 -118t-120.5 -46q-55 0 -91 30.5t-36 75.5q0 11 5 29t5 24q0 15 -24.5 26t-61.5 11q-76 0 -118 -58t-42 -165q0 -100 45 -158.5t121 -58.5 q48 0 78 20t49 64v1q38 89 119 89q61 0 97 -39.5t36 -105.5q0 -104 -88 -184t-221 -95v-151q0 -43 -20.5 -56.5t-76.5 -13.5q-58 0 -80 17t-22 67v147q-158 36 -245 157.5t-87 305.5z" />
<glyph unicode="&#xa3;" d="M-23 258q0 136 81.5 215.5t220.5 79.5q66 0 127.5 -20t113.5 -58q0 5 1 16.5t1 16.5q0 61 -38.5 104t-100.5 43q-42 0 -105 -8t-85 -8q-53 0 -77 25t-24 79q0 52 21.5 77.5t64.5 25.5q21 0 81 -10.5t99 -10.5h41q-30 53 -44.5 100.5t-14.5 98.5q0 161 106 257.5t287 96.5 q168 0 274.5 -79.5t106.5 -200.5q0 -89 -48 -139t-134 -50q-67 0 -108.5 38.5t-41.5 101.5q0 8 3.5 24.5t8.5 33.5q-7 21 -20.5 29.5t-36.5 8.5q-39 0 -63.5 -30.5t-24.5 -80.5q0 -43 16.5 -94.5t51.5 -114.5h43q68 0 138 10.5t73 10.5q56 0 80 -23.5t24 -79.5 q0 -55 -19.5 -79.5t-64.5 -24.5q-17 0 -68 8t-83 8h-60q33 -56 48.5 -102.5t15.5 -85.5q0 -26 -5.5 -55t-17.5 -64q76 -61 136 -90t112 -29q33 0 54.5 16t21.5 40q0 10 -5.5 18t-13.5 8q-4 0 -17 -3t-19 -3q-63 0 -101.5 35t-38.5 90q0 67 47.5 109.5t124.5 42.5 q114 0 187 -78t73 -201q0 -146 -96.5 -241t-245.5 -95q-87 0 -177 33t-181 98q-66 -62 -160.5 -96.5t-195.5 -34.5q-170 0 -259.5 74.5t-89.5 216.5zM221 268q0 -46 24 -71t68 -25q38 0 78.5 22t97.5 74q-50 45 -95 66.5t-85 21.5q-41 0 -64.5 -23.5t-23.5 -64.5z" />
<glyph unicode="&#xa4;" horiz-adv-x="1241" d="M68 438l202 205q-38 54 -56.5 113.5t-18.5 128.5q0 67 18.5 127.5t56.5 113.5l-202 205l104 107l205 -203q54 39 114 58.5t130 19.5t131.5 -19.5t115.5 -58.5l203 203l105 -107l-203 -205q38 -53 57 -113.5t19 -127.5t-19 -127t-57 -115l203 -205l-105 -104l-203 203 q-54 -40 -115 -59t-130 -19q-72 0 -132.5 19t-113.5 59l-205 -203zM346 885q0 -114 81 -194.5t196 -80.5q113 0 194.5 80.5t81.5 194.5q0 112 -81.5 194t-194.5 82t-195 -82t-82 -194z" />
<glyph unicode="&#xa5;" horiz-adv-x="1675" d="M-18 1212q0 69 39 104.5t116 35.5q25 0 109 -7.5t143 -7.5q47 0 123.5 7.5t108.5 7.5q77 0 120 -34.5t43 -94.5q0 -68 -57 -95t-57 -45q0 -10 15 -37q6 -10 9 -16l142 -276l137 276q4 9 15 26.5t11 26.5q0 18 -57 45t-57 95q0 60 43 94.5t121 34.5q30 0 107 -7.5 t124 -7.5q60 0 144.5 7.5t109.5 7.5q77 0 116.5 -35.5t39.5 -104.5q0 -55 -32.5 -93t-76.5 -38q-18 0 -55.5 5.5t-57.5 5.5q-34 0 -63 -17.5t-51 -50.5l-103 -160h183q50 0 73 -12.5t23 -40.5q0 -26 -24 -38.5t-74 -12.5h-248l-117 -174h367q49 0 72.5 -13.5t23.5 -42.5 q0 -25 -23.5 -37t-74.5 -12h-435v-51v-111q0 -37 15.5 -53t50.5 -16q13 0 55 7t70 7q67 0 107 -35.5t40 -95.5q0 -69 -43 -107t-123 -38q-7 0 -118 10t-215 10q-95 0 -203.5 -10t-122.5 -10q-82 0 -127 38t-45 107q0 61 40 96t109 35q28 0 72 -7t59 -7q31 0 42.5 13.5 t11.5 55.5v162h-434q-51 0 -74 13t-23 41q0 26 24 38.5t75 12.5h364l-112 174h-254q-51 0 -74 12.5t-23 40.5q0 26 24 38.5t75 12.5h180l-103 160q-21 34 -50 51t-64 17q-20 0 -57.5 -5.5t-55.5 -5.5q-44 0 -76 38t-32 93z" />
<glyph unicode="&#xa6;" horiz-adv-x="1024" d="M410 -350v758h206v-758h-206zM410 674v758h206v-758h-206z" />
<glyph unicode="&#xa7;" horiz-adv-x="1100" d="M76 604q0 83 46 155t138 132q-36 29 -55 75.5t-19 104.5q0 144 92 234t242 90q76 0 135 -20.5t115 -65.5q0 3 -1 9t-1 9q0 39 21.5 61.5t56.5 22.5q33 0 58.5 -20t25.5 -45q0 -15 -6 -73t-6 -102q0 -58 6 -121.5t6 -70.5q0 -43 -22 -64.5t-66 -21.5q-91 0 -96 113 q-1 24 -3 37q-9 72 -67 118.5t-137 46.5q-59 0 -98.5 -37t-39.5 -94q0 -42 29 -73t166 -107l174 -96q127 -70 181.5 -145t54.5 -177q0 -85 -45.5 -150t-141.5 -118q45 -45 67.5 -98t22.5 -113q0 -137 -105 -227t-267 -90q-77 0 -137 21t-105 65q0 -2 1 -7.5t1 -7.5 q0 -38 -27 -62t-69 -24q-40 0 -69.5 19t-29.5 43q0 5 5.5 63.5t5.5 112.5q0 86 -9 174q-2 16 -2 18q0 49 22.5 74t65.5 25q42 0 71.5 -26t29.5 -56q0 -131 56 -192.5t173 -61.5q78 0 124 37.5t46 99.5q0 80 -145 163q-32 19 -49 29l-181 109q-136 81 -187.5 149t-51.5 156z M307 629q0 -50 31 -88t137 -99l209 -118q43 24 68.5 64t25.5 81q0 49 -32.5 89.5t-108.5 82.5l-229 127q-50 -28 -75.5 -63t-25.5 -76z" />
<glyph unicode="&#xa8;" horiz-adv-x="1024" d="M174 1354q0 56 43 99.5t100 43.5q60 0 102 -42t42 -101q0 -63 -40.5 -103.5t-103.5 -40.5q-59 0 -101 42t-42 102zM563 1354q0 56 43 99.5t101 43.5q59 0 101 -42t42 -101q0 -63 -40.5 -103.5t-102.5 -40.5q-60 0 -102 42t-42 102z" />
<glyph unicode="&#xa9;" horiz-adv-x="1706" d="M111 733q0 149 56 284.5t163 244.5q105 106 238 161.5t284 55.5q152 0 287.5 -56t242.5 -163q105 -105 160 -240.5t55 -286.5q0 -152 -54.5 -284t-160.5 -236q-111 -108 -248 -165.5t-282 -57.5q-147 0 -280.5 56.5t-241.5 164.5q-107 106 -163 240.5t-56 281.5zM233 735 q0 -125 47 -237t136 -201q88 -88 201 -135t237 -47t237.5 47t204.5 137q88 86 133.5 197t45.5 239q0 126 -46.5 238.5t-134.5 200.5q-89 89 -201 135.5t-239 46.5q-128 0 -239.5 -46t-198.5 -134q-89 -90 -136 -203.5t-47 -237.5zM453 729q0 206 109.5 328.5t293.5 122.5 q152 0 250.5 -78t105.5 -205h-188q-8 70 -53 108.5t-119 38.5q-91 0 -143 -81.5t-52 -227.5q0 -147 52 -224t151 -77q73 0 117 42t53 119l193 1q-8 -139 -109 -223t-260 -84q-186 0 -293.5 118t-107.5 322z" />
<glyph unicode="&#xaa;" horiz-adv-x="936" d="M35 848q0 103 60 154.5t216 72.5q12 2 33 5q184 28 184 96q0 36 -26 58.5t-68 22.5q-37 0 -53 -8.5t-16 -27.5q0 -9 1 -23t1 -18q0 -28 -38 -49t-93 -21q-61 0 -98.5 30.5t-37.5 80.5q0 81 83.5 123t244.5 42q97 0 164.5 -15.5t109.5 -47.5q36 -26 51 -64t15 -129v-22 v-268q0 -37 60 -39h13q29 -2 44.5 -20t15.5 -50q0 -50 -39 -78t-108 -28q-59 0 -99 21.5t-61 64.5q-56 -46 -122 -66t-163 -20q-125 0 -199.5 61t-74.5 162zM289 862q0 -36 26 -58t68 -22q71 0 106 34t35 102v55q-46 -22 -140.5 -37t-94.5 -74z" />
<glyph unicode="&#xab;" horiz-adv-x="1139" d="M135 524q0 13 6 28t19 34l170 252q16 23 36.5 31t92.5 8q49 0 72.5 -10.5t23.5 -32.5q0 -24 -25 -60l-1 -1l-136 -206q-8 -13 -12 -23.5t-4 -19.5q0 -8 4 -18.5t12 -23.5l135 -206q1 0 2 -2q25 -35 25 -59q0 -23 -24 -34t-72 -11q-68 0 -90.5 8t-38.5 33l-170 252 q-13 18 -19 33.5t-6 27.5zM598 524q0 13 6 28t19 34l170 252q15 23 36.5 31t94.5 8q49 0 71.5 -10.5t22.5 -32.5q0 -24 -25 -59l-1 -2l-134 -206q-8 -13 -12 -23.5t-4 -19.5q0 -8 4 -19t12 -24l133 -205l2 -2q25 -35 25 -59q0 -23 -23 -34t-71 -11q-69 0 -92 8.5t-39 32.5 l-170 252q-13 18 -19 33.5t-6 27.5z" />
<glyph unicode="&#xac;" horiz-adv-x="1706" d="M254 668v196h1198v-502h-199v306h-999z" />
<glyph unicode="&#xad;" horiz-adv-x="678" d="M47 530q0 74 25 99.5t108 25.5h318q82 0 106.5 -25t24.5 -100q0 -73 -24 -97.5t-107 -24.5h-318q-84 0 -108.5 25t-24.5 97z" />
<glyph unicode="&#xae;" horiz-adv-x="1706" d="M111 733q0 102 27 198.5t81 188.5q101 170 267 264.5t366 94.5q154 0 290.5 -57.5t243.5 -166.5q103 -104 157 -238t54 -284q0 -152 -56 -287.5t-163 -238.5q-107 -105 -243.5 -161t-282.5 -56q-149 0 -285 58t-243 167q-104 105 -158.5 238.5t-54.5 279.5zM233 735 q0 -124 46 -235.5t133 -198.5q89 -91 203 -139.5t237 -48.5q120 0 233.5 47t206.5 135q87 84 135 196t48 232q0 133 -44.5 245t-132.5 201q-90 93 -202.5 140t-241.5 47q-127 0 -236 -44.5t-196 -131.5q-91 -91 -140 -206.5t-49 -238.5zM545 336v825h323q176 0 264.5 -59.5 t88.5 -177.5q0 -82 -48 -140t-133 -79l185 -369h-224l-157 338h-99v-338h-200zM745 795h99q88 0 129 28t41 88q0 63 -44 93t-136 30h-89v-239z" />
<glyph unicode="&#xaf;" horiz-adv-x="1024" d="M190 1352q0 48 17.5 67t62.5 19h486q46 0 62 -18t16 -68q0 -49 -15 -65.5t-63 -16.5h-486q-46 0 -63 18t-17 64z" />
<glyph unicode="&#xb0;" horiz-adv-x="674" d="M35 1159q0 127 88.5 216t214.5 89t214.5 -89.5t88.5 -215.5q0 -125 -89 -214t-216 -89q-126 0 -213.5 88t-87.5 215zM162 1161q0 -74 51 -125t125 -51q72 0 123 52t51 124t-51 123t-123 51q-73 0 -124.5 -51t-51.5 -123z" />
<glyph unicode="&#xb1;" horiz-adv-x="1706" d="M254 -2v199h1198v-199h-1198zM254 698v199h498v326h202v-326h498v-199h-498v-325h-202v325h-498z" />
<glyph unicode="&#xb2;" horiz-adv-x="895" d="M49 698q0 94 64 164t198 125q42 18 116 41q140 45 140 102q0 41 -38 66t-101 25q-44 0 -77.5 -11t-33.5 -20q1 -2 6 -6q25 -21 25 -56q0 -49 -32 -77.5t-87 -28.5q-67 0 -107 34t-40 91q0 95 97 157t251 62q174 0 270.5 -63t96.5 -177q0 -97 -70.5 -154.5t-242.5 -96.5 q-15 -4 -43 -10q-193 -43 -193 -152q36 38 77.5 56.5t88.5 18.5q27 0 57 -8t51 -22q14 -9 39 -27q48 -35 74 -35q11 0 19.5 4.5t17.5 14.5h-2q-26 0 -44 19t-18 46q0 39 31 64.5t78 25.5q55 0 90 -41t35 -110q0 -86 -67.5 -140.5t-174.5 -54.5q-49 0 -87 14t-93 56 q-7 6 -20 16q-48 39 -68 39q-7 0 -16 -6q-2 -1 -3 -2q6 -11 8.5 -20t2.5 -17q0 -38 -31 -59t-88 -21q-70 0 -113 48t-43 126z" />
<glyph unicode="&#xb3;" horiz-adv-x="895" d="M51 756q0 64 40.5 103.5t107.5 39.5q53 0 86.5 -32t33.5 -85q0 -40 -26 -63q-4 -3 -4 -4q0 -12 34 -23.5t80 -11.5q83 0 131 35t48 94q0 48 -36.5 75t-99.5 27q-2 0 -11 -1t-13 -1q-43 0 -64.5 17t-21.5 51q0 23 10.5 41.5t42.5 46.5l141 129h-204q-32 0 -43 -8.5 t-11 -28.5q0 -8 6.5 -32.5t6.5 -41.5q0 -40 -25 -63t-67 -23q-54 0 -80.5 23t-26.5 70q0 11 3 46.5t3 59.5q0 21 -3 49t-3 35q0 37 17 53.5t57 16.5q18 0 56.5 -3.5t59.5 -3.5h347q13 0 50.5 3.5t61.5 3.5q38 0 60 -21.5t22 -58.5q0 -47 -72 -111q-31 -27 -47 -43l-96 -92 q110 -9 168.5 -63t58.5 -148q0 -132 -113 -212.5t-300 -80.5q-166 0 -265.5 65t-99.5 171z" />
<glyph unicode="&#xb4;" horiz-adv-x="1024" d="M291 1188q0 16 58 73q19 18 30 29l170 174q62 63 92.5 80t63.5 17q46 0 78 -31.5t32 -77.5q0 -36 -23.5 -63.5t-80.5 -57.5l-242 -127q-59 -30 -85.5 -39.5t-47.5 -9.5q-20 0 -32.5 9.5t-12.5 23.5z" />
<glyph unicode="&#xb5;" horiz-adv-x="1249" d="M-63 -438l268 1530h289l-76 -435q-15 -80 -23 -151.5t-8 -116.5q0 -93 42 -138.5t128 -45.5q100 0 155.5 82t92.5 291l90 514h289l-193 -1092h-268l18 117q-42 -78 -93.5 -114t-121.5 -36q-67 0 -119 29.5t-94 91.5l-90 -526h-286z" />
<glyph unicode="&#xb6;" horiz-adv-x="1024" d="M41 1130q0 158 107 253.5t284 95.5h551v-111h-113v-1368h-151v1368h-158v-1368h-153v784q-167 6 -267 101t-100 245z" />
<glyph unicode="&#xb7;" horiz-adv-x="678" d="M141 688q0 83 57 139t140 56q81 0 137.5 -57.5t56.5 -139.5q0 -81 -57 -139t-137 -58q-82 0 -139.5 58.5t-57.5 140.5z" />
<glyph unicode="&#xb8;" horiz-adv-x="1024" d="M240 -330q0 24 15.5 41t39.5 17q11 0 87 -37t148 -37q46 0 69.5 19t23.5 57q0 36 -21.5 58t-56.5 22q-11 0 -33 -6.5t-33 -6.5q-16 0 -24 6.5t-9 20.5q0 11 5 29t6 24l12 123h90v-86q0 -12 5 -16t20 -4q1 0 16 1t29 1q82 0 131 -46.5t49 -123.5q0 -87 -61 -136t-170 -49 q-131 0 -234.5 40.5t-103.5 88.5z" />
<glyph unicode="&#xb9;" horiz-adv-x="895" d="M180 627q0 35 22.5 56.5t59.5 21.5q15 0 42.5 -4.5t39.5 -4.5q20 0 27.5 6.5t7.5 36.5v420q0 29 -7 35t-28 6q-12 0 -39.5 -3t-42.5 -3q-37 0 -59.5 21t-22.5 57q0 41 25 62.5t71 21.5q2 0 70 -4t135 -4q22 0 45 4t25 4q29 0 39 -17.5t10 -68.5v-537q0 -23 7.5 -30 t27.5 -7q11 0 35.5 4.5t38.5 4.5q33 0 54 -22.5t21 -57.5q0 -42 -23.5 -65t-66.5 -23q-5 0 -64.5 7t-115.5 7q-105 0 -212 -12q-21 -2 -26 -2q-45 0 -70.5 23.5t-25.5 66.5z" />
<glyph unicode="&#xba;" horiz-adv-x="901" d="M47 1006q0 174 108.5 277t293.5 103q187 0 296 -102.5t109 -277.5q0 -177 -108.5 -279t-299.5 -102q-182 0 -290.5 103.5t-108.5 277.5zM287 1006q0 -100 42.5 -153.5t121.5 -53.5q77 0 119 54t42 153q0 97 -43 152.5t-118 55.5q-80 0 -122 -53.5t-42 -154.5z" />
<glyph unicode="&#xbb;" horiz-adv-x="1139" d="M141 213q0 14 5.5 27t21.5 36l135 205q7 11 10.5 22t3.5 21t-3 19.5t-11 21.5l-135 205q-16 23 -21.5 36.5t-5.5 27.5q0 22 23.5 32.5t73.5 10.5q72 0 92.5 -8t36.5 -31l170 -252q12 -19 18 -34t6 -28q0 -12 -6 -27.5t-18 -33.5l-170 -252q-17 -25 -39 -33t-90 -8 q-50 0 -73.5 10.5t-23.5 32.5zM604 213q0 14 5.5 27t21.5 36l135 205q7 12 10.5 22.5t3.5 20.5t-3.5 19.5t-10.5 21.5l-135 205q-16 23 -21.5 36.5t-5.5 27.5q0 22 22.5 32.5t71.5 10.5q73 0 94.5 -8t36.5 -31l170 -252q13 -19 19 -34t6 -28q0 -12 -6 -27.5t-19 -33.5 l-170 -252q-16 -24 -39 -32.5t-92 -8.5q-49 0 -71.5 10.5t-22.5 32.5z" />
<glyph unicode="&#xbc;" horiz-adv-x="2050" d="M172 674q0 34 21 54t57 20q14 0 40.5 -4.5t37.5 -4.5q20 0 27 6.5t7 34.5v391q0 28 -7 33.5t-27 5.5q-11 0 -37.5 -4t-40.5 -4q-35 0 -56.5 20.5t-21.5 53.5q0 38 23.5 58t68.5 20q1 0 66 -3t129 -3q20 0 42.5 3t24.5 3q28 0 37.5 -16t9.5 -62v-504q0 -21 6.5 -26.5 t24.5 -6.5q11 0 35 4.5t37 4.5q32 0 53 -21t21 -53q0 -40 -23 -62t-63 -22q-6 0 -62.5 6t-109.5 6q-102 0 -204 -10q-20 -2 -24 -2q-43 0 -67.5 22t-24.5 62zM537 8q0 10 3 19t9 18l784 1268q23 35 44.5 47t56.5 12q40 0 57.5 -9.5t17.5 -31.5q0 -9 -3 -18.5t-9 -18.5 l-782 -1267q-24 -38 -45.5 -50t-55.5 -12q-40 0 -58.5 10.5t-18.5 32.5zM1219 303q0 19 13 41.5t52 65.5l258 278q47 53 87 71.5t95 18.5q65 0 90 -25.5t25 -119.5v-277h103q32 0 48.5 -15.5t16.5 -47.5q0 -38 -16 -54t-54 -16h-98v-67q0 -18 7.5 -23.5t27.5 -5.5 q9 0 33.5 4t38.5 4q33 0 53 -19t20 -50q0 -36 -23 -55t-65 -19q-3 0 -17 1q-90 9 -185 9q-61 0 -123.5 -5t-65.5 -5q-43 0 -67.5 19.5t-24.5 54.5q0 32 22.5 50.5t61.5 18.5q12 0 35.5 -4t36.5 -4q22 0 29 6.5t7 30.5v59h-288q-75 0 -104 18.5t-29 61.5zM1444 352h207 l10 273z" />
<glyph unicode="&#xbd;" horiz-adv-x="2050" d="M172 674q0 34 21 54t57 20q14 0 40.5 -4.5t37.5 -4.5q20 0 27 6.5t7 34.5v391q0 28 -7 33.5t-27 5.5q-11 0 -37.5 -4t-40.5 -4q-35 0 -56.5 20.5t-21.5 53.5q0 38 23.5 58t68.5 20q1 0 66 -3t129 -3q20 0 42.5 3t24.5 3q28 0 37.5 -16t9.5 -62v-504q0 -21 6.5 -26.5 t24.5 -6.5q11 0 35 4.5t37 4.5q32 0 53 -21t21 -53q0 -40 -23 -62t-63 -22q-6 0 -62.5 6t-109.5 6q-102 0 -204 -10q-20 -2 -24 -2q-43 0 -67.5 22t-24.5 62zM537 8q0 10 3 19t9 18l784 1268q23 35 44.5 47t56.5 12q40 0 57.5 -9.5t17.5 -31.5q0 -9 -3 -18.5t-9 -18.5 l-782 -1267q-24 -38 -45.5 -50t-55.5 -12q-40 0 -58.5 10.5t-18.5 32.5zM1243 147q0 88 60.5 153.5t189.5 117.5q40 16 112 38q132 40 132 95q0 38 -36.5 61t-96.5 23q-42 0 -73.5 -10t-31.5 -19q0 -1 6 -6q25 -20 25 -51q0 -47 -31.5 -73.5t-85.5 -26.5q-64 0 -101.5 32 t-37.5 86q0 89 92 146t240 57q167 0 259.5 -58.5t92.5 -164.5q0 -90 -67.5 -143.5t-234.5 -92.5q-14 -3 -43 -10q-180 -40 -181 -141q38 36 77 53.5t82 17.5q28 0 56 -7.5t49 -20.5q13 -8 35 -24q46 -34 69 -34q15 0 23 4.5t14 14.5h-2q-24 0 -40.5 17t-16.5 42 q0 37 29.5 61.5t74.5 24.5q52 0 84.5 -38.5t32.5 -104.5q0 -80 -64 -131t-166 -51q-45 0 -81 13t-90 54q-3 2 -8 6q-56 43 -79 43q-4 0 -7 -1t-9 -5q5 -10 7.5 -18.5t2.5 -16.5q0 -36 -29.5 -55.5t-84.5 -19.5q-66 0 -107 45.5t-41 117.5z" />
<glyph unicode="&#xbe;" horiz-adv-x="2050" d="M49 795q0 61 38.5 97t102.5 36q52 0 83.5 -30t31.5 -79q0 -36 -27 -59l-4 -4q0 -11 33.5 -22t77.5 -11q78 0 124 32.5t46 88.5q0 44 -34 70t-93 26q-4 0 -13 -1t-12 -1q-42 0 -63 15.5t-21 47.5q0 36 45 76q4 4 7 6l135 121h-195q-30 0 -40.5 -7.5t-10.5 -27.5 q0 -6 5 -28.5t5 -38.5q0 -39 -22.5 -60.5t-65.5 -21.5q-49 0 -74.5 21.5t-25.5 64.5q0 12 3 44.5t3 53.5q0 20 -3 46.5t-3 33.5q0 34 16 49t54 15q16 0 54 -2.5t58 -2.5h330q12 0 48.5 2.5t59.5 2.5q37 0 57.5 -20t20.5 -54q0 -43 -73 -105q-27 -23 -41 -36l-90 -88 q105 -10 160 -60t55 -137q0 -123 -108 -199t-286 -76q-157 0 -252.5 62t-95.5 160zM537 8q0 10 3 19t9 18l784 1268q23 35 44.5 47t56.5 12q40 0 57.5 -9.5t17.5 -31.5q0 -9 -3 -18.5t-9 -18.5l-782 -1267q-24 -38 -45.5 -50t-55.5 -12q-40 0 -58.5 10.5t-18.5 32.5z M1219 303q0 19 13 41.5t52 65.5l258 278q47 53 87 71.5t95 18.5q65 0 90 -25.5t25 -119.5v-277h103q32 0 48.5 -15.5t16.5 -47.5q0 -38 -16 -54t-54 -16h-98v-67q0 -18 7.5 -23.5t27.5 -5.5q9 0 33.5 4t38.5 4q33 0 53 -19t20 -50q0 -36 -23 -55t-65 -19q-3 0 -17 1 q-90 9 -185 9q-61 0 -123.5 -5t-65.5 -5q-43 0 -67.5 19.5t-24.5 54.5q0 32 22.5 50.5t61.5 18.5q12 0 35.5 -4t36.5 -4q22 0 29 6.5t7 30.5v59h-288q-75 0 -104 18.5t-29 61.5zM1444 352h207l10 273z" />
<glyph unicode="&#xbf;" horiz-adv-x="1241" d="M94 389q0 90 35 158.5t107 122.5q63 48 156.5 78.5t100.5 33.5q20 10 23 52.5t10 58.5q12 25 51.5 41t92.5 16q88 0 128 -35t40 -114q0 -99 -47.5 -153.5t-172.5 -90.5q-102 -30 -141 -67.5t-39 -100.5q0 -76 53.5 -120t147.5 -44q75 0 125.5 18.5t69.5 53.5 q-33 12 -50.5 46.5t-17.5 84.5q0 75 56 125.5t143 50.5q88 0 148.5 -62.5t60.5 -158.5q0 -178 -158.5 -293t-411.5 -115q-235 0 -372.5 112.5t-137.5 301.5zM471 1198q0 81 57 139t138 58q82 0 140 -58.5t58 -140.5q0 -83 -57.5 -140t-140.5 -57q-81 0 -138 58.5t-57 140.5z " />
<glyph unicode="&#xc0;" horiz-adv-x="1659" d="M-74 139q0 58 33 94.5t84 36.5q12 0 49 -6t62 -6q26 0 43.5 21t44.5 100l290 874q31 91 75 119.5t220 28.5q178 0 220.5 -26.5t74.5 -121.5l291 -874q25 -78 43 -99.5t45 -21.5q23 0 60 6t51 6q50 0 83.5 -36.5t33.5 -94.5q0 -72 -40.5 -111.5t-113.5 -39.5 q-18 0 -107.5 10t-160.5 10q-73 0 -156 -7t-94 -7q-97 0 -146 38.5t-49 114.5q0 56 29.5 89.5t79.5 33.5q15 0 28 -10l2 -2q28 0 44 13t16 34q0 8 -1 14.5t-3 13.5l-27 113q-9 1 -25 2q-129 7 -184 7q-25 0 -107 -5q-46 -2 -75 -4l-39 -112q-2 -7 -3 -12.5t-1 -14.5 q0 -23 16 -36t43 -13l2 1q14 11 29 11q49 0 78 -33.5t29 -89.5q0 -77 -48 -115t-145 -38q-11 0 -95 7t-157 7q-71 0 -160 -10t-108 -10q-74 0 -114 39.5t-40 111.5zM473 1788q0 46 31 77.5t77 31.5q32 0 63 -17t93 -80l172 -174q11 -11 30 -29q58 -57 58 -73 q0 -14 -13.5 -23.5t-33.5 -9.5q-36 0 -129 48l-2 1l-244 127q-56 29 -79 57t-23 64zM709 694h237l-119 408z" />
<glyph unicode="&#xc1;" horiz-adv-x="1659" d="M-74 139q0 58 33 94.5t84 36.5q12 0 49 -6t62 -6q26 0 43.5 21t44.5 100l290 874q31 91 75 119.5t220 28.5q178 0 220.5 -26.5t74.5 -121.5l291 -874q25 -78 43 -99.5t45 -21.5q23 0 60 6t51 6q50 0 83.5 -36.5t33.5 -94.5q0 -72 -40.5 -111.5t-113.5 -39.5 q-18 0 -107.5 10t-160.5 10q-73 0 -156 -7t-94 -7q-97 0 -146 38.5t-49 114.5q0 56 29.5 89.5t79.5 33.5q15 0 28 -10l2 -2q28 0 44 13t16 34q0 8 -1 14.5t-3 13.5l-27 113q-9 1 -25 2q-129 7 -184 7q-25 0 -107 -5q-46 -2 -75 -4l-39 -112q-2 -7 -3 -12.5t-1 -14.5 q0 -23 16 -36t43 -13l2 1q14 11 29 11q49 0 78 -33.5t29 -89.5q0 -77 -48 -115t-145 -38q-11 0 -95 7t-157 7q-71 0 -160 -10t-108 -10q-74 0 -114 39.5t-40 111.5zM608 1524q0 16 58 73q19 18 30 29l170 174q62 63 92.5 80t63.5 17q46 0 78 -31.5t32 -77.5 q0 -36 -23.5 -63.5t-80.5 -57.5l-242 -127q-59 -30 -85.5 -39.5t-47.5 -9.5q-20 0 -32.5 9.5t-12.5 23.5zM709 694h237l-119 408z" />
<glyph unicode="&#xc2;" horiz-adv-x="1659" d="M-74 139q0 58 33 94.5t84 36.5q12 0 49 -6t62 -6q26 0 43.5 21t44.5 100l290 874q31 91 75 119.5t220 28.5q178 0 220.5 -26.5t74.5 -121.5l291 -874q25 -78 43 -99.5t45 -21.5q23 0 60 6t51 6q50 0 83.5 -36.5t33.5 -94.5q0 -72 -40.5 -111.5t-113.5 -39.5 q-18 0 -107.5 10t-160.5 10q-73 0 -156 -7t-94 -7q-97 0 -146 38.5t-49 114.5q0 56 29.5 89.5t79.5 33.5q15 0 28 -10l2 -2q28 0 44 13t16 34q0 8 -1 14.5t-3 13.5l-27 113q-9 1 -25 2q-129 7 -184 7q-25 0 -107 -5q-46 -2 -75 -4l-39 -112q-2 -7 -3 -12.5t-1 -14.5 q0 -23 16 -36t43 -13l2 1q14 11 29 11q49 0 78 -33.5t29 -89.5q0 -77 -48 -115t-145 -38q-11 0 -95 7t-157 7q-71 0 -160 -10t-108 -10q-74 0 -114 39.5t-40 111.5zM512 1528q0 15 38 73l7 11l153 227q21 31 37 39t66 8h16h16q50 0 65.5 -7.5t37.5 -39.5l153 -227 q29 -44 37 -60.5t8 -23.5q0 -18 -16.5 -25.5t-64.5 -7.5q-50 0 -87 49q-14 18 -22 27l-72 80q-22 24 -33 31.5t-22 7.5t-22 -7.5t-33 -31.5l-72 -80q-8 -9 -22 -27q-37 -49 -87 -49q-48 0 -64.5 7.5t-16.5 25.5zM709 694h237l-119 408z" />
<glyph unicode="&#xc3;" horiz-adv-x="1659" d="M-74 139q0 58 33 94.5t84 36.5q12 0 49 -6t62 -6q26 0 43.5 21t44.5 100l290 874q31 91 75 119.5t220 28.5q178 0 220.5 -26.5t74.5 -121.5l291 -874q25 -78 43 -99.5t45 -21.5q23 0 60 6t51 6q50 0 83.5 -36.5t33.5 -94.5q0 -72 -40.5 -111.5t-113.5 -39.5 q-18 0 -107.5 10t-160.5 10q-73 0 -156 -7t-94 -7q-97 0 -146 38.5t-49 114.5q0 56 29.5 89.5t79.5 33.5q15 0 28 -10l2 -2q28 0 44 13t16 34q0 8 -1 14.5t-3 13.5l-27 113q-9 1 -25 2q-129 7 -184 7q-25 0 -107 -5q-46 -2 -75 -4l-39 -112q-2 -7 -3 -12.5t-1 -14.5 q0 -23 16 -36t43 -13l2 1q14 11 29 11q49 0 78 -33.5t29 -89.5q0 -77 -48 -115t-145 -38q-11 0 -95 7t-157 7q-71 0 -160 -10t-108 -10q-74 0 -114 39.5t-40 111.5zM505 1585q0 18 15.5 49t46.5 76q33 48 72 69t94 21q22 0 41 -2.5t37 -7.5l121 -33q13 -3 25 -4.5t19 -1.5 q46 0 78 45t56 45q16 0 29.5 -11.5t13.5 -25.5q0 -71 -69.5 -149t-160.5 -78q-13 0 -29.5 2.5t-35.5 7.5l-117 31q-21 6 -33.5 8t-23.5 2q-47 0 -81 -44t-55 -44q-18 0 -30.5 13t-12.5 32zM709 694h237l-119 408z" />
<glyph unicode="&#xc4;" horiz-adv-x="1659" d="M-74 139q0 58 33 94.5t84 36.5q12 0 49 -6t62 -6q26 0 43.5 21t44.5 100l290 874q31 91 75 119.5t220 28.5q178 0 220.5 -26.5t74.5 -121.5l291 -874q25 -78 43 -99.5t45 -21.5q23 0 60 6t51 6q50 0 83.5 -36.5t33.5 -94.5q0 -72 -40.5 -111.5t-113.5 -39.5 q-18 0 -107.5 10t-160.5 10q-73 0 -156 -7t-94 -7q-97 0 -146 38.5t-49 114.5q0 56 29.5 89.5t79.5 33.5q15 0 28 -10l2 -2q28 0 44 13t16 34q0 8 -1 14.5t-3 13.5l-27 113q-9 1 -25 2q-129 7 -184 7q-25 0 -107 -5q-46 -2 -75 -4l-39 -112q-2 -7 -3 -12.5t-1 -14.5 q0 -23 16 -36t43 -13l2 1q14 11 29 11q49 0 78 -33.5t29 -89.5q0 -77 -48 -115t-145 -38q-11 0 -95 7t-157 7q-71 0 -160 -10t-108 -10q-74 0 -114 39.5t-40 111.5zM491 1690q0 56 43 99.5t100 43.5q60 0 102 -42t42 -101q0 -63 -40.5 -103.5t-103.5 -40.5q-59 0 -101 42 t-42 102zM709 694h237l-119 408zM880 1690q0 56 43 99.5t101 43.5q59 0 101 -42t42 -101q0 -63 -40.5 -103.5t-102.5 -40.5q-60 0 -102 42t-42 102z" />
<glyph unicode="&#xc5;" horiz-adv-x="1659" d="M-74 139q0 58 33 94.5t84 36.5q12 0 49 -6t62 -6q26 0 43.5 21t44.5 100l290 874q31 91 75 119.5t220 28.5q178 0 220.5 -26.5t74.5 -121.5l291 -874q25 -78 43 -99.5t45 -21.5q23 0 60 6t51 6q50 0 83.5 -36.5t33.5 -94.5q0 -72 -40 -110.5t-114 -38.5q-18 0 -107.5 9 t-160.5 9q-73 0 -156 -9t-94 -9q-96 0 -145.5 40t-49.5 117q0 56 29.5 89.5t79.5 33.5q15 0 28 -10l2 -2q28 0 44 13t16 34q0 8 -1 14.5t-3 13.5l-27 113q-9 1 -25 2q-129 7 -184 7q-25 0 -107 -5q-46 -2 -75 -4l-39 -112q-2 -7 -3 -12.5t-1 -14.5q0 -23 16 -36t43 -13l2 1 q14 11 29 11q49 0 78 -33.5t29 -89.5q0 -78 -49 -117.5t-144 -39.5q-11 0 -95 9t-157 9q-71 0 -160 -9t-108 -9q-74 0 -114 38.5t-40 110.5zM561 1735q0 110 77.5 187t188.5 77t189 -77t78 -187q0 -112 -78 -190.5t-189 -78.5q-110 0 -188 78.5t-78 190.5zM705 1733 q0 -51 35 -86t87 -35q51 0 86 35t35 86t-35 86.5t-86 35.5t-86.5 -35.5t-35.5 -86.5zM709 694h237l-119 408z" />
<glyph unicode="&#xc6;" horiz-adv-x="2286" d="M-74 131q0 61 30.5 98t78.5 37q12 0 25 -6t16 -6q59 0 124 110l1 1l393 669q5 9 7.5 18t2.5 17q0 26 -10.5 40.5t-30.5 14.5q-16 0 -48.5 -12t-47.5 -12q-40 0 -70 37.5t-30 91.5q0 69 37.5 105t109.5 36q6 0 43 -1q336 -9 741 -9q191 0 424.5 5t274.5 5q69 0 102 -29.5 t33 -91.5q0 -23 -5 -66t-5 -63q0 -47 5 -117.5t5 -93.5q0 -80 -39 -118.5t-119 -38.5q-64 0 -101.5 31t-37.5 83q0 19 3 54.5t3 52.5q0 87 -37.5 119t-193.5 32h-54q-113 0 -150.5 -20.5t-37.5 -85.5v-236h51q49 0 74 18.5t25 55.5q0 14 -4.5 39.5t-4.5 36.5q0 40 27 63 t76 23q61 0 92 -28t31 -85q0 -15 -8.5 -93.5t-8.5 -141.5q0 -58 8.5 -126.5t8.5 -78.5q0 -51 -32 -79t-91 -28q-48 0 -75.5 23.5t-27.5 64.5q0 13 4.5 37.5t4.5 36.5q0 34 -23 48t-82 14h-45v-213q0 -65 46.5 -90t191.5 -25q162 0 204.5 33.5t42.5 130.5q0 20 -3 59t-3 58 q0 48 43 83t107 35q79 0 122.5 -44.5t43.5 -125.5q0 -25 -5.5 -99t-5.5 -122q0 -18 5.5 -63t5.5 -72q0 -69 -36 -102t-110 -33q-10 0 -62 3q-289 15 -583 15q-249 0 -439 -17q-18 -1 -22 -1q-56 0 -84 35t-28 106q0 61 26 97t70 36q17 0 47.5 -6t44.5 -6q24 0 33.5 9t9.5 32 v287h-299q-35 0 -65 -18.5t-48 -51.5l-106 -194q-4 -7 -6 -13.5t-2 -11.5q0 -16 16 -27.5t41 -11.5q5 0 17.5 6t21.5 6q49 0 73.5 -32t24.5 -95q0 -82 -37 -114.5t-129 -32.5q-32 0 -110.5 9t-126.5 9q-52 0 -128.5 -9t-98.5 -9q-72 0 -107 34.5t-35 104.5zM741 752 q26 14 46 22t28 8h238v283q0 44 -11 66t-32 22t-38 -15t-38 -53z" />
<glyph unicode="&#xc7;" horiz-adv-x="1337" d="M72 680q0 332 172 525.5t467 193.5q110 0 184.5 -34t114.5 -103q9 64 39.5 95.5t85.5 31.5q56 0 87 -28t31 -79q0 -19 -6 -81.5t-6 -106.5q0 -36 6 -95.5t6 -83.5q0 -73 -38 -109t-115 -36q-72 0 -108.5 32t-47.5 108q-20 129 -64 171.5t-135 42.5q-141 0 -215.5 -113.5 t-74.5 -328.5q0 -208 73.5 -326t202.5 -118q99 0 156.5 42.5t66.5 122.5q4 28 4.5 82t10.5 72q18 36 53 55t82 19q90 0 138 -55.5t48 -159.5q0 -208 -157 -327.5t-435 -119.5q-288 0 -457 192t-169 519zM420 -330q0 24 15.5 41t39.5 17q11 0 87 -37t148 -37q46 0 69.5 19 t23.5 57q0 36 -21.5 58t-56.5 22q-11 0 -33 -6.5t-33 -6.5q-16 0 -24 6.5t-9 20.5q0 11 5 29t6 24l12 123h90v-86q0 -12 5 -16t20 -4q1 0 16 1t29 1q82 0 131 -46.5t49 -123.5q0 -87 -61 -136t-170 -49q-131 0 -234.5 40.5t-103.5 88.5z" />
<glyph unicode="&#xc8;" horiz-adv-x="1579" d="M16 131q0 61 35 98t92 37q21 0 60.5 -6t58.5 -6q33 0 44 10.5t11 59.5v714q0 57 -12.5 71.5t-42.5 14.5q-18 0 -58 -13t-63 -13q-56 0 -90.5 35.5t-34.5 95.5q0 69 37.5 106t108.5 37q4 0 26 -2q206 -16 463 -16q214 0 429.5 9l215.5 9q69 0 103.5 -30.5t34.5 -92.5 q0 -20 -5.5 -67.5t-5.5 -75.5q0 -35 5.5 -100t5.5 -95q0 -75 -41.5 -117t-116.5 -42q-61 0 -100 33t-39 81q0 17 3 52.5t3 54.5q0 89 -39.5 120t-214.5 31h-31q-113 0 -150.5 -20.5t-37.5 -85.5v-191q17 -4 32.5 -6t28.5 -2q44 0 69 16t25 44q0 13 -3 39.5t-3 39.5 q0 40 28.5 63t78.5 23q64 0 96.5 -28t32.5 -84q0 -16 -9.5 -94t-9.5 -142q0 -58 9.5 -126.5t9.5 -77.5q0 -52 -33.5 -79.5t-95.5 -27.5q-50 0 -78.5 22.5t-28.5 61.5q0 13 3 40t3 40q0 28 -25.5 44.5t-68.5 16.5q-6 0 -16.5 -1.5t-44.5 -8.5v-231q0 -64 44 -89.5t160 -25.5 q196 0 238.5 33.5t42.5 130.5q0 20 -3 59t-3 58q0 49 42 83.5t105 34.5q80 0 124 -44.5t44 -125.5q0 -25 -6 -99t-6 -122q0 -18 6 -63t6 -72q0 -69 -35.5 -102t-109.5 -33q-11 0 -62 3q-289 15 -581 15q-264 0 -482 -16q-26 -2 -30 -2q-73 0 -110.5 35t-37.5 104zM435 1788 q0 46 31 77.5t77 31.5q32 0 63 -17t93 -80l172 -174q11 -11 30 -29q58 -57 58 -73q0 -14 -13.5 -23.5t-33.5 -9.5q-36 0 -129 48l-2 1l-244 127q-56 29 -79 57t-23 64z" />
<glyph unicode="&#xc9;" horiz-adv-x="1579" d="M16 131q0 61 35 98t92 37q21 0 60.5 -6t58.5 -6q33 0 44 10.5t11 59.5v714q0 57 -12.5 71.5t-42.5 14.5q-18 0 -58 -13t-63 -13q-56 0 -90.5 35.5t-34.5 95.5q0 69 37.5 106t108.5 37q4 0 26 -2q206 -16 463 -16q214 0 429.5 9l215.5 9q69 0 103.5 -30.5t34.5 -92.5 q0 -20 -5.5 -67.5t-5.5 -75.5q0 -35 5.5 -100t5.5 -95q0 -75 -41.5 -117t-116.5 -42q-61 0 -100 33t-39 81q0 17 3 52.5t3 54.5q0 89 -39.5 120t-214.5 31h-31q-113 0 -150.5 -20.5t-37.5 -85.5v-191q17 -4 32.5 -6t28.5 -2q44 0 69 16t25 44q0 13 -3 39.5t-3 39.5 q0 40 28.5 63t78.5 23q64 0 96.5 -28t32.5 -84q0 -16 -9.5 -94t-9.5 -142q0 -58 9.5 -126.5t9.5 -77.5q0 -52 -33.5 -79.5t-95.5 -27.5q-50 0 -78.5 22.5t-28.5 61.5q0 13 3 40t3 40q0 28 -25.5 44.5t-68.5 16.5q-6 0 -16.5 -1.5t-44.5 -8.5v-231q0 -64 44 -89.5t160 -25.5 q196 0 238.5 33.5t42.5 130.5q0 20 -3 59t-3 58q0 49 42 83.5t105 34.5q80 0 124 -44.5t44 -125.5q0 -25 -6 -99t-6 -122q0 -18 6 -63t6 -72q0 -69 -35.5 -102t-109.5 -33q-11 0 -62 3q-289 15 -581 15q-264 0 -482 -16q-26 -2 -30 -2q-73 0 -110.5 35t-37.5 104zM570 1524 q0 16 58 73q19 18 30 29l170 174q62 63 92.5 80t63.5 17q46 0 78 -31.5t32 -77.5q0 -36 -23.5 -63.5t-80.5 -57.5l-242 -127q-59 -30 -85.5 -39.5t-47.5 -9.5q-20 0 -32.5 9.5t-12.5 23.5z" />
<glyph unicode="&#xca;" horiz-adv-x="1579" d="M16 131q0 61 35 98t92 37q21 0 60.5 -6t58.5 -6q33 0 44 10.5t11 59.5v714q0 57 -12.5 71.5t-42.5 14.5q-18 0 -58 -13t-63 -13q-56 0 -90.5 35.5t-34.5 95.5q0 69 37.5 106t108.5 37q4 0 26 -2q206 -16 463 -16q214 0 429.5 9l215.5 9q69 0 103.5 -30.5t34.5 -92.5 q0 -20 -5.5 -67.5t-5.5 -75.5q0 -35 5.5 -100t5.5 -95q0 -75 -41.5 -117t-116.5 -42q-61 0 -100 33t-39 81q0 17 3 52.5t3 54.5q0 89 -39.5 120t-214.5 31h-31q-113 0 -150.5 -20.5t-37.5 -85.5v-191q17 -4 32.5 -6t28.5 -2q44 0 69 16t25 44q0 13 -3 39.5t-3 39.5 q0 40 28.5 63t78.5 23q64 0 96.5 -28t32.5 -84q0 -16 -9.5 -94t-9.5 -142q0 -58 9.5 -126.5t9.5 -77.5q0 -52 -33.5 -79.5t-95.5 -27.5q-50 0 -78.5 22.5t-28.5 61.5q0 13 3 40t3 40q0 28 -25.5 44.5t-68.5 16.5q-6 0 -16.5 -1.5t-44.5 -8.5v-231q0 -64 44 -89.5t160 -25.5 q196 0 238.5 33.5t42.5 130.5q0 20 -3 59t-3 58q0 49 42 83.5t105 34.5q80 0 124 -44.5t44 -125.5q0 -25 -6 -99t-6 -122q0 -18 6 -63t6 -72q0 -69 -35.5 -102t-109.5 -33q-11 0 -62 3q-289 15 -581 15q-264 0 -482 -16q-26 -2 -30 -2q-73 0 -110.5 35t-37.5 104zM474 1528 q0 15 38 73l7 11l153 227q21 31 37 39t66 8h16h16q50 0 65.5 -7.5t37.5 -39.5l153 -227q29 -44 37 -60.5t8 -23.5q0 -18 -16.5 -25.5t-64.5 -7.5q-50 0 -87 49q-14 18 -22 27l-72 80q-22 24 -33 31.5t-22 7.5t-22 -7.5t-33 -31.5l-72 -80q-8 -9 -22 -27q-37 -49 -87 -49 q-48 0 -64.5 7.5t-16.5 25.5z" />
<glyph unicode="&#xcb;" horiz-adv-x="1579" d="M16 131q0 61 35 98t92 37q21 0 60.5 -6t58.5 -6q33 0 44 10.5t11 59.5v714q0 57 -12.5 71.5t-42.5 14.5q-18 0 -58 -13t-63 -13q-56 0 -90.5 35.5t-34.5 95.5q0 69 37.5 106t108.5 37q4 0 26 -2q206 -16 463 -16q214 0 429.5 9l215.5 9q69 0 103.5 -30.5t34.5 -92.5 q0 -20 -5.5 -67.5t-5.5 -75.5q0 -35 5.5 -100t5.5 -95q0 -75 -41.5 -117t-116.5 -42q-61 0 -100 33t-39 81q0 17 3 52.5t3 54.5q0 89 -39.5 120t-214.5 31h-31q-113 0 -150.5 -20.5t-37.5 -85.5v-191q17 -4 32.5 -6t28.5 -2q44 0 69 16t25 44q0 13 -3 39.5t-3 39.5 q0 40 28.5 63t78.5 23q64 0 96.5 -28t32.5 -84q0 -16 -9.5 -94t-9.5 -142q0 -58 9.5 -126.5t9.5 -77.5q0 -52 -33.5 -79.5t-95.5 -27.5q-50 0 -78.5 22.5t-28.5 61.5q0 13 3 40t3 40q0 28 -25.5 44.5t-68.5 16.5q-6 0 -16.5 -1.5t-44.5 -8.5v-231q0 -64 44 -89.5t160 -25.5 q196 0 238.5 33.5t42.5 130.5q0 20 -3 59t-3 58q0 49 42 83.5t105 34.5q80 0 124 -44.5t44 -125.5q0 -25 -6 -99t-6 -122q0 -18 6 -63t6 -72q0 -69 -35.5 -102t-109.5 -33q-11 0 -62 3q-289 15 -581 15q-264 0 -482 -16q-26 -2 -30 -2q-73 0 -110.5 35t-37.5 104zM453 1690 q0 56 43 99.5t100 43.5q60 0 102 -42t42 -101q0 -63 -40.5 -103.5t-103.5 -40.5q-59 0 -101 42t-42 102zM842 1690q0 56 43 99.5t101 43.5q59 0 101 -42t42 -101q0 -63 -40.5 -103.5t-102.5 -40.5q-60 0 -102 42t-42 102z" />
<glyph unicode="&#xcc;" horiz-adv-x="1049" d="M33 131q0 62 35 99.5t92 37.5q20 0 59.5 -8t59.5 -8q32 0 43.5 11t11.5 61v714v11q0 41 -11.5 52t-41.5 11q-18 0 -59.5 -7t-63.5 -7q-56 0 -90.5 35.5t-34.5 95.5q0 69 38.5 107t108.5 38q7 0 102 -9t185 -9q167 0 349 15q42 3 52 3q72 0 109 -35.5t37 -105.5 q0 -62 -34 -98.5t-91 -36.5q-21 0 -61.5 7t-59.5 7q-33 0 -44 -10.5t-11 -59.5v-733q0 -34 11.5 -45.5t43.5 -11.5q18 0 59.5 8t63.5 8q55 0 89 -35.5t34 -95.5q0 -70 -38 -108.5t-108 -38.5q-6 0 -101.5 10t-184.5 10q-167 0 -351 -16q-43 -4 -53 -4q-71 0 -108 35.5 t-37 105.5zM168 1788q0 46 31 77.5t77 31.5q32 0 63 -17t93 -80l172 -174q11 -11 30 -29q58 -57 58 -73q0 -14 -13.5 -23.5t-33.5 -9.5q-36 0 -129 48l-2 1l-244 127q-56 29 -79 57t-23 64z" />
<glyph unicode="&#xcd;" horiz-adv-x="1049" d="M33 131q0 62 35 99.5t92 37.5q20 0 59.5 -8t59.5 -8q32 0 43.5 11t11.5 61v714v11q0 41 -11.5 52t-41.5 11q-18 0 -59.5 -7t-63.5 -7q-56 0 -90.5 35.5t-34.5 95.5q0 69 38.5 107t108.5 38q7 0 102 -9t185 -9q167 0 349 15q42 3 52 3q72 0 109 -35.5t37 -105.5 q0 -62 -34 -98.5t-91 -36.5q-21 0 -61.5 7t-59.5 7q-33 0 -44 -10.5t-11 -59.5v-733q0 -34 11.5 -45.5t43.5 -11.5q18 0 59.5 8t63.5 8q55 0 89 -35.5t34 -95.5q0 -70 -38 -108.5t-108 -38.5q-6 0 -101.5 10t-184.5 10q-167 0 -351 -16q-43 -4 -53 -4q-71 0 -108 35.5 t-37 105.5zM303 1524q0 16 58 73q19 18 30 29l170 174q62 63 92.5 80t63.5 17q46 0 78 -31.5t32 -77.5q0 -36 -23.5 -63.5t-80.5 -57.5l-242 -127q-59 -30 -85.5 -39.5t-47.5 -9.5q-20 0 -32.5 9.5t-12.5 23.5z" />
<glyph unicode="&#xce;" horiz-adv-x="1049" d="M33 131q0 62 35 99.5t92 37.5q20 0 59.5 -8t59.5 -8q32 0 43.5 11t11.5 61v714v11q0 41 -11.5 52t-41.5 11q-18 0 -59.5 -7t-63.5 -7q-56 0 -90.5 35.5t-34.5 95.5q0 69 38.5 107t108.5 38q7 0 102 -9t185 -9q167 0 349 15q42 3 52 3q72 0 109 -35.5t37 -105.5 q0 -62 -34 -98.5t-91 -36.5q-21 0 -61.5 7t-59.5 7q-33 0 -44 -10.5t-11 -59.5v-733q0 -34 11.5 -45.5t43.5 -11.5q18 0 59.5 8t63.5 8q55 0 89 -35.5t34 -95.5q0 -70 -38 -108.5t-108 -38.5q-6 0 -101.5 10t-184.5 10q-167 0 -351 -16q-43 -4 -53 -4q-71 0 -108 35.5 t-37 105.5zM207 1528q0 15 38 73l7 11l153 227q21 31 37 39t66 8h16h16q50 0 65.5 -7.5t37.5 -39.5l153 -227q29 -44 37 -60.5t8 -23.5q0 -18 -16.5 -25.5t-64.5 -7.5q-50 0 -87 49q-14 18 -22 27l-72 80q-22 24 -33 31.5t-22 7.5t-22 -7.5t-33 -31.5l-72 -80q-8 -9 -22 -27 q-37 -49 -87 -49q-48 0 -64.5 7.5t-16.5 25.5z" />
<glyph unicode="&#xcf;" horiz-adv-x="1049" d="M33 131q0 62 35 99.5t92 37.5q20 0 59.5 -8t59.5 -8q32 0 43.5 11t11.5 61v714v11q0 41 -11.5 52t-41.5 11q-18 0 -59.5 -7t-63.5 -7q-56 0 -90.5 35.5t-34.5 95.5q0 69 38.5 107t108.5 38q7 0 102 -9t185 -9q167 0 349 15q42 3 52 3q72 0 109 -35.5t37 -105.5 q0 -62 -34 -98.5t-91 -36.5q-21 0 -61.5 7t-59.5 7q-33 0 -44 -10.5t-11 -59.5v-733q0 -34 11.5 -45.5t43.5 -11.5q18 0 59.5 8t63.5 8q55 0 89 -35.5t34 -95.5q0 -70 -38 -108.5t-108 -38.5q-6 0 -101.5 10t-184.5 10q-167 0 -351 -16q-43 -4 -53 -4q-71 0 -108 35.5 t-37 105.5zM186 1690q0 56 43 99.5t100 43.5q60 0 102 -42t42 -101q0 -63 -40.5 -103.5t-103.5 -40.5q-59 0 -101 42t-42 102zM575 1690q0 56 43 99.5t101 43.5q59 0 101 -42t42 -101q0 -63 -40.5 -103.5t-102.5 -40.5q-60 0 -102 42t-42 102z" />
<glyph unicode="&#xd0;" horiz-adv-x="1602" d="M37 129q0 62 34 98.5t91 36.5q21 0 61 -9t60 -9q32 0 43.5 11.5t11.5 64.5v311h-129q-55 0 -76.5 22t-21.5 76q0 49 23 70.5t77 21.5h127v219q0 51 -11 61.5t-44 10.5q-18 0 -59.5 -6t-63.5 -6q-56 0 -89.5 35.5t-33.5 95.5q0 70 37 106.5t108 36.5q6 0 106.5 -7 t194.5 -7q64 0 178 7t164 7q356 0 523.5 -170t167.5 -530q0 -326 -168 -508t-469 -182q-9 0 -149.5 9t-274.5 9q-92 0 -184 -9t-93 -9q-67 0 -104 37.5t-37 105.5zM713 338q0 -65 19 -78.5t110 -13.5q149 0 217.5 108t68.5 342q0 222 -65.5 320t-214.5 98 q-98 0 -116.5 -15.5t-18.5 -92.5v-39v-144h131q53 0 75.5 -21t22.5 -71q0 -54 -21.5 -76t-76.5 -22h-131v-244v-51z" />
<glyph unicode="&#xd1;" horiz-adv-x="1835" d="M47 133q0 64 27.5 98.5t79.5 34.5q22 0 57.5 -7t48.5 -7q34 0 45.5 10t11.5 51v11v714q0 51 -13 62.5t-48 11.5q-19 0 -52.5 -7t-47.5 -7q-42 0 -75.5 39t-33.5 94q0 64 38.5 102.5t100.5 38.5q7 0 34 -3q146 -15 296 -15q55 0 137 9t111 9q79 0 115 -94q7 -20 12 -31 l319 -757q7 -16 25 -68t39 -116q-9 92 -13 206q-1 26 -1 35l-17 492q-2 42 -13 57.5t-36 15.5q-18 0 -50 -7t-44 -7q-54 0 -82.5 33t-28.5 96q0 72 31.5 108.5t93.5 36.5q7 0 33 -3q119 -15 231 -15q152 0 297 15q26 3 31 3q69 0 104 -36t35 -107q0 -61 -32.5 -96t-88.5 -35 q-23 0 -58.5 7t-47.5 7q-26 0 -39.5 -14.5t-13.5 -40.5q0 -3 1 -9.5t1 -9.5v-850q0 -121 -46 -160.5t-231 -39.5q-191 0 -262 162q-3 7 -4 10l-344 780q-2 4 -6 14q-35 78 -53 150q0 -29 2 -80q4 -138 6 -160l22 -540q2 -41 13 -56.5t36 -15.5q14 0 46 7t51 7q48 0 78 -36.5 t30 -96.5q0 -69 -33.5 -107t-93.5 -38q-7 0 -36 3q-118 13 -226 13q-133 0 -284 -13q-41 -3 -52 -3q-68 0 -100.5 35t-32.5 110zM594 1585q0 18 15.5 49t46.5 76q33 48 72 69t94 21q22 0 41 -2.5t37 -7.5l121 -33q13 -3 25 -4.5t19 -1.5q46 0 78 45t56 45q16 0 29.5 -11.5 t13.5 -25.5q0 -71 -69.5 -149t-160.5 -78q-13 0 -29.5 2.5t-35.5 7.5l-117 31q-21 6 -33.5 8t-23.5 2q-47 0 -81 -44t-55 -44q-18 0 -30.5 13t-12.5 32z" />
<glyph unicode="&#xd2;" horiz-adv-x="1464" d="M76 682q0 336 173.5 524.5t483.5 188.5q306 0 481 -190.5t175 -522.5q0 -331 -176 -521t-484 -190q-307 0 -480 188t-173 523zM377 1788q0 46 31 77.5t77 31.5q32 0 63 -17t93 -80l172 -174q11 -11 30 -29q58 -57 58 -73q0 -14 -13.5 -23.5t-33.5 -9.5q-36 0 -129 48 l-2 1l-244 127q-56 29 -79 57t-23 64zM455 682q0 -211 71 -322.5t205 -111.5q132 0 204.5 113t72.5 321q0 211 -71.5 322.5t-205.5 111.5t-205 -111.5t-71 -322.5z" />
<glyph unicode="&#xd3;" horiz-adv-x="1464" d="M76 682q0 336 173.5 524.5t483.5 188.5q306 0 481 -190.5t175 -522.5q0 -331 -176 -521t-484 -190q-307 0 -480 188t-173 523zM455 682q0 -211 71 -322.5t205 -111.5q132 0 204.5 113t72.5 321q0 211 -71.5 322.5t-205.5 111.5t-205 -111.5t-71 -322.5zM512 1524 q0 16 58 73q19 18 30 29l170 174q62 63 92.5 80t63.5 17q46 0 78 -31.5t32 -77.5q0 -36 -23.5 -63.5t-80.5 -57.5l-242 -127q-59 -30 -85.5 -39.5t-47.5 -9.5q-20 0 -32.5 9.5t-12.5 23.5z" />
<glyph unicode="&#xd4;" horiz-adv-x="1464" d="M76 682q0 336 173.5 524.5t483.5 188.5q306 0 481 -190.5t175 -522.5q0 -331 -176 -521t-484 -190q-307 0 -480 188t-173 523zM416 1528q0 15 38 73l7 11l153 227q21 31 37 39t66 8h16h16q50 0 65.5 -7.5t37.5 -39.5l153 -227q29 -44 37 -60.5t8 -23.5q0 -18 -16.5 -25.5 t-64.5 -7.5q-50 0 -87 49q-14 18 -22 27l-72 80q-22 24 -33 31.5t-22 7.5t-22 -7.5t-33 -31.5l-72 -80q-8 -9 -22 -27q-37 -49 -87 -49q-48 0 -64.5 7.5t-16.5 25.5zM455 682q0 -211 71 -322.5t205 -111.5q132 0 204.5 113t72.5 321q0 211 -71.5 322.5t-205.5 111.5 t-205 -111.5t-71 -322.5z" />
<glyph unicode="&#xd5;" horiz-adv-x="1464" d="M76 682q0 336 173.5 524.5t483.5 188.5q306 0 481 -190.5t175 -522.5q0 -331 -176 -521t-484 -190q-307 0 -480 188t-173 523zM409 1585q0 18 15.5 49t46.5 76q33 48 72 69t94 21q22 0 41 -2.5t37 -7.5l121 -33q13 -3 25 -4.5t19 -1.5q46 0 78 45t56 45q16 0 29.5 -11.5 t13.5 -25.5q0 -71 -69.5 -149t-160.5 -78q-13 0 -29.5 2.5t-35.5 7.5l-117 31q-21 6 -33.5 8t-23.5 2q-47 0 -81 -44t-55 -44q-18 0 -30.5 13t-12.5 32zM455 682q0 -211 71 -322.5t205 -111.5q132 0 204.5 113t72.5 321q0 211 -71.5 322.5t-205.5 111.5t-205 -111.5 t-71 -322.5z" />
<glyph unicode="&#xd6;" horiz-adv-x="1464" d="M76 682q0 336 173.5 524.5t483.5 188.5q306 0 481 -190.5t175 -522.5q0 -331 -176 -521t-484 -190q-307 0 -480 188t-173 523zM395 1690q0 56 43 99.5t100 43.5q60 0 102 -42t42 -101q0 -63 -40.5 -103.5t-103.5 -40.5q-59 0 -101 42t-42 102zM455 682q0 -211 71 -322.5 t205 -111.5q132 0 204.5 113t72.5 321q0 211 -71.5 322.5t-205.5 111.5t-205 -111.5t-71 -322.5zM784 1690q0 56 43 99.5t101 43.5q59 0 101 -42t42 -101q0 -63 -40.5 -103.5t-102.5 -40.5q-60 0 -102 42t-42 102z" />
<glyph unicode="&#xd7;" horiz-adv-x="1706" d="M276 160l451 450l-451 453l140 139l450 -450l451 450l141 -139l-450 -453l450 -450l-141 -140l-451 451l-450 -451z" />
<glyph unicode="&#xd8;" horiz-adv-x="1464" d="M76 682q0 344 176 528.5t504 184.5q82 0 146 -13t120 -41l98 150q13 18 29.5 27.5t38.5 9.5q49 0 95 -38.5t46 -82.5q0 -17 -6 -33.5t-20 -36.5l-91 -133q86 -82 131.5 -216.5t45.5 -305.5q0 -333 -176 -522t-488 -189q-88 0 -160.5 13.5t-128.5 40.5l-94 -148 q-17 -26 -36.5 -38.5t-43.5 -12.5q-43 0 -91 38.5t-48 78.5q0 27 22 58q5 8 9 14l100 143q-89 92 -133.5 223t-44.5 301zM453 672q0 -53 4.5 -95.5t13.5 -80.5l385 589q-26 17 -55 24t-70 7q-136 0 -207 -114t-71 -330zM604 281q27 -17 58.5 -25t68.5 -8q131 0 205 114 t74 318q0 54 -4.5 99t-14.5 87z" />
<glyph unicode="&#xd9;" horiz-adv-x="1753" d="M2 1225q0 72 36.5 109.5t106.5 37.5q21 0 105.5 -9t148.5 -9q59 0 150 9t121 9q81 0 122.5 -39t41.5 -116q0 -58 -23.5 -83.5t-89.5 -25.5q-30 -11 -40.5 -24.5t-10.5 -45.5v-442q0 -204 46 -264t163 -60t162.5 59.5t45.5 264.5v444q0 34 -8 46.5t-30 21.5q-6 0 -19 1 q-106 5 -106 112q0 76 40.5 113.5t122.5 37.5q30 0 121 -9t150 -9q65 0 149.5 9t104.5 9q73 0 111 -35.5t38 -103.5q0 -63 -36 -102t-93 -39q-25 0 -65 8t-56 8q-30 0 -40.5 -10.5t-10.5 -59.5v-444q0 -186 -19 -273t-65 -149q-71 -96 -200 -148.5t-295 -52.5 q-170 0 -299.5 52.5t-200.5 148.5q-44 62 -63 147.5t-19 258.5v143v313q0 52 -11.5 63t-43.5 11q-18 0 -59.5 -8t-63.5 -8q-54 0 -86.5 36t-32.5 97zM504 1788q0 46 31 77.5t77 31.5q32 0 63 -17t93 -80l172 -174q11 -11 30 -29q58 -57 58 -73q0 -14 -13.5 -23.5t-33.5 -9.5 q-36 0 -129 48l-2 1l-244 127q-56 29 -79 57t-23 64z" />
<glyph unicode="&#xda;" horiz-adv-x="1753" d="M2 1225q0 72 36.5 109.5t106.5 37.5q21 0 105.5 -9t148.5 -9q59 0 150 9t121 9q81 0 122.5 -39t41.5 -116q0 -58 -23.5 -83.5t-89.5 -25.5q-30 -11 -40.5 -24.5t-10.5 -45.5v-442q0 -204 46 -264t163 -60t162.5 59.5t45.5 264.5v444q0 34 -8 46.5t-30 21.5q-6 0 -19 1 q-106 5 -106 112q0 76 40.5 113.5t122.5 37.5q30 0 121 -9t150 -9q65 0 149.5 9t104.5 9q73 0 111 -35.5t38 -103.5q0 -63 -36 -102t-93 -39q-25 0 -65 8t-56 8q-30 0 -40.5 -10.5t-10.5 -59.5v-444q0 -186 -19 -273t-65 -149q-71 -96 -200 -148.5t-295 -52.5 q-170 0 -299.5 52.5t-200.5 148.5q-44 62 -63 147.5t-19 258.5v143v313q0 52 -11.5 63t-43.5 11q-18 0 -59.5 -8t-63.5 -8q-54 0 -86.5 36t-32.5 97zM639 1524q0 16 58 73q19 18 30 29l170 174q62 63 92.5 80t63.5 17q46 0 78 -31.5t32 -77.5q0 -36 -23.5 -63.5t-80.5 -57.5 l-242 -127q-59 -30 -85.5 -39.5t-47.5 -9.5q-20 0 -32.5 9.5t-12.5 23.5z" />
<glyph unicode="&#xdb;" horiz-adv-x="1753" d="M2 1225q0 72 36.5 109.5t106.5 37.5q21 0 105.5 -9t148.5 -9q59 0 150 9t121 9q81 0 122.5 -39t41.5 -116q0 -58 -23.5 -83.5t-89.5 -25.5q-30 -11 -40.5 -24.5t-10.5 -45.5v-442q0 -204 46 -264t163 -60t162.5 59.5t45.5 264.5v444q0 34 -8 46.5t-30 21.5q-6 0 -19 1 q-106 5 -106 112q0 76 40.5 113.5t122.5 37.5q30 0 121 -9t150 -9q65 0 149.5 9t104.5 9q73 0 111 -35.5t38 -103.5q0 -63 -36 -102t-93 -39q-25 0 -65 8t-56 8q-30 0 -40.5 -10.5t-10.5 -59.5v-444q0 -186 -19 -273t-65 -149q-71 -96 -200 -148.5t-295 -52.5 q-170 0 -299.5 52.5t-200.5 148.5q-44 62 -63 147.5t-19 258.5v143v313q0 52 -11.5 63t-43.5 11q-18 0 -59.5 -8t-63.5 -8q-54 0 -86.5 36t-32.5 97zM543 1528q0 15 38 73l7 11l153 227q21 31 37 39t66 8h16h16q50 0 65.5 -7.5t37.5 -39.5l153 -227q29 -44 37 -60.5t8 -23.5 q0 -18 -16.5 -25.5t-64.5 -7.5q-50 0 -87 49q-14 18 -22 27l-72 80q-22 24 -33 31.5t-22 7.5t-22 -7.5t-33 -31.5l-72 -80q-8 -9 -22 -27q-37 -49 -87 -49q-48 0 -64.5 7.5t-16.5 25.5z" />
<glyph unicode="&#xdc;" horiz-adv-x="1753" d="M2 1225q0 72 36.5 109.5t106.5 37.5q21 0 105.5 -9t148.5 -9q59 0 150 9t121 9q81 0 122.5 -39t41.5 -116q0 -58 -23.5 -83.5t-89.5 -25.5q-30 -11 -40.5 -24.5t-10.5 -45.5v-442q0 -204 46 -264t163 -60t162.5 59.5t45.5 264.5v444q0 34 -8 46.5t-30 21.5q-6 0 -19 1 q-106 5 -106 112q0 76 40.5 113.5t122.5 37.5q30 0 121 -9t150 -9q65 0 149.5 9t104.5 9q73 0 111 -35.5t38 -103.5q0 -63 -36 -102t-93 -39q-25 0 -65 8t-56 8q-30 0 -40.5 -10.5t-10.5 -59.5v-444q0 -186 -19 -273t-65 -149q-71 -96 -200 -148.5t-295 -52.5 q-170 0 -299.5 52.5t-200.5 148.5q-44 62 -63 147.5t-19 258.5v143v313q0 52 -11.5 63t-43.5 11q-18 0 -59.5 -8t-63.5 -8q-54 0 -86.5 36t-32.5 97zM522 1690q0 56 43 99.5t100 43.5q60 0 102 -42t42 -101q0 -63 -40.5 -103.5t-103.5 -40.5q-59 0 -101 42t-42 102z M911 1690q0 56 43 99.5t101 43.5q59 0 101 -42t42 -101q0 -63 -40.5 -103.5t-102.5 -40.5q-60 0 -102 42t-42 102z" />
<glyph unicode="&#xdd;" horiz-adv-x="1675" d="M-39 1229q0 70 40 106.5t116 36.5q20 0 110 -8t158 -8q62 0 147 8t107 8q77 0 120.5 -35t43.5 -98q0 -35 -13 -58.5t-38 -35.5q-10 -5 -28 -11q-34 -11 -34 -34q0 -14 22 -54q0 -1 1 -2l123 -239l120 239q4 7 11 20q14 26 14 36q0 22 -35 34q-19 6 -29 11 q-25 12 -38 35.5t-13 58.5q0 63 43.5 98t120.5 35q22 0 107 -8t147 -8q68 0 158 8t110 8q76 0 116 -36.5t40 -106.5q0 -55 -32 -93t-74 -38q-22 0 -58 5t-49 5q-42 0 -71.5 -16.5t-53.5 -53.5l-332 -514q-8 -15 -12 -31.5t-4 -43.5v-11v-110v-29q0 -24 12 -33.5t41 -9.5 q18 0 62.5 7t70.5 7q66 0 105 -35.5t39 -97.5q0 -69 -43 -107t-121 -38q-3 0 -121.5 10t-235.5 10q-101 0 -215 -10t-127 -10q-82 0 -127 38t-45 107q0 61 41 97t109 36q26 0 69.5 -7t61.5 -7q31 0 43 10t12 37v25v110q0 26 -5.5 47t-16.5 39l-332 514q-24 37 -53.5 53.5 t-71.5 16.5q-13 0 -48.5 -5t-57.5 -5q-43 0 -75 38t-32 93zM617 1524q0 16 58 73q19 18 30 29l170 174q62 63 92.5 80t63.5 17q46 0 78 -31.5t32 -77.5q0 -36 -23.5 -63.5t-80.5 -57.5l-242 -127q-59 -30 -85.5 -39.5t-47.5 -9.5q-20 0 -32.5 9.5t-12.5 23.5z" />
<glyph unicode="&#xde;" horiz-adv-x="1372" d="M55 133q0 61 30.5 97t80.5 36q21 0 53.5 -7t44.5 -7q32 0 42.5 9.5t10.5 45.5v17v714v17q0 34 -10 44.5t-37 10.5q-14 0 -49 -6t-55 -6q-50 0 -80.5 34t-30.5 93q0 72 34.5 109.5t98.5 37.5q23 0 92.5 -9t116.5 -9q46 0 109 9t82 9q45 0 62.5 -23.5t17.5 -107.5v-70 q0 -11 9 -17.5t25 -6.5q10 0 64 4t96 4q229 0 348 -103.5t119 -301.5q0 -194 -129.5 -291t-388.5 -97q-47 1 -95 6q-10 1 -11 1q-16 0 -26.5 -7.5t-10.5 -15.5v-45q0 -27 11.5 -38t39.5 -11q15 0 58 7t71 7q62 0 97.5 -36t35.5 -99q0 -68 -38.5 -105.5t-106.5 -37.5 q-8 0 -100.5 10t-178.5 10q-209 0 -360 -18q-16 -2 -19 -2q-57 0 -90 39t-33 106zM668 647q0 -33 15.5 -41t59.5 -8q115 0 177.5 41.5t62.5 116.5q0 76 -52.5 114.5t-156.5 38.5q-63 0 -84.5 -10t-21.5 -43v-209z" />
<glyph unicode="&#xdf;" horiz-adv-x="1522" d="M0 111q0 58 29 93.5t75 35.5q18 0 52.5 -6.5t50.5 -6.5q25 0 35 8t10 29v504q0 19 -11.5 26t-43.5 7q-12 0 -44.5 -5t-52.5 -5q-46 0 -73 31t-27 83q0 61 32.5 95t90.5 34q17 0 52.5 -5t53.5 -5q38 0 69 91q22 62 40 93q56 96 168 146.5t272 50.5q214 0 344.5 -97 t130.5 -253q0 -75 -45 -142.5t-131 -119.5q229 -102 324.5 -206.5t95.5 -246.5q0 -166 -107.5 -270.5t-283.5 -104.5q-81 0 -141.5 23t-118.5 75q-11 -54 -29.5 -73t-58.5 -19q-48 0 -70 18.5t-22 57.5q0 4 6 60.5t6 109.5q0 43 -2 92t-2 56q0 60 32 87t103 27 q104 0 110 -128q0 -11 1 -18q3 -62 35 -93t94 -31q60 0 92.5 31.5t32.5 91.5q0 64 -54.5 115.5t-207.5 125.5q-12 6 -31 15q-174 82 -174 176q0 34 12.5 55t64.5 58q7 4 20 12q122 80 122 151q0 58 -41 91.5t-111 33.5q-105 0 -147.5 -67.5t-42.5 -249.5v-615 q0 -154 -21.5 -197.5t-79.5 -43.5q-15 0 -70 8t-94 8q-42 0 -106.5 -8t-85.5 -8q-61 0 -94 30.5t-33 88.5z" />
<glyph unicode="&#xe0;" horiz-adv-x="1247" d="M45 287q0 147 79 220t289 105q14 2 41 6q251 39 251 136q0 52 -35.5 85t-91.5 33q-49 0 -71 -12.5t-22 -40.5q0 -12 2 -31.5t2 -25.5q0 -40 -50.5 -70t-125.5 -30q-81 0 -130.5 43.5t-49.5 113.5q0 116 112 177t326 61q128 0 217.5 -22t147.5 -68q48 -39 68 -94t20 -183 v-33v-383q0 -50 78 -54q13 0 21 -1q36 -3 56.5 -29t20.5 -71q0 -71 -52 -111.5t-144 -40.5q-78 0 -131.5 31t-81.5 92q-74 -65 -162 -94t-217 -29q-167 0 -267 88t-100 232zM222 1452q0 46 31 77.5t77 31.5q32 0 63 -17t93 -80l172 -174q11 -11 30 -29q58 -57 58 -73 q0 -14 -13.5 -23.5t-33.5 -9.5q-36 0 -129 48l-2 1l-244 127q-56 29 -79 57t-23 64zM385 307q0 -51 34.5 -82.5t90.5 -31.5q94 0 141 48.5t47 145.5v78q-61 -31 -187 -52.5t-126 -105.5z" />
<glyph unicode="&#xe1;" horiz-adv-x="1247" d="M45 287q0 147 79 220t289 105q14 2 41 6q251 39 251 136q0 52 -35.5 85t-91.5 33q-49 0 -71 -12.5t-22 -40.5q0 -12 2 -31.5t2 -25.5q0 -40 -50.5 -70t-125.5 -30q-81 0 -130.5 43.5t-49.5 113.5q0 116 112 177t326 61q128 0 217.5 -22t147.5 -68q48 -39 68 -94t20 -183 v-33v-383q0 -50 78 -54q13 0 21 -1q36 -3 56.5 -29t20.5 -71q0 -71 -52 -111.5t-144 -40.5q-78 0 -131.5 31t-81.5 92q-74 -65 -162 -94t-217 -29q-167 0 -267 88t-100 232zM357 1188q0 16 58 73q19 18 30 29l170 174q62 63 92.5 80t63.5 17q46 0 78 -31.5t32 -77.5 q0 -36 -23.5 -63.5t-80.5 -57.5l-242 -127q-59 -30 -85.5 -39.5t-47.5 -9.5q-20 0 -32.5 9.5t-12.5 23.5zM385 307q0 -51 34.5 -82.5t90.5 -31.5q94 0 141 48.5t47 145.5v78q-61 -31 -187 -52.5t-126 -105.5z" />
<glyph unicode="&#xe2;" horiz-adv-x="1247" d="M45 287q0 147 79 220t289 105q14 2 41 6q251 39 251 136q0 52 -35.5 85t-91.5 33q-49 0 -71 -12.5t-22 -40.5q0 -12 2 -31.5t2 -25.5q0 -40 -50.5 -70t-125.5 -30q-81 0 -130.5 43.5t-49.5 113.5q0 116 112 177t326 61q128 0 217.5 -22t147.5 -68q48 -39 68 -94t20 -183 v-33v-383q0 -50 78 -54q13 0 21 -1q36 -3 56.5 -29t20.5 -71q0 -71 -52 -111.5t-144 -40.5q-78 0 -131.5 31t-81.5 92q-74 -65 -162 -94t-217 -29q-167 0 -267 88t-100 232zM261 1192q0 15 38 73l7 11l153 227q21 31 37 39t66 8h16h16q50 0 65.5 -7.5t37.5 -39.5l153 -227 q29 -44 37 -60.5t8 -23.5q0 -18 -16.5 -25.5t-64.5 -7.5q-50 0 -87 49q-14 18 -22 27l-72 80q-22 24 -33 31.5t-22 7.5t-22 -7.5t-33 -31.5l-72 -80q-8 -9 -22 -27q-37 -49 -87 -49q-48 0 -64.5 7.5t-16.5 25.5zM385 307q0 -51 34.5 -82.5t90.5 -31.5q94 0 141 48.5 t47 145.5v78q-61 -31 -187 -52.5t-126 -105.5z" />
<glyph unicode="&#xe3;" horiz-adv-x="1247" d="M45 287q0 147 79 220t289 105q14 2 41 6q251 39 251 136q0 52 -35.5 85t-91.5 33q-49 0 -71 -12.5t-22 -40.5q0 -12 2 -31.5t2 -25.5q0 -40 -50.5 -70t-125.5 -30q-81 0 -130.5 43.5t-49.5 113.5q0 116 112 177t326 61q128 0 217.5 -22t147.5 -68q48 -39 68 -94t20 -183 v-33v-383q0 -50 78 -54q13 0 21 -1q36 -3 56.5 -29t20.5 -71q0 -71 -52 -111.5t-144 -40.5q-78 0 -131.5 31t-81.5 92q-74 -65 -162 -94t-217 -29q-167 0 -267 88t-100 232zM254 1249q0 18 15.5 49t46.5 76q33 48 72 69t94 21q22 0 41 -2.5t37 -7.5l121 -33q13 -3 25 -4.5 t19 -1.5q46 0 78 45t56 45q16 0 29.5 -11.5t13.5 -25.5q0 -71 -69.5 -149t-160.5 -78q-13 0 -29.5 2.5t-35.5 7.5l-117 31q-21 6 -33.5 8t-23.5 2q-47 0 -81 -44t-55 -44q-18 0 -30.5 13t-12.5 32zM385 307q0 -51 34.5 -82.5t90.5 -31.5q94 0 141 48.5t47 145.5v78 q-61 -31 -187 -52.5t-126 -105.5z" />
<glyph unicode="&#xe4;" horiz-adv-x="1247" d="M45 287q0 147 79 220t289 105q14 2 41 6q251 39 251 136q0 52 -35.5 85t-91.5 33q-49 0 -71 -12.5t-22 -40.5q0 -12 2 -31.5t2 -25.5q0 -40 -50.5 -70t-125.5 -30q-81 0 -130.5 43.5t-49.5 113.5q0 116 112 177t326 61q128 0 217.5 -22t147.5 -68q48 -39 68 -94t20 -183 v-33v-383q0 -50 78 -54q13 0 21 -1q36 -3 56.5 -29t20.5 -71q0 -71 -52 -111.5t-144 -40.5q-78 0 -131.5 31t-81.5 92q-74 -65 -162 -94t-217 -29q-167 0 -267 88t-100 232zM240 1354q0 56 43 99.5t100 43.5q60 0 102 -42t42 -101q0 -63 -40.5 -103.5t-103.5 -40.5 q-59 0 -101 42t-42 102zM385 307q0 -51 34.5 -82.5t90.5 -31.5q94 0 141 48.5t47 145.5v78q-61 -31 -187 -52.5t-126 -105.5zM629 1354q0 56 43 99.5t101 43.5q59 0 101 -42t42 -101q0 -63 -40.5 -103.5t-102.5 -40.5q-60 0 -102 42t-42 102z" />
<glyph unicode="&#xe5;" horiz-adv-x="1247" d="M45 287q0 147 79 220t289 105q14 2 41 6q251 39 251 136q0 52 -35.5 85t-91.5 33q-49 0 -71 -12.5t-22 -40.5q0 -12 2 -31.5t2 -25.5q0 -40 -50.5 -70t-125.5 -30q-81 0 -130.5 43.5t-49.5 113.5q0 116 112 177t326 61q128 0 217.5 -22t147.5 -68q48 -39 68 -94t20 -183 v-33v-383q0 -50 78 -54q13 0 21 -1q36 -3 56.5 -29t20.5 -71q0 -71 -52.5 -112.5t-143.5 -41.5q-77 0 -131 31.5t-82 93.5q-75 -66 -163.5 -95.5t-215.5 -29.5q-167 0 -267 88.5t-100 233.5zM328 1389q0 110 77.5 188t188.5 78t188.5 -78t77.5 -188q0 -112 -77.5 -189.5 t-188.5 -77.5t-188.5 77.5t-77.5 189.5zM385 307q0 -51 34.5 -82.5t90.5 -31.5q94 0 141 48.5t47 145.5v78q-61 -31 -187 -52.5t-126 -105.5zM473 1389q0 -52 34.5 -86.5t86.5 -34.5q51 0 87 35t36 86q0 50 -36 85t-87 35q-52 0 -86.5 -34.5t-34.5 -85.5z" />
<glyph unicode="&#xe6;" horiz-adv-x="1763" d="M43 289q0 147 80 219.5t290 103.5l19 3q273 40 273 139q0 55 -38 86.5t-104 31.5q-39 0 -58.5 -13.5t-19.5 -41.5q0 -2 1 -21t1 -34q0 -41 -50 -70.5t-126 -29.5q-83 0 -130.5 42t-47.5 115q0 111 110 174.5t302 63.5q127 0 218 -29.5t144 -87.5q53 59 133 88t191 29 q217 0 348 -132t131 -350q0 -58 -18 -84t-58 -26h-624v-23q0 -112 57 -177.5t154 -65.5q60 0 99 25t58 77q19 51 56 75.5t94 24.5q80 0 124 -36.5t44 -102.5q0 -126 -133.5 -210.5t-343.5 -84.5q-135 0 -235 34.5t-169 104.5q-77 -69 -175 -104t-218 -35q-175 0 -277 87 t-102 235zM385 307q0 -50 33.5 -79t91.5 -29q96 0 142 46t46 142v80q-62 -32 -187.5 -54t-125.5 -106zM1022 650l352 -1q0 86 -45.5 133t-128.5 47q-79 0 -127 -48.5t-51 -130.5z" />
<glyph unicode="&#xe7;" horiz-adv-x="1071" d="M61 512q0 249 145.5 398t389.5 149q191 0 304.5 -83t113.5 -220q0 -76 -48.5 -125t-123.5 -49q-77 0 -123.5 32.5t-46.5 85.5q0 14 8 39t8 37q0 14 -24.5 23.5t-63.5 9.5q-105 0 -161 -76t-56 -221q0 -138 56 -218.5t151 -80.5q52 0 89 26.5t54 75.5q25 72 55.5 96.5 t81.5 24.5q68 0 110 -42.5t42 -110.5q0 -136 -125 -226t-319 -90q-231 0 -374 150.5t-143 394.5zM283 -330q0 24 15.5 41t39.5 17q11 0 87 -37t148 -37q46 0 69.5 19t23.5 57q0 36 -21.5 58t-56.5 22q-11 0 -33 -6.5t-33 -6.5q-16 0 -24 6.5t-9 20.5q0 11 5 29t6 24l12 123 h90v-86q0 -12 5 -16t20 -4q1 0 16 1t29 1q82 0 131 -46.5t49 -123.5q0 -87 -61 -136t-170 -49q-131 0 -234.5 40.5t-103.5 88.5z" />
<glyph unicode="&#xe8;" horiz-adv-x="1161" d="M61 512q0 250 144.5 397.5t392.5 147.5q240 0 376 -128t136 -354q0 -58 -18 -84t-58 -26h-624q0 -130 54.5 -194t166.5 -64q59 0 94 23.5t55 80.5q16 42 55.5 66t92.5 24q79 0 123.5 -36.5t44.5 -102.5q0 -126 -134.5 -210.5t-347.5 -84.5q-258 0 -405.5 145.5 t-147.5 399.5zM244 1452q0 46 31 77.5t77 31.5q32 0 63 -17t93 -80l172 -174q11 -11 30 -29q58 -57 58 -73q0 -14 -13.5 -23.5t-33.5 -9.5q-36 0 -129 48l-2 1l-244 127q-56 29 -79 57t-23 64zM422 650l350 -1q0 87 -44.5 133.5t-127.5 46.5q-79 0 -127 -48.5t-51 -130.5z " />
<glyph unicode="&#xe9;" horiz-adv-x="1161" d="M61 512q0 250 144.5 397.5t392.5 147.5q240 0 376 -128t136 -354q0 -58 -18 -84t-58 -26h-624q0 -130 54.5 -194t166.5 -64q59 0 94 23.5t55 80.5q16 42 55.5 66t92.5 24q79 0 123.5 -36.5t44.5 -102.5q0 -126 -134.5 -210.5t-347.5 -84.5q-258 0 -405.5 145.5 t-147.5 399.5zM379 1188q0 16 58 73q19 18 30 29l170 174q62 63 92.5 80t63.5 17q46 0 78 -31.5t32 -77.5q0 -36 -23.5 -63.5t-80.5 -57.5l-242 -127q-59 -30 -85.5 -39.5t-47.5 -9.5q-20 0 -32.5 9.5t-12.5 23.5zM422 650l350 -1q0 87 -44.5 133.5t-127.5 46.5 q-79 0 -127 -48.5t-51 -130.5z" />
<glyph unicode="&#xea;" horiz-adv-x="1161" d="M61 512q0 250 144.5 397.5t392.5 147.5q240 0 376 -128t136 -354q0 -58 -18 -84t-58 -26h-624q0 -130 54.5 -194t166.5 -64q59 0 94 23.5t55 80.5q16 42 55.5 66t92.5 24q79 0 123.5 -36.5t44.5 -102.5q0 -126 -134.5 -210.5t-347.5 -84.5q-258 0 -405.5 145.5 t-147.5 399.5zM283 1192q0 15 38 73l7 11l153 227q21 31 37 39t66 8h16h16q50 0 65.5 -7.5t37.5 -39.5l153 -227q29 -44 37 -60.5t8 -23.5q0 -18 -16.5 -25.5t-64.5 -7.5q-50 0 -87 49q-14 18 -22 27l-72 80q-22 24 -33 31.5t-22 7.5t-22 -7.5t-33 -31.5l-72 -80 q-8 -9 -22 -27q-37 -49 -87 -49q-48 0 -64.5 7.5t-16.5 25.5zM422 650l350 -1q0 87 -44.5 133.5t-127.5 46.5q-79 0 -127 -48.5t-51 -130.5z" />
<glyph unicode="&#xeb;" horiz-adv-x="1161" d="M61 512q0 250 144.5 397.5t392.5 147.5q240 0 376 -128t136 -354q0 -58 -18 -84t-58 -26h-624q0 -130 54.5 -194t166.5 -64q59 0 94 23.5t55 80.5q16 42 55.5 66t92.5 24q79 0 123.5 -36.5t44.5 -102.5q0 -126 -134.5 -210.5t-347.5 -84.5q-258 0 -405.5 145.5 t-147.5 399.5zM262 1354q0 56 43 99.5t100 43.5q60 0 102 -42t42 -101q0 -63 -40.5 -103.5t-103.5 -40.5q-59 0 -101 42t-42 102zM422 650l350 -1q0 87 -44.5 133.5t-127.5 46.5q-79 0 -127 -48.5t-51 -130.5zM651 1354q0 56 43 99.5t101 43.5q59 0 101 -42t42 -101 q0 -63 -40.5 -103.5t-102.5 -40.5q-60 0 -102 42t-42 102z" />
<glyph unicode="&#xec;" horiz-adv-x="915" d="M35 121q0 55 29 87t79 32q22 0 57 -7.5t48 -7.5q31 0 42 13t11 51v456q0 37 -12 48.5t-45 11.5q-21 0 -55.5 -6t-47.5 -6q-47 0 -76.5 31.5t-29.5 82.5q0 59 36.5 94t96.5 35q8 0 111.5 -6t197.5 -6q21 0 53.5 6t42.5 6q34 0 49 -22.5t15 -73.5v-657q0 -36 11 -47t44 -11 q12 0 46 7.5t57 7.5q50 0 80 -32.5t30 -86.5q0 -66 -33 -97.5t-102 -31.5q-6 0 -33 2q-146 12 -295 12q-84 0 -175 -7t-99 -7q-69 0 -101 31t-32 98zM72 1452q0 46 31 77.5t77 31.5q32 0 63 -17t93 -80l172 -174q11 -11 30 -29q58 -57 58 -73q0 -14 -13.5 -23.5t-33.5 -9.5 q-36 0 -129 48l-2 1l-244 127q-56 29 -79 57t-23 64z" />
<glyph unicode="&#xed;" horiz-adv-x="915" d="M35 121q0 55 29 87t79 32q22 0 57 -7.5t48 -7.5q31 0 42 13t11 51v456q0 37 -12 48.5t-45 11.5q-21 0 -55.5 -6t-47.5 -6q-47 0 -76.5 31.5t-29.5 82.5q0 59 36.5 94t96.5 35q8 0 111.5 -6t197.5 -6q21 0 53.5 6t42.5 6q34 0 49 -22.5t15 -73.5v-657q0 -36 11 -47t44 -11 q12 0 46 7.5t57 7.5q50 0 80 -32.5t30 -86.5q0 -66 -33 -97.5t-102 -31.5q-6 0 -33 2q-146 12 -295 12q-84 0 -175 -7t-99 -7q-69 0 -101 31t-32 98zM207 1188q0 16 58 73q19 18 30 29l170 174q62 63 92.5 80t63.5 17q46 0 78 -31.5t32 -77.5q0 -36 -23.5 -63.5t-80.5 -57.5 l-242 -127q-59 -30 -85.5 -39.5t-47.5 -9.5q-20 0 -32.5 9.5t-12.5 23.5z" />
<glyph unicode="&#xee;" horiz-adv-x="915" d="M35 121q0 55 29 87t79 32q22 0 57 -7.5t48 -7.5q31 0 42 13t11 51v456q0 37 -12 48.5t-45 11.5q-21 0 -55.5 -6t-47.5 -6q-47 0 -76.5 31.5t-29.5 82.5q0 59 36.5 94t96.5 35q8 0 111.5 -6t197.5 -6q21 0 53.5 6t42.5 6q34 0 49 -22.5t15 -73.5v-657q0 -36 11 -47t44 -11 q12 0 46 7.5t57 7.5q50 0 80 -32.5t30 -86.5q0 -66 -33 -97.5t-102 -31.5q-6 0 -33 2q-146 12 -295 12q-84 0 -175 -7t-99 -7q-69 0 -101 31t-32 98zM111 1192q0 15 38 73l7 11l153 227q21 31 37 39t66 8h16h16q50 0 65.5 -7.5t37.5 -39.5l153 -227q29 -44 37 -60.5t8 -23.5 q0 -18 -16.5 -25.5t-64.5 -7.5q-50 0 -87 49q-14 18 -22 27l-72 80q-22 24 -33 31.5t-22 7.5t-22 -7.5t-33 -31.5l-72 -80q-8 -9 -22 -27q-37 -49 -87 -49q-48 0 -64.5 7.5t-16.5 25.5z" />
<glyph unicode="&#xef;" horiz-adv-x="915" d="M35 121q0 55 29 87t79 32q22 0 57 -7.5t48 -7.5q31 0 42 13t11 51v456q0 37 -12 48.5t-45 11.5q-21 0 -55.5 -6t-47.5 -6q-47 0 -76.5 31.5t-29.5 82.5q0 59 36.5 94t96.5 35q8 0 111.5 -6t197.5 -6q21 0 53.5 6t42.5 6q34 0 49 -22.5t15 -73.5v-657q0 -36 11 -47t44 -11 q12 0 46 7.5t57 7.5q50 0 80 -32.5t30 -86.5q0 -66 -33 -97.5t-102 -31.5q-6 0 -33 2q-146 12 -295 12q-84 0 -175 -7t-99 -7q-69 0 -101 31t-32 98zM90 1354q0 56 43 99.5t100 43.5q60 0 102 -42t42 -101q0 -63 -40.5 -103.5t-103.5 -40.5q-59 0 -101 42t-42 102zM479 1354 q0 56 43 99.5t101 43.5q59 0 101 -42t42 -101q0 -63 -40.5 -103.5t-102.5 -40.5q-60 0 -102 42t-42 102z" />
<glyph unicode="&#xf0;" horiz-adv-x="1200" d="M68 455q0 209 136 345t343 136q33 0 73.5 -6.5t96.5 -20.5q-17 20 -48 61q-67 90 -114 128q-78 -23 -179 -61t-124 -38t-36 13t-13 35q0 46 160 86q75 19 120 32q-56 51 -74 78t-18 53q0 39 30.5 63.5t78.5 24.5q53 0 110.5 -31.5t141.5 -107.5q63 20 153.5 57t116.5 37 q24 0 38.5 -15t14.5 -40q0 -41 -114 -68q-85 -20 -142 -38q154 -187 236 -371t82 -342q0 -237 -141.5 -367.5t-399.5 -130.5q-241 0 -384.5 133.5t-143.5 354.5zM383 457q0 -115 57 -178.5t160 -63.5t159 62.5t56 179.5q0 114 -57.5 179.5t-157.5 65.5q-106 0 -161.5 -62.5 t-55.5 -182.5z" />
<glyph unicode="&#xf1;" horiz-adv-x="1475" d="M31 119q0 54 26 86.5t68 32.5q19 0 49 -6.5t41 -6.5q28 0 37.5 11.5t9.5 52.5v456q0 37 -9.5 46.5t-39.5 9.5q-13 0 -43 -5t-47 -5q-43 0 -67.5 30t-24.5 82q0 66 29 101.5t81 35.5q8 0 70 -5t117 -5q31 0 77 5t62 5q30 0 41.5 -21t11.5 -75v-98q53 102 142 153.5 t212 51.5q97 0 170 -31t121 -92q35 -43 49.5 -106.5t14.5 -196.5v-334q0 -43 11 -54.5t48 -11.5q10 0 38.5 6.5t47.5 6.5q38 0 62 -32t24 -83q0 -63 -28.5 -97t-81.5 -34q-11 0 -72 8t-113 8q-70 0 -156.5 -8t-103.5 -8q-58 0 -86 31t-28 96q0 51 13 73.5t66 32.5 q22 5 28.5 14.5t6.5 39.5v323q0 79 -39 121.5t-110 42.5q-88 0 -128 -61t-40 -197v-217q0 -36 7 -48.5t30 -17.5q5 -1 13 -2q91 -16 91 -106q0 -64 -34.5 -94.5t-106.5 -30.5q-47 0 -129.5 8t-118.5 8q-43 0 -106.5 -8t-83.5 -8q-63 0 -91 30t-28 97zM413 1249q0 18 15.5 49 t46.5 76q33 48 72 69t94 21q22 0 41 -2.5t37 -7.5l121 -33q13 -3 25 -4.5t19 -1.5q46 0 78 45t56 45q16 0 29.5 -11.5t13.5 -25.5q0 -71 -69.5 -149t-160.5 -78q-13 0 -29.5 2.5t-35.5 7.5l-117 31q-21 6 -33.5 8t-23.5 2q-47 0 -81 -44t-55 -44q-18 0 -30.5 13t-12.5 32z " />
<glyph unicode="&#xf2;" horiz-adv-x="1200" d="M61 512q0 249 145 397t392 148q249 0 395 -147.5t146 -397.5q0 -252 -145.5 -398.5t-397.5 -146.5q-245 0 -390 148.5t-145 396.5zM244 1452q0 46 31 77.5t77 31.5q32 0 63 -17t93 -80l172 -174q11 -11 30 -29q58 -57 58 -73q0 -14 -13.5 -23.5t-33.5 -9.5q-36 0 -129 48 l-2 1l-244 127q-56 29 -79 57t-23 64zM383 512q0 -143 56.5 -220t160.5 -77t159.5 77t55.5 220q0 140 -57 218.5t-158 78.5q-105 0 -161 -76t-56 -221z" />
<glyph unicode="&#xf3;" horiz-adv-x="1200" d="M61 512q0 249 145 397t392 148q249 0 395 -147.5t146 -397.5q0 -252 -145.5 -398.5t-397.5 -146.5q-245 0 -390 148.5t-145 396.5zM379 1188q0 16 58 73q19 18 30 29l170 174q62 63 92.5 80t63.5 17q46 0 78 -31.5t32 -77.5q0 -36 -23.5 -63.5t-80.5 -57.5l-242 -127 q-59 -30 -85.5 -39.5t-47.5 -9.5q-20 0 -32.5 9.5t-12.5 23.5zM383 512q0 -143 56.5 -220t160.5 -77t159.5 77t55.5 220q0 140 -57 218.5t-158 78.5q-105 0 -161 -76t-56 -221z" />
<glyph unicode="&#xf4;" horiz-adv-x="1200" d="M61 512q0 249 145 397t392 148q249 0 395 -147.5t146 -397.5q0 -252 -145.5 -398.5t-397.5 -146.5q-245 0 -390 148.5t-145 396.5zM283 1192q0 15 38 73l7 11l153 227q21 31 37 39t66 8h16h16q50 0 65.5 -7.5t37.5 -39.5l153 -227q29 -44 37 -60.5t8 -23.5 q0 -18 -16.5 -25.5t-64.5 -7.5q-50 0 -87 49q-14 18 -22 27l-72 80q-22 24 -33 31.5t-22 7.5t-22 -7.5t-33 -31.5l-72 -80q-8 -9 -22 -27q-37 -49 -87 -49q-48 0 -64.5 7.5t-16.5 25.5zM383 512q0 -143 56.5 -220t160.5 -77t159.5 77t55.5 220q0 140 -57 218.5t-158 78.5 q-105 0 -161 -76t-56 -221z" />
<glyph unicode="&#xf5;" horiz-adv-x="1200" d="M61 512q0 249 145 397t392 148q249 0 395 -147.5t146 -397.5q0 -252 -145.5 -398.5t-397.5 -146.5q-245 0 -390 148.5t-145 396.5zM276 1249q0 18 15.5 49t46.5 76q33 48 72 69t94 21q22 0 41 -2.5t37 -7.5l121 -33q13 -3 25 -4.5t19 -1.5q46 0 78 45t56 45 q16 0 29.5 -11.5t13.5 -25.5q0 -71 -69.5 -149t-160.5 -78q-13 0 -29.5 2.5t-35.5 7.5l-117 31q-21 6 -33.5 8t-23.5 2q-47 0 -81 -44t-55 -44q-18 0 -30.5 13t-12.5 32zM383 512q0 -143 56.5 -220t160.5 -77t159.5 77t55.5 220q0 140 -57 218.5t-158 78.5q-105 0 -161 -76 t-56 -221z" />
<glyph unicode="&#xf6;" horiz-adv-x="1200" d="M61 512q0 249 145 397t392 148q249 0 395 -147.5t146 -397.5q0 -252 -145.5 -398.5t-397.5 -146.5q-245 0 -390 148.5t-145 396.5zM262 1354q0 56 43 99.5t100 43.5q60 0 102 -42t42 -101q0 -63 -40.5 -103.5t-103.5 -40.5q-59 0 -101 42t-42 102zM383 512 q0 -143 56.5 -220t160.5 -77t159.5 77t55.5 220q0 140 -57 218.5t-158 78.5q-105 0 -161 -76t-56 -221zM651 1354q0 56 43 99.5t101 43.5q59 0 101 -42t42 -101q0 -63 -40.5 -103.5t-102.5 -40.5q-60 0 -102 42t-42 102z" />
<glyph unicode="&#xf7;" horiz-adv-x="1706" d="M254 512v199h1198v-199h-1198zM702 217q0 63 44.5 107.5t107.5 44.5q62 0 107 -45t45 -107q0 -61 -45 -105t-107 -44q-63 0 -107.5 43t-44.5 106zM702 1004q0 63 44.5 107t107.5 44q62 0 107 -44.5t45 -106.5q0 -63 -44.5 -107.5t-107.5 -44.5t-107.5 44.5t-44.5 107.5z " />
<glyph unicode="&#xf8;" horiz-adv-x="1200" d="M61 512q0 250 144.5 397.5t392.5 147.5q69 0 118.5 -9t92.5 -28l94 141q14 20 25 26.5t30 6.5q40 0 90 -33t50 -61q0 -11 -4.5 -22t-16.5 -29l-88 -134q78 -83 115 -183t37 -226q0 -244 -148.5 -392.5t-398.5 -148.5q-55 0 -104.5 9t-100.5 28l-108 -160 q-19 -28 -31.5 -37.5t-28.5 -9.5q-34 0 -84.5 41.5t-50.5 65.5q0 10 7 27t20 36l98 148q-73 76 -111.5 178t-38.5 221zM358 504q0 -35 6 -69.5t19 -69.5l307 446q-20 9 -41.5 13.5t-46.5 4.5q-118 0 -181 -83.5t-63 -241.5zM502 215q27 -10 52 -15t48 -5q119 0 179.5 83.5 t60.5 247.5q0 53 -8 86.5t-25 65.5z" />
<glyph unicode="&#xf9;" horiz-adv-x="1446" d="M-12 907q0 61 31.5 97t82.5 36q2 0 68.5 -5t132.5 -5q39 0 98 5t78 5q40 0 54 -19t14 -75v-530q0 -79 39 -122.5t110 -43.5q87 0 126.5 60.5t39.5 197.5v237q0 37 -9.5 47.5t-35.5 10.5q-13 0 -35.5 -3t-31.5 -3q-56 0 -87.5 31t-31.5 85q0 56 32 91.5t80 35.5 q12 0 71 -5t108 -5q52 0 118 5t80 5q39 0 53.5 -20t14.5 -74v-678q0 -19 13 -29t40 -10q14 0 45 5.5t49 5.5q47 0 74 -30.5t27 -82.5q0 -65 -32 -101t-89 -36q-11 0 -73 8t-114 8q-34 0 -85.5 -8t-67.5 -8q-30 0 -43.5 10t-13.5 33v133q-34 -87 -135 -144t-224 -57 q-86 0 -156 32t-118 93q-34 43 -48 103.5t-14 197.5v354q0 36 -10.5 47t-40.5 11q-11 0 -40 -3t-48 -3q-44 0 -70 29.5t-26 80.5zM306 1452q0 46 31 77.5t77 31.5q32 0 63 -17t93 -80l172 -174q11 -11 30 -29q58 -57 58 -73q0 -14 -13.5 -23.5t-33.5 -9.5q-36 0 -129 48 l-2 1l-244 127q-56 29 -79 57t-23 64z" />
<glyph unicode="&#xfa;" horiz-adv-x="1446" d="M-12 907q0 61 31.5 97t82.5 36q2 0 68.5 -5t132.5 -5q39 0 98 5t78 5q40 0 54 -19t14 -75v-530q0 -79 39 -122.5t110 -43.5q87 0 126.5 60.5t39.5 197.5v237q0 37 -9.5 47.5t-35.5 10.5q-13 0 -35.5 -3t-31.5 -3q-56 0 -87.5 31t-31.5 85q0 56 32 91.5t80 35.5 q12 0 71 -5t108 -5q52 0 118 5t80 5q39 0 53.5 -20t14.5 -74v-678q0 -19 13 -29t40 -10q14 0 45 5.5t49 5.5q47 0 74 -30.5t27 -82.5q0 -65 -32 -101t-89 -36q-11 0 -73 8t-114 8q-34 0 -85.5 -8t-67.5 -8q-30 0 -43.5 10t-13.5 33v133q-34 -87 -135 -144t-224 -57 q-86 0 -156 32t-118 93q-34 43 -48 103.5t-14 197.5v354q0 36 -10.5 47t-40.5 11q-11 0 -40 -3t-48 -3q-44 0 -70 29.5t-26 80.5zM441 1188q0 16 58 73q19 18 30 29l170 174q62 63 92.5 80t63.5 17q46 0 78 -31.5t32 -77.5q0 -36 -23.5 -63.5t-80.5 -57.5l-242 -127 q-59 -30 -85.5 -39.5t-47.5 -9.5q-20 0 -32.5 9.5t-12.5 23.5z" />
<glyph unicode="&#xfb;" horiz-adv-x="1446" d="M-12 907q0 61 31.5 97t82.5 36q2 0 68.5 -5t132.5 -5q39 0 98 5t78 5q40 0 54 -19t14 -75v-530q0 -79 39 -122.5t110 -43.5q87 0 126.5 60.5t39.5 197.5v237q0 37 -9.5 47.5t-35.5 10.5q-13 0 -35.5 -3t-31.5 -3q-56 0 -87.5 31t-31.5 85q0 56 32 91.5t80 35.5 q12 0 71 -5t108 -5q52 0 118 5t80 5q39 0 53.5 -20t14.5 -74v-678q0 -19 13 -29t40 -10q14 0 45 5.5t49 5.5q47 0 74 -30.5t27 -82.5q0 -65 -32 -101t-89 -36q-11 0 -73 8t-114 8q-34 0 -85.5 -8t-67.5 -8q-30 0 -43.5 10t-13.5 33v133q-34 -87 -135 -144t-224 -57 q-86 0 -156 32t-118 93q-34 43 -48 103.5t-14 197.5v354q0 36 -10.5 47t-40.5 11q-11 0 -40 -3t-48 -3q-44 0 -70 29.5t-26 80.5zM345 1192q0 15 38 73l7 11l153 227q21 31 37 39t66 8h16h16q50 0 65.5 -7.5t37.5 -39.5l153 -227q29 -44 37 -60.5t8 -23.5q0 -18 -16.5 -25.5 t-64.5 -7.5q-50 0 -87 49q-14 18 -22 27l-72 80q-22 24 -33 31.5t-22 7.5t-22 -7.5t-33 -31.5l-72 -80q-8 -9 -22 -27q-37 -49 -87 -49q-48 0 -64.5 7.5t-16.5 25.5z" />
<glyph unicode="&#xfc;" horiz-adv-x="1446" d="M-12 907q0 61 31.5 97t82.5 36q2 0 68.5 -5t132.5 -5q39 0 98 5t78 5q40 0 54 -19t14 -75v-530q0 -79 39 -122.5t110 -43.5q87 0 126.5 60.5t39.5 197.5v237q0 37 -9.5 47.5t-35.5 10.5q-13 0 -35.5 -3t-31.5 -3q-56 0 -87.5 31t-31.5 85q0 56 32 91.5t80 35.5 q12 0 71 -5t108 -5q52 0 118 5t80 5q39 0 53.5 -20t14.5 -74v-678q0 -19 13 -29t40 -10q14 0 45 5.5t49 5.5q47 0 74 -30.5t27 -82.5q0 -65 -32 -101t-89 -36q-11 0 -73 8t-114 8q-34 0 -85.5 -8t-67.5 -8q-30 0 -43.5 10t-13.5 33v133q-34 -87 -135 -144t-224 -57 q-86 0 -156 32t-118 93q-34 43 -48 103.5t-14 197.5v354q0 36 -10.5 47t-40.5 11q-11 0 -40 -3t-48 -3q-44 0 -70 29.5t-26 80.5zM324 1354q0 56 43 99.5t100 43.5q60 0 102 -42t42 -101q0 -63 -40.5 -103.5t-103.5 -40.5q-59 0 -101 42t-42 102zM713 1354q0 56 43 99.5 t101 43.5q59 0 101 -42t42 -101q0 -63 -40.5 -103.5t-102.5 -40.5q-60 0 -102 42t-42 102z" />
<glyph unicode="&#xfd;" d="M-27 915q0 57 35 91t92 34q9 0 44 -3q126 -11 235 -11q47 0 103.5 7t66.5 7q47 0 74.5 -31.5t27.5 -86.5q0 -39 -11.5 -56t-47.5 -28q-5 -2 -12 -4q-41 -12 -41 -48q0 -1 4.5 -12.5t7.5 -21.5l108 -309q11 -30 17 -66t8 -84h16q5 55 29 127q4 13 6 18l94 299q3 10 7 23 q8 25 8 31q0 10 -10.5 19t-36.5 19q-38 15 -53 40t-15 71q0 45 27.5 72.5t72.5 27.5q11 0 66 -7t102 -7q87 0 175.5 7t89.5 7q56 0 86 -33.5t30 -95.5q0 -51 -28.5 -81.5t-75.5 -30.5q-9 0 -28 5t-29 5q-31 0 -55.5 -20t-37.5 -54l-215 -571q-103 -274 -256.5 -409.5 t-359.5 -135.5q-135 0 -214 65.5t-79 176.5q0 72 49 119t125 47q59 0 97 -38t38 -93v-23q0 -21 9 -28t30 -7q55 0 104.5 57.5t49.5 124.5q0 30 -9.5 65t-39.5 108l-236 557q-12 29 -27 44t-32 15q-11 0 -37.5 -5t-42.5 -5q-44 0 -74.5 33.5t-30.5 82.5zM457 1188q0 16 58 73 q19 18 30 29l170 174q62 63 92.5 80t63.5 17q46 0 78 -31.5t32 -77.5q0 -36 -23.5 -63.5t-80.5 -57.5l-242 -127q-59 -30 -85.5 -39.5t-47.5 -9.5q-20 0 -32.5 9.5t-12.5 23.5z" />
<glyph unicode="&#xfe;" horiz-adv-x="1321" d="M-10 1249q0 61 33 96t88 35q7 0 99.5 -7t176.5 -7q19 0 49 7t41 7q33 0 46.5 -22.5t13.5 -93.5v-322q52 56 121.5 84.5t152.5 28.5q197 0 311.5 -149t114.5 -408q0 -239 -117 -383t-309 -144q-83 0 -150 27.5t-124 85.5v-211q0 -42 10.5 -52.5t42.5 -10.5q17 0 55.5 6 t61.5 6q57 0 87.5 -30.5t30.5 -86.5q0 -67 -34.5 -99t-108.5 -32q-3 0 -108 7t-207 7q-83 0 -165 -7t-83 -7q-60 0 -89.5 32t-29.5 95q0 54 28 87.5t70 33.5q17 0 49 -6t46 -6q23 0 31.5 11t8.5 52v1214q0 35 -11 47.5t-42 12.5q-18 0 -50 -5t-46 -5q-43 0 -68.5 30 t-25.5 82zM530 436q0 -108 48.5 -163.5t142.5 -55.5q104 0 156.5 75.5t52.5 223.5q0 140 -54 217.5t-151 77.5q-92 0 -143.5 -57.5t-51.5 -161.5v-156z" />
<glyph unicode="&#xff;" d="M-27 915q0 57 35 91t92 34q9 0 44 -3q126 -11 235 -11q47 0 103.5 7t66.5 7q47 0 74.5 -31.5t27.5 -86.5q0 -39 -11.5 -56t-47.5 -28q-5 -2 -12 -4q-41 -12 -41 -48q0 -1 4.5 -12.5t7.5 -21.5l108 -309q11 -30 17 -66t8 -84h16q5 55 29 127q4 13 6 18l94 299q3 10 7 23 q8 25 8 31q0 10 -10.5 19t-36.5 19q-38 15 -53 40t-15 71q0 45 27.5 72.5t72.5 27.5q11 0 66 -7t102 -7q87 0 175.5 7t89.5 7q56 0 86 -33.5t30 -95.5q0 -51 -28.5 -81.5t-75.5 -30.5q-9 0 -28 5t-29 5q-31 0 -55.5 -20t-37.5 -54l-215 -571q-103 -274 -256.5 -409.5 t-359.5 -135.5q-135 0 -214 65.5t-79 176.5q0 72 49 119t125 47q59 0 97 -38t38 -93v-23q0 -21 9 -28t30 -7q55 0 104.5 57.5t49.5 124.5q0 30 -9.5 65t-39.5 108l-236 557q-12 29 -27 44t-32 15q-11 0 -37.5 -5t-42.5 -5q-44 0 -74.5 33.5t-30.5 82.5zM340 1354 q0 56 43 99.5t100 43.5q60 0 102 -42t42 -101q0 -63 -40.5 -103.5t-103.5 -40.5q-59 0 -101 42t-42 102zM729 1354q0 56 43 99.5t101 43.5q59 0 101 -42t42 -101q0 -63 -40.5 -103.5t-102.5 -40.5q-60 0 -102 42t-42 102z" />
<glyph unicode="&#x152;" horiz-adv-x="2185" d="M76 682q0 336 173.5 524.5t483.5 188.5q50 0 210 -18.5t269 -18.5h402q114 0 241 6t140 6q69 0 103 -30.5t34 -92.5q0 -20 -6 -66.5t-6 -74.5q0 -35 6 -100t6 -95q0 -75 -41.5 -117t-116.5 -42q-60 0 -99.5 33t-39.5 81q0 17 3 51.5t3 53.5q0 90 -41 122.5t-180 32.5h-39 q-133 0 -173 -20t-40 -88v-191q18 -4 33.5 -6t28.5 -2q43 0 68.5 16t25.5 44q0 13 -4 39.5t-4 39.5q0 39 29 61.5t79 22.5q65 0 97 -27.5t32 -82.5q0 -16 -9 -95t-9 -143q0 -58 9 -125.5t9 -76.5q0 -52 -33.5 -79.5t-95.5 -27.5q-50 0 -79 23t-29 61q0 13 4 40t4 40 q0 28 -26 44.5t-68 16.5q-7 0 -17.5 -1.5t-44.5 -8.5v-231q0 -67 46 -92t188 -25q164 0 207.5 34.5t43.5 131.5q0 20 -3 58t-3 56q0 50 42 84.5t106 34.5q80 0 124 -44t44 -124q0 -25 -6.5 -99t-6.5 -122q0 -19 6.5 -64.5t6.5 -72.5q0 -67 -36 -99t-112 -32q-8 0 -55 2 q-297 12 -610 12q-210 0 -413 -18.5t-208 -18.5q-307 0 -480 188t-173 523zM455 682q0 -216 73.5 -325t219.5 -109q137 0 203.5 86.5t66.5 267.5v160q0 183 -65 268.5t-203 85.5q-146 0 -220.5 -110t-74.5 -324z" />
<glyph unicode="&#x153;" horiz-adv-x="1892" d="M61 512q0 250 144.5 397.5t392.5 147.5q117 0 205 -29t164 -92q78 64 162 92.5t200 28.5q239 0 374.5 -128t135.5 -354q0 -58 -18 -84t-58 -26h-624q0 -128 55 -191t168 -63q61 0 95 22.5t54 77.5q16 42 55 66t91 24q80 0 124 -36.5t44 -102.5q0 -126 -134 -210.5 t-348 -84.5q-121 0 -210.5 29t-165.5 92q-81 -64 -167.5 -92.5t-203.5 -28.5q-245 0 -390 148.5t-145 396.5zM383 512q0 -144 57 -222.5t160 -78.5t159 78.5t56 222.5q0 140 -57 218.5t-158 78.5q-105 0 -161 -76t-56 -221zM1151 650l352 -1q0 86 -45.5 133t-128.5 47 q-79 0 -127 -48t-51 -131z" />
<glyph unicode="&#x178;" horiz-adv-x="1675" d="M-39 1229q0 70 40 106.5t116 36.5q20 0 110 -8t158 -8q62 0 147 8t107 8q77 0 120.5 -35t43.5 -98q0 -35 -13 -58.5t-38 -35.5q-10 -5 -28 -11q-34 -11 -34 -34q0 -14 22 -54q0 -1 1 -2l123 -239l120 239q4 7 11 20q14 26 14 36q0 22 -35 34q-19 6 -29 11 q-25 12 -38 35.5t-13 58.5q0 63 43.5 98t120.5 35q22 0 107 -8t147 -8q68 0 158 8t110 8q76 0 116 -36.5t40 -106.5q0 -55 -32 -93t-74 -38q-22 0 -58 5t-49 5q-42 0 -71.5 -16.5t-53.5 -53.5l-332 -514q-8 -15 -12 -31.5t-4 -43.5v-11v-110v-29q0 -24 12 -33.5t41 -9.5 q18 0 62.5 7t70.5 7q66 0 105 -35.5t39 -97.5q0 -69 -43 -107t-121 -38q-3 0 -121.5 10t-235.5 10q-101 0 -215 -10t-127 -10q-82 0 -127 38t-45 107q0 61 41 97t109 36q26 0 69.5 -7t61.5 -7q31 0 43 10t12 37v25v110q0 26 -5.5 47t-16.5 39l-332 514q-24 37 -53.5 53.5 t-71.5 16.5q-13 0 -48.5 -5t-57.5 -5q-43 0 -75 38t-32 93zM500 1690q0 56 43 99.5t100 43.5q60 0 102 -42t42 -101q0 -63 -40.5 -103.5t-103.5 -40.5q-59 0 -101 42t-42 102zM889 1690q0 56 43 99.5t101 43.5q59 0 101 -42t42 -101q0 -63 -40.5 -103.5t-102.5 -40.5 q-60 0 -102 42t-42 102z" />
<glyph unicode="&#x2c6;" horiz-adv-x="1024" d="M195 1192q0 15 38 73l7 11l153 227q21 31 37 39t66 8h16h16q50 0 65.5 -7.5t37.5 -39.5l153 -227q29 -44 37 -60.5t8 -23.5q0 -18 -16.5 -25.5t-64.5 -7.5q-50 0 -87 49q-14 18 -22 27l-72 80q-22 24 -33 31.5t-22 7.5t-22 -7.5t-33 -31.5l-72 -80q-8 -9 -22 -27 q-37 -49 -87 -49q-48 0 -64.5 7.5t-16.5 25.5z" />
<glyph unicode="&#x2dc;" horiz-adv-x="1024" d="M188 1249q0 18 15.5 49t46.5 76q33 48 72 69t94 21q22 0 41 -2.5t37 -7.5l121 -33q13 -3 25 -4.5t19 -1.5q46 0 78 45t56 45q16 0 29.5 -11.5t13.5 -25.5q0 -71 -69.5 -149t-160.5 -78q-13 0 -29.5 2.5t-35.5 7.5l-117 31q-21 6 -33.5 8t-23.5 2q-47 0 -81 -44t-55 -44 q-18 0 -30.5 13t-12.5 32z" />
<glyph unicode="&#x2000;" horiz-adv-x="999" />
<glyph unicode="&#x2001;" horiz-adv-x="1999" />
<glyph unicode="&#x2002;" horiz-adv-x="999" />
<glyph unicode="&#x2003;" horiz-adv-x="1999" />
<glyph unicode="&#x2004;" horiz-adv-x="666" />
<glyph unicode="&#x2005;" horiz-adv-x="499" />
<glyph unicode="&#x2006;" horiz-adv-x="333" />
<glyph unicode="&#x2007;" horiz-adv-x="333" />
<glyph unicode="&#x2008;" horiz-adv-x="249" />
<glyph unicode="&#x2009;" horiz-adv-x="399" />
<glyph unicode="&#x200a;" horiz-adv-x="111" />
<glyph unicode="&#x2010;" horiz-adv-x="678" d="M47 530q0 74 25 99.5t108 25.5h318q82 0 106.5 -25t24.5 -100q0 -73 -24 -97.5t-107 -24.5h-318q-84 0 -108.5 25t-24.5 97z" />
<glyph unicode="&#x2011;" horiz-adv-x="678" d="M47 530q0 74 25 99.5t108 25.5h318q82 0 106.5 -25t24.5 -100q0 -73 -24 -97.5t-107 -24.5h-318q-84 0 -108.5 25t-24.5 97z" />
<glyph unicode="&#x2012;" horiz-adv-x="678" d="M47 530q0 74 25 99.5t108 25.5h318q82 0 106.5 -25t24.5 -100q0 -73 -24 -97.5t-107 -24.5h-318q-84 0 -108.5 25t-24.5 97z" />
<glyph unicode="&#x2013;" horiz-adv-x="1024" d="M0 410v227h1022v-227h-1022z" />
<glyph unicode="&#x2014;" horiz-adv-x="2048" d="M0 410v227h2048v-227h-2048z" />
<glyph unicode="&#x2018;" horiz-adv-x="678" d="M147 928q0 95 35 188t103 176q53 68 94 99.5t74 31.5q34 0 56.5 -23.5t22.5 -60.5q0 -41 -66.5 -124t-66.5 -109q0 -14 13 -28t51 -38q54 -32 78 -70.5t24 -88.5q0 -87 -56 -145t-142 -58q-106 0 -163 64.5t-57 185.5z" />
<glyph unicode="&#x2019;" horiz-adv-x="678" d="M127 1202q0 85 60.5 144t148.5 59q97 0 153 -66.5t56 -183.5q0 -95 -35 -188t-102 -176q-54 -68 -94.5 -100t-73.5 -32q-35 0 -56.5 23t-21.5 59q0 42 65.5 126t65.5 110q0 13 -11.5 25.5t-52.5 37.5q-55 35 -78.5 73t-23.5 89z" />
<glyph unicode="&#x201a;" horiz-adv-x="678" d="M133 186q0 85 60 144t147 59q97 0 154 -67.5t57 -184.5q0 -93 -35.5 -185t-103.5 -177q-55 -69 -94.5 -100t-71.5 -31q-35 0 -57.5 23t-22.5 59q0 39 65.5 126.5t65.5 122.5q0 7 -13 17.5t-48 32.5q-56 35 -79.5 72.5t-23.5 88.5z" />
<glyph unicode="&#x201c;" horiz-adv-x="1233" d="M147 928q0 95 35 188t103 176q53 68 94 99.5t74 31.5q34 0 55.5 -23.5t21.5 -60.5q0 -41 -65.5 -124t-65.5 -109q0 -14 13 -28t51 -38q54 -32 78 -70.5t24 -88.5q0 -87 -56 -145t-142 -58q-106 0 -163 64.5t-57 185.5zM698 928q0 93 36 186.5t104 177.5q53 68 94 99.5 t74 31.5q34 0 55.5 -23.5t21.5 -60.5q0 -41 -65.5 -124t-65.5 -109q0 -14 13 -28t51 -38q53 -32 76.5 -70t23.5 -89q0 -87 -56 -145t-142 -58q-106 0 -163 64.5t-57 185.5z" />
<glyph unicode="&#x201d;" horiz-adv-x="1233" d="M133 1202q0 85 60 144t147 59q98 0 154.5 -66.5t56.5 -183.5q0 -94 -35.5 -187t-103.5 -177q-55 -69 -94.5 -100.5t-71.5 -31.5q-35 0 -57.5 23t-22.5 59q0 42 65.5 126t65.5 110q0 14 -11.5 27t-49.5 36q-56 35 -79.5 73t-23.5 89zM684 1202q0 85 60 144t147 59 q98 0 154.5 -66.5t56.5 -183.5q0 -94 -35.5 -187t-103.5 -177q-55 -69 -94.5 -100.5t-71.5 -31.5q-35 0 -57.5 23t-22.5 59q0 42 65.5 126t65.5 110q0 14 -11.5 27t-50.5 36q-55 35 -78.5 73t-23.5 89z" />
<glyph unicode="&#x201e;" horiz-adv-x="1233" d="M133 186q0 85 60 144t147 59q97 0 154 -67.5t57 -184.5q0 -93 -35.5 -185t-103.5 -177q-55 -69 -94.5 -100t-71.5 -31q-35 0 -57.5 23t-22.5 59q0 39 65.5 126.5t65.5 122.5q0 7 -13 17.5t-48 32.5q-56 35 -79.5 72.5t-23.5 88.5zM684 186q0 85 60 144t147 59 q97 0 154 -67.5t57 -184.5q0 -93 -35.5 -185t-103.5 -177q-55 -69 -94.5 -100t-71.5 -31q-35 0 -57.5 23t-22.5 59q0 39 65.5 126.5t65.5 122.5q0 7 -13 17.5t-49 32.5q-55 35 -78.5 72.5t-23.5 88.5z" />
<glyph unicode="&#x2022;" horiz-adv-x="1208" d="M307 762q0 123 87 209t210 86q122 0 208.5 -86.5t86.5 -208.5t-87.5 -209.5t-209.5 -87.5q-123 0 -209 87t-86 210z" />
<glyph unicode="&#x2026;" horiz-adv-x="2048" d="M143 168q0 83 58 140t141 57q80 0 137.5 -58.5t57.5 -140.5q0 -81 -57.5 -139t-137.5 -58q-82 0 -140.5 58.5t-58.5 140.5zM825 168q0 83 58 140t141 57q80 0 137.5 -58.5t57.5 -140.5q0 -81 -57.5 -139t-137.5 -58q-82 0 -140.5 58.5t-58.5 140.5zM1509 168q0 83 58 140 t141 57q80 0 137.5 -58.5t57.5 -140.5q0 -81 -57.5 -139t-137.5 -58q-82 0 -140.5 58.5t-58.5 140.5z" />
<glyph unicode="&#x202f;" horiz-adv-x="399" />
<glyph unicode="&#x2039;" horiz-adv-x="676" d="M135 524q0 13 6 28t19 34l170 252q16 23 36.5 31t92.5 8q49 0 72.5 -10.5t23.5 -32.5q0 -24 -25 -60l-1 -1l-136 -206q-8 -13 -12 -23.5t-4 -19.5q0 -8 4 -18.5t12 -23.5l135 -206q1 0 2 -2q25 -35 25 -59q0 -23 -24 -34t-72 -11q-68 0 -90.5 8t-38.5 33l-170 252 q-13 18 -19 33.5t-6 27.5z" />
<glyph unicode="&#x203a;" horiz-adv-x="676" d="M141 213q0 14 5.5 27t21.5 36l135 205q7 11 10.5 22t3.5 21t-3 19.5t-11 21.5l-135 205q-16 23 -21.5 36.5t-5.5 27.5q0 22 23.5 32.5t73.5 10.5q72 0 92.5 -8t36.5 -31l170 -252q12 -19 18 -34t6 -28q0 -12 -6 -27.5t-18 -33.5l-170 -252q-17 -25 -39 -33t-90 -8 q-50 0 -73.5 10.5t-23.5 32.5z" />
<glyph unicode="&#x205f;" horiz-adv-x="499" />
<glyph unicode="&#x2122;" horiz-adv-x="1706" d="M207 1350v112h485v-112h-168v-435h-149v435h-168zM803 915v547h196l127 -332l123 332h197v-547h-135v410l-154 -410h-61l-158 410v-410h-135z" />
<glyph unicode="&#x25fc;" horiz-adv-x="1040" d="M0 0v1040h1040v-1040h-1040z" />
</font>
</defs>
</svg>
