<?xml version="1.0" standalone="no"?>
<!DOCTYPE svg PUBLIC "-//W3C//DTD SVG 1.1//EN" "http://www.w3.org/Graphics/SVG/1.1/DTD/svg11.dtd" >
<svg xmlns="http://www.w3.org/2000/svg" xmlns:xlink="http://www.w3.org/1999/xlink" version="1.1">
<metadata></metadata>
<defs>
<font id="karmatic_revolutionregular" horiz-adv-x="80" >
<font-face units-per-em="2048" ascent="1638" descent="-410" />
<missing-glyph horiz-adv-x="487" />
<glyph horiz-adv-x="0" />
<glyph unicode="&#xd;" />
<glyph unicode=" "  horiz-adv-x="487" />
<glyph unicode="&#x09;" horiz-adv-x="487" />
<glyph unicode="&#xa0;" horiz-adv-x="487" />
<glyph unicode="!" horiz-adv-x="527" d="M107.5 79.5q0.5 36.5 17.5 67.5q17 30 42.5 52.5t60.5 23.5t63 -14q38 -21 56 -51.5t31.5 -56t-2.5 -55.5q-29 -51 -54 -92t-74 -21t-77 35q-28 16 -46 45.5t-17.5 66zM170 293l16 1189l241 -2l-82 -1168z" />
<glyph unicode="&#x22;" horiz-adv-x="646" d="M83 1518l223 49l-5 -250l-45 -249q-104 -34 -168 58q-48 70 -5 392zM383 1535l223 49l-5 -250l-45 -249q-104 -34 -168 58q-48 70 -5 392z" />
<glyph unicode="#" />
<glyph unicode="$" horiz-adv-x="929" d="M49 -58l12 170q49 9 102 25q51 -1 134 46l31 392q-108 65 -185 139q-103 99 -55.5 273t264.5 321q18 14 37 27l20 250l81 -6l-15 -192q156 80 324 70l21 -35l-21 -170q-50 -6 -104 -18q-74 5 -241 -107l-30 -374q47 -30 106 -54q359 -300 -19 -615q-72 -62 -148 -102 l-21 -261l-81 7l17 217q-99 -36 -205 -37zM304 867q19 -28 44 -53l19 249q-124 -108 -63 -196zM383 238l22 16q160 117 1 277z" />
<glyph unicode="%" />
<glyph unicode="&#x26;" />
<glyph unicode="'" horiz-adv-x="346" d="M83 1518l223 49l-5 -250l-45 -249q-104 -34 -168 58q-48 70 -5 392z" />
<glyph unicode="(" horiz-adv-x="688" d="M466 -174q-426 923 66 1869l116 -14q-406 -882 -93 -1813z" />
<glyph unicode=")" horiz-adv-x="688" d="M40 -152q406 882 93 1813l89 42q426 -923 -66 -1869z" />
<glyph unicode="*" />
<glyph unicode="+" />
<glyph unicode="," horiz-adv-x="319" d="M79 185l200 32l-45 -325l-108 -9q-86 92 -47 302z" />
<glyph unicode="-" horiz-adv-x="504" d="M40 758l16 124l394 14l14 -65l-21 -130l-381 -14z" />
<glyph unicode="." horiz-adv-x="364" d="M50 50q-10 33 0 68.5t34 60.5q25 26 55 41t64 7t58 -31q31 -30 40.5 -63.5t16 -62t-17.5 -53.5q-40 -42 -75 -75t-77 -1t-65 54t-33 55z" />
<glyph unicode="/" horiz-adv-x="575" d="M40 -219l357 1773l138 24l-358 -1775z" />
<glyph unicode="0" horiz-adv-x="1086" d="M58 604q18 280 130 465.5t189.5 242.5t206.5 95q157 50 284.5 4.5t151.5 -259.5q26 -235 -25.5 -477.5t-181.5 -434.5t-328.5 -229t-321.5 138t-105 455zM255.5 619.5q-19.5 -187.5 52.5 -322t194.5 -81.5t188.5 179t106.5 322t19.5 386t-204 109t-260.5 -243t-97 -349.5 z" />
<glyph unicode="1" horiz-adv-x="380" d="M40 -15l86 1169l-86 -9l14 218l147 37l139 -19l-100 -1379z" />
<glyph unicode="2" horiz-adv-x="1053" d="M105 226l184 211q532 626 360 726t-286.5 -27t-189.5 40q83 152 295 201.5t378.5 -168.5t-545.5 -1037l596 89l4 -175l-129 -43l-620 -65q-112 43 -47 248z" />
<glyph unicode="3" horiz-adv-x="948" d="M74.5 62.5q34.5 85.5 127.5 87.5q412 24 471 289.5t-305 271.5q-58 58 34 173q292 58 288 238q-58 172 -345 17q-122 -34 -133 105l2 14l29 55l102 51q453 113 539 -171q-20 -263 -160 -353q184 -71 121.5 -459t-723.5 -441q-82 37 -47.5 122.5z" />
<glyph unicode="4" horiz-adv-x="899" d="M40 352l152 864l197 7l-136 -696l287 37l65 815l202 23l-61 -816l113 13l-20 -190l-107 -10l-28 -378l-201 -16l22 357l-288 -53z" />
<glyph unicode="5" horiz-adv-x="991" d="M40 73l2 14l22 76l37 7l190 -8q242 -59 355 283q104 241 -338 267q-168 -36 -132 137l59 527h6l1 2l22 2v5h55l22 2l8 -2l540 -11l3 -85l-32 -100l-460 13l-5 -50l-29 -253l129 -8q456 -51 322.5 -529.5t-677.5 -394.5l-87 51z" />
<glyph unicode="6" horiz-adv-x="927" d="M46.5 435.5q-6.5 225.5 70 474t302.5 463.5q238 136 434 143l28 -31l6 -170q-50 -14 -100 -34q-81 -8 -223.5 -80t-224.5 -303q-52 -146 -75 -260q24 7 48 12q358 71 463 -36.5t69.5 -279.5t-279.5 -314q-218 -66 -365 62t-153.5 353.5zM247 444q8 -105 62 -183 q71 -105 214 -29q139 74 129 159.5t-111 87t-260 -26.5q-17 -3 -34 -8z" />
<glyph unicode="7" horiz-adv-x="937" d="M40 1221l16 82l43 84l750 -9l48 -35l-14 -46l-22 -116h-13l-358 -1174l-106 -18l-99 12l359 1182l-601 6z" />
<glyph unicode="8" horiz-adv-x="1021" d="M59 441q-19 190 124 344q38 41 130 88q-145 172 -101.5 305t133.5 176t264 58.5t256 -86t76 -244.5q-24 -112 -135 -211q78 -45 114 -126q61 -213 -19 -395.5t-325 -324.5q-217 -65 -364 62.5t-153 353.5zM259 521q-10 -151 61.5 -255.5t214.5 -28.5q139 74 199.5 232.5 t-59.5 225t-232.5 31.5t-148.5 -108t-35 -97zM424.5 1174.5q-69.5 -61.5 1.5 -182.5q50 -88 193 -12q139 74 129 159.5t-132 91t-191.5 -56z" />
<glyph unicode="9" horiz-adv-x="1017" d="M85.5 699.5q-45.5 195.5 38.5 424t329 370.5q217 66 364 -62t153.5 -353.5t-69.5 -474t-303 -463.5q-238 -136 -434 -143l-28 31l-6 170q50 14 101 34q80 8 223 80q104 53 176 192q-18 -5 -36 -9q-463 8 -508.5 203.5zM286 991q-69 -217 55.5 -271t282.5 -26q45 8 89 26 q49 162 57 278q10 151 -61.5 255.5t-214.5 28.5q-139 -74 -208 -291z" />
<glyph unicode=":" />
<glyph unicode=";" />
<glyph unicode="&#x3c;" />
<glyph unicode="=" />
<glyph unicode="&#x3e;" />
<glyph unicode="?" horiz-adv-x="743" d="M49 1284l20 170l30 35q237 14 410 -149q182 -147 188 -321t-120 -273q-119 -93 -284 -171q-24 -31 -27 -53q39 -44 101 -61l-42 -162l-79 -13q-41 19 -76 41q-130 122 -106 241q7 45 51 92q13 13 44 41l-1 1q3 1 6 3q4 3 8 7l2 -2q195 101 278 189q98 105 -61.5 238.5 t-241.5 128.5q-51 12 -100 18zM89 54q0 59 2 107t55 54t85 6q31 0 61.5 -17.5t47.5 -49.5t17 -68q0 -35 -11.5 -66.5t-41.5 -49.5t-63 -18q-43 0 -73 18t-54.5 33.5t-24.5 50.5z" />
<glyph unicode="@" />
<glyph unicode="A" horiz-adv-x="907" d="M-29 2l485 1316l72 97l96 10l130 -14l197 -1411l-199 -31l-59 421l-380 -34l-147 -398l-173 37zM389 564l276 25l-73 523z" />
<glyph unicode="B" horiz-adv-x="1006" d="M40 1l4 54l-4 117l13 1l78 1033h-8l-4 76l1 14l25 55l98 51q128 19 233 19q354 0 436 -219q-1 -263 -135 -353q169 -64 170 -316q0 -29 -3 -61q-22 -306 -784 -486l-114 13v2h-6zM255 196q464 100 502 309q4 20 4 38q0 172 -331 177l-136 -12zM305 864q427 67 427 220 q0 22 -9 46q-44 118 -186 119q-85 0 -206 -43z" />
<glyph unicode="C" horiz-adv-x="931" d="M44 434v21q0 213 75 433q79 232 264 410q177 194 411 218l28 -31l13 -170q-48 -14 -98 -34q-81 -8 -220.5 -138t-201 -318t-75.5 -324q-2 -22 -3 -43q0 -110 64 -198q44 -60 109 -60q48 0 107 32q133 63 226 186l148 -114q-192 -210 -333 -267q-81 -33 -154 -33 q-112 0 -204 78q-152 128 -156 352z" />
<glyph unicode="D" horiz-adv-x="1084" d="M40 -14l124 1434l199 19l-7 -73q54 38 103 58q48 4 91 4q199 0 298 -80q120 -97 158 -308q12 -67 13 -139q0 -155 -56 -333q-81 -260 -293 -429q-210 -167 -440 -192l-9 1l-11 12v-2l-24 -2zM227 129q176 50 311 155t222 316q76 184 76 325q0 21 -2 41q-12 155 -116 230 q-66 48 -138 48q-40 0 -80 -15q-96 -46 -171 -122z" />
<glyph unicode="E" horiz-adv-x="1013" d="M40 -32l5 54l-3 117l13 1l92 1036h-8l-4 76l2 14l26 56l17 9l-2 57l111 24l70 -32h5v-2l542 20l52 -22l15 -51l-4 -52l-23 -68l-599 -21l-27 -305l472 17l14 -65l-21 -130l-482 -17l-46 -514l606 91l4 -175l-129 -43l-578 -86l-114 9v2h-6z" />
<glyph unicode="F" horiz-adv-x="984" d="M40 1l112 1180h-8l-3 76l1 14l27 55l99 51h103l-1 -2l507 21l52 -23l15 -52l-5 -52l-23 -67l-564 -21l-35 -370l454 34l55 -11l-10 -110l-39 -73l-479 -34l-40 -421l-30 -202l-68 -8l-114 13v2h-6z" />
<glyph unicode="G" horiz-adv-x="1044" d="M46 436v35q0 209 70 439q77 248 303 463q238 136 434 143l28 -31l6 -170q-50 -14 -100 -34q-81 -8 -223.5 -80t-224.5 -303t-92 -382q-1 -19 -1 -36q0 -128 62 -220q42 -60 107 -60q48 0 108 32q139 74 221 256q45 102 45 159q0 44 -27 61q-37 23 -106 23q-50 0 -116 -12 q-50 -9 -98 -30l34 202q46 15 95 26q50 3 95 3q335 0 335 -172q0 -194 -97 -393q-95 -193 -339 -335q-74 -22 -140 -22q-128 0 -225 84q-147 128 -154 354z" />
<glyph unicode="H" horiz-adv-x="990" d="M40 1l103 1385l201 13l-45 -608l409 49l40 539l202 23l-103 -1381l-201 -16l47 633l-409 -49l-42 -562l-94 -27z" />
<glyph unicode="I" horiz-adv-x="389" d="M40 -28l108 1411l201 19l-109 -1413z" />
<glyph unicode="J" horiz-adv-x="804" d="M50 193l107 150q11 -46 26 -70q67 -103 136 -103q30 0 61 20q100 66 188 1212h51l145 -47q-110 -988 -183.5 -1169.5t-306.5 -185.5q-6 -1 -11 -1q-213 0 -213 178v16z" />
<glyph unicode="K" horiz-adv-x="998" d="M40 1l140 1374l202 16l-43 -421l541 360l109 -93l28 -46l-592 -393l646 -637l-62 -93l-71 -71l-635 626l-62 -614l-187 -8h-14z" />
<glyph unicode="L" horiz-adv-x="907" d="M40 8l5 47l-2 117l13 1l116 1198l102 31h101l-117 -1206l599 68l9 -31l1 -82l-26 -88l-746 -84z" />
<glyph unicode="M" horiz-adv-x="1083" d="M-59 28l285 1266l59 101l41 8l1 2l132 -77l54 -94l53 -409l139 334l123 159l160 101v-4l55 -17l30 -105l-63 -1132l-201 -35l43 779l9 121l-249 -597l-9 -3l2 -14l-72 -28l-77 -3l-41 20l-67 517l-10 -43l-2 15l-203 -903l-37 6z" />
<glyph unicode="N" horiz-adv-x="1038" d="M40 14l122 1258l57 130h36l142 -22l310 -956l95 974h51l145 -47l-133 -1356l-57 1l-166 32l-308 947l-95 -976l-39 1z" />
<glyph unicode="O" horiz-adv-x="1086" d="M58 604q18 280 130 465.5t189.5 242.5t206.5 95l146 -78l-73 79q-45 32 -83 61l238 71q184 -174 208 -388q9 -79 9 -159q-1 -159 -35 -319q-52 -242 -182 -434t-328 -229q-35 -6 -66 -6q-153 0 -255 144q-107 153 -107 385q0 34 2 70zM256 620q-4 -40 -4 -78 q0 -138 56 -244q52 -96 129 -97q31 0 65 15q122 53 188 179q68 126 108 322q22 107 22 207q0 83 -16 160q-25 125 -122 125q-36 0 -82 -16q-170 -62 -247 -223.5t-97 -349.5z" />
<glyph unicode="P" horiz-adv-x="904" d="M40 -7l92 1205l-41 8l-7 76v14l23 55l96 51q92 14 170 14q399 0 441 -356q5 -42 5 -81q0 -353 -415 -418l-138 -24l-26 -320l-18 -215q-38 -10 -78 -20l-98 9v2h-6zM280 706q359 71 359 263q0 28 -8 59q-48 191 -220 191q-45 0 -99 -13z" />
<glyph unicode="Q" horiz-adv-x="1047" d="M46 604v35q0 257 90 431q96 185 168.5 242t198.5 95l81 -24l-8 25q-10 -6 -51 23l232 71q161 -136 204 -350q28 -142 28 -287q0 -95 -12 -191q-30 -242 -143 -434q-72 -121 -177 -181l94 -308l-102 -96l-68 -11v1l-109 360h-12q-155 0 -269 144q-138 175 -145 455z M243 620v-13q0 -180 81 -309q38 -63 85 -85l-32 105l66 20l129 3l25 -82q64 52 101 136q55 126 78 322q8 64 8 125q0 127 -32 242q-36 125 -134 125q-36 0 -80 -16q-165 -62 -228.5 -224t-66.5 -349z" />
<glyph unicode="R" horiz-adv-x="900" d="M40 -7l102 1205l-40 8l-7 76l1 14l23 55l97 51q90 14 167 13q400 0 439 -366q3 -32 4 -62q0 -293 -341 -336l337 -514l4 -66q-53 -69 -106 -69q-23 0 -47 13l-402 578l-29 -376l-20 -215q-38 -10 -79 -20l-97 9v2h-6zM296 819q47 -4 88 -4q264 0 264 157q0 26 -8 56 q-46 191 -218 191q-45 0 -99 -13z" />
<glyph unicode="S" horiz-adv-x="929" d="M49 -58l12 170q49 9 102 25h1q81 0 241 117q80 59 80.5 128.5t-80.5 149.5q-159 83 -262 182q-70 68 -70 171q1 47 15 102q48 174 264 321q195 150 410 150q18 0 37 -1l21 -35l-21 -170q-50 -6 -104 -18h-6q-83 0 -267 -128q-139 -97 -138 -179q0 -31 20 -61 q73 -106 226 -167q175 -146 175 -296q0 -158 -194 -319q-203 -175 -438 -176z" />
<glyph unicode="T" horiz-adv-x="1019" d="M40 1169l21 201l918 46l-34 -202l-358 -18l-98 -1186l-59 -9l-139 27l94 1158z" />
<glyph unicode="U" horiz-adv-x="1001" d="M68 186q-5 31 -5 84q0 264 114 1085l157 47l80 -4q-147 -764 -147 -1037q0 -128 32.5 -148t65.5 -20q70 0 145 92q110 135 267 1090l84 32q96 -8 96 -117v-9l-219 -1258l-122 -23l-39 -1l23 194q-38 -194 -261 -194q-5 1 -11 1q-232 4 -260 186z" />
<glyph unicode="V" horiz-adv-x="861" d="M-29 1383l200 31l139 -1143l447 1154l172 -37l21 -7l-507 -1316l-73 -97l-97 -10l-129 14z" />
<glyph unicode="W" horiz-adv-x="1087" d="M25 113l14 1262l201 35l5 -909l-9 -121l269 764l9 3l-2 14l72 28l77 3l41 -20l48 -684l10 43l1 -15l189 862l37 -6l155 -35l-269 -1225l-59 -101q-38 -16 -70 -16q-60 0 -100 57l-72 120l-17 517l-162 -446q-109 -256 -273 -256h-9v4l-55 17z" />
<glyph unicode="X" horiz-adv-x="919" d="M-83 94l467 661l-217 575l186 78l172 -455l309 437l159 -76l18 -12l-403 -570l151 -401l118 -285l-79 -28l-129 -17l-201 533l-422 -596z" />
<glyph unicode="Y" horiz-adv-x="795" d="M-21 5l153 291l152 307l-245 779l190 66l183 -586l269 543l168 -52l20 -9l-622 -1265l-82 -90l-98 -1z" />
<glyph unicode="Z" horiz-adv-x="1018" d="M40 -32l5 54l-1 36l-4 9l3 17l-1 49l11 2l18 91l78 141l2 -1l537 830l-341 -12v-4l-200 -4h-8l-4 76l2 14l26 56l98 54l103 4v-2l474 18l2 1l10 -1l56 2l52 -22l15 -51l-2 -20l7 -11l-8 -13l-1 -8l-23 -68l-679 -1033l596 89l4 -175l-129 -43l-578 -86l-114 9v2h-6z" />
<glyph unicode="[" />
<glyph unicode="\" />
<glyph unicode="]" />
<glyph unicode="^" horiz-adv-x="496" d="M-29 800l191 518l72 97l96 10l130 -14l89 -637l-152 -33l-48 2l-51 369l-134 -363l-89 3z" />
<glyph unicode="_" horiz-adv-x="723" d="M-55 8l5 47l-2 117h14l800 47l9 -32l1 -82l-26 -87l-746 -42z" />
<glyph unicode="`" />
<glyph unicode="a" horiz-adv-x="907" d="M-29 2l485 1316l72 97l96 10l130 -14l197 -1411l-199 -31l-59 421l-380 -34l-147 -398l-173 37zM389 564l276 25l-73 523z" />
<glyph unicode="b" horiz-adv-x="1006" d="M40 1l4 54l-4 117l13 1l78 1033h-8l-4 76l1 14l25 55l98 51q128 19 233 19q354 0 436 -219q-1 -263 -135 -353q169 -64 170 -316q0 -29 -3 -61q-22 -306 -784 -486l-114 13v2h-6zM255 196q464 100 502 309q4 20 4 38q0 172 -331 177l-136 -12zM305 864q427 67 427 220 q0 22 -9 46q-44 118 -186 119q-85 0 -206 -43z" />
<glyph unicode="c" horiz-adv-x="931" d="M44 434v21q0 213 75 433q79 232 264 410q177 194 411 218l28 -31l13 -170q-48 -14 -98 -34q-81 -8 -220.5 -138t-201 -318t-75.5 -324q-2 -22 -3 -43q0 -110 64 -198q44 -60 109 -60q48 0 107 32q133 63 226 186l148 -114q-192 -210 -333 -267q-81 -33 -154 -33 q-112 0 -204 78q-152 128 -156 352z" />
<glyph unicode="d" horiz-adv-x="1084" d="M40 -14l124 1434l199 19l-7 -73q54 38 103 58q48 4 91 4q199 0 298 -80q120 -97 158 -308q12 -67 13 -139q0 -155 -56 -333q-81 -260 -293 -429q-210 -167 -440 -192l-9 1l-11 12v-2l-24 -2zM227 129q176 50 311 155t222 316q76 184 76 325q0 21 -2 41q-12 155 -116 230 q-66 48 -138 48q-40 0 -80 -15q-96 -46 -171 -122z" />
<glyph unicode="e" horiz-adv-x="1013" d="M40 -32l5 54l-3 117l13 1l92 1036h-8l-4 76l2 14l26 56l17 9l-2 57l111 24l70 -32h5v-2l542 20l52 -22l15 -51l-4 -52l-23 -68l-599 -21l-27 -305l472 17l14 -65l-21 -130l-482 -17l-46 -514l606 91l4 -175l-129 -43l-578 -86l-114 9v2h-6z" />
<glyph unicode="f" horiz-adv-x="984" d="M40 1l112 1180h-8l-3 76l1 14l27 55l99 51h103l-1 -2l507 21l52 -23l15 -52l-5 -52l-23 -67l-564 -21l-35 -370l454 34l55 -11l-10 -110l-39 -73l-479 -34l-40 -421l-30 -202l-68 -8l-114 13v2h-6z" />
<glyph unicode="g" horiz-adv-x="1044" d="M46 436v35q0 209 70 439q77 248 303 463q238 136 434 143l28 -31l6 -170q-50 -14 -100 -34q-81 -8 -223.5 -80t-224.5 -303t-92 -382q-1 -19 -1 -36q0 -128 62 -220q42 -60 107 -60q48 0 108 32q139 74 221 256q45 102 45 159q0 44 -27 61q-37 23 -106 23q-50 0 -116 -12 q-50 -9 -98 -30l34 202q46 15 95 26q50 3 95 3q335 0 335 -172q0 -194 -97 -393q-95 -193 -339 -335q-74 -22 -140 -22q-128 0 -225 84q-147 128 -154 354z" />
<glyph unicode="h" horiz-adv-x="990" d="M40 1l103 1385l201 13l-45 -608l409 49l40 539l202 23l-103 -1381l-201 -16l47 633l-409 -49l-42 -562l-94 -27z" />
<glyph unicode="i" horiz-adv-x="389" d="M40 -28l108 1411l201 19l-109 -1413z" />
<glyph unicode="j" horiz-adv-x="804" d="M50 193l107 150q11 -46 26 -70q67 -103 136 -103q30 0 61 20q100 66 188 1212h51l145 -47q-110 -988 -183.5 -1169.5t-306.5 -185.5q-6 -1 -11 -1q-213 0 -213 178v16z" />
<glyph unicode="k" horiz-adv-x="998" d="M40 1l140 1374l202 16l-43 -421l541 360l109 -93l28 -46l-592 -393l646 -637l-62 -93l-71 -71l-635 626l-62 -614l-187 -8h-14z" />
<glyph unicode="l" horiz-adv-x="907" d="M40 8l5 47l-2 117l13 1l116 1198l102 31h101l-117 -1206l599 68l9 -31l1 -82l-26 -88l-746 -84z" />
<glyph unicode="m" horiz-adv-x="1083" d="M-59 28l285 1266l59 101l41 8l1 2l132 -77l54 -94l53 -409l139 334l123 159l160 101v-4l55 -17l30 -105l-63 -1132l-201 -35l43 779l9 121l-249 -597l-9 -3l2 -14l-72 -28l-77 -3l-41 20l-67 517l-10 -43l-2 15l-203 -903l-37 6z" />
<glyph unicode="n" horiz-adv-x="1038" d="M40 14l122 1258l57 130h36l142 -22l310 -956l95 974h51l145 -47l-133 -1356l-57 1l-166 32l-308 947l-95 -976l-39 1z" />
<glyph unicode="o" horiz-adv-x="1086" d="M58 604q18 280 130 465.5t189.5 242.5t206.5 95l146 -78l-73 79q-45 32 -83 61l238 71q184 -174 208 -388q9 -79 9 -159q-1 -159 -35 -319q-52 -242 -182 -434t-328 -229q-35 -6 -66 -6q-153 0 -255 144q-107 153 -107 385q0 34 2 70zM256 620q-4 -40 -4 -78 q0 -138 56 -244q52 -96 129 -97q31 0 65 15q122 53 188 179q68 126 108 322q22 107 22 207q0 83 -16 160q-25 125 -122 125q-36 0 -82 -16q-170 -62 -247 -223.5t-97 -349.5z" />
<glyph unicode="p" horiz-adv-x="904" d="M40 -7l92 1205l-41 8l-7 76v14l23 55l96 51q92 14 170 14q398 0 441 -356q4 -43 4 -81q0 -353 -414 -418l-138 -24l-26 -320l-18 -215q-38 -10 -78 -20l-98 9v2h-6zM280 706q359 71 359 263q0 28 -8 59q-48 191 -220 191q-45 0 -99 -13z" />
<glyph unicode="q" horiz-adv-x="1047" d="M46 604v35q0 257 90 431q96 185 168.5 242t198.5 95l81 -24l-8 25q-10 -6 -51 23l232 71q161 -136 204 -350q28 -142 28 -287q0 -95 -12 -191q-30 -242 -143 -434q-72 -121 -177 -181l94 -308l-102 -96l-68 -11v1l-109 360h-12q-155 0 -269 144q-138 175 -145 455z M243 620v-13q0 -180 81 -309q38 -63 85 -85l-32 105l66 20l129 3l25 -82q64 52 101 136q55 126 78 322q8 64 8 125q0 127 -32 242q-36 125 -134 125q-36 0 -80 -16q-165 -62 -228.5 -224t-66.5 -349z" />
<glyph unicode="r" horiz-adv-x="900" d="M40 -7l102 1205l-40 8l-7 76l1 14l23 55l97 51q90 14 167 13q400 0 439 -366q3 -32 4 -62q0 -293 -341 -336l337 -514l4 -66q-53 -69 -106 -69q-23 0 -47 13l-402 578l-29 -376l-20 -215q-38 -10 -79 -20l-97 9v2h-6zM296 819q47 -4 88 -4q264 0 264 157q0 26 -8 56 q-46 191 -218 191q-45 0 -99 -13z" />
<glyph unicode="s" horiz-adv-x="929" d="M49 -58l12 170q49 9 102 25h1q81 0 241 117q80 59 80.5 128.5t-80.5 149.5q-159 83 -262 182q-70 68 -70 171q1 47 15 102q48 174 264 321q195 150 410 150q18 0 37 -1l21 -35l-21 -170q-50 -6 -104 -18h-6q-83 0 -267 -128q-139 -97 -138 -179q0 -31 20 -61 q73 -106 226 -167q175 -146 175 -296q0 -158 -194 -319q-203 -175 -438 -176z" />
<glyph unicode="t" horiz-adv-x="1019" d="M40 1169l21 201l918 46l-34 -202l-358 -18l-98 -1186l-59 -9l-139 27l94 1158z" />
<glyph unicode="u" horiz-adv-x="1001" d="M68 186q-5 31 -5 84q0 264 114 1085l157 47l80 -4q-147 -764 -147 -1037q0 -128 32.5 -148t65.5 -20q70 0 145 92q110 135 267 1090l84 32q96 -8 96 -117v-9l-219 -1258l-122 -23l-39 -1l23 194q-38 -194 -261 -194q-5 1 -11 1q-232 4 -260 186z" />
<glyph unicode="v" horiz-adv-x="861" d="M-29 1383l200 31l139 -1143l447 1154l172 -37l21 -7l-507 -1316l-73 -97l-97 -10l-129 14z" />
<glyph unicode="w" horiz-adv-x="1087" d="M25 113l14 1262l201 35l5 -909l-9 -121l269 764l9 3l-2 14l72 28l77 3l41 -20l48 -684l10 43l1 -15l189 862l37 -6l155 -35l-269 -1225l-59 -101q-38 -16 -70 -16q-60 0 -100 57l-72 120l-17 517l-162 -446q-109 -256 -273 -256h-9v4l-55 17z" />
<glyph unicode="x" horiz-adv-x="919" d="M-83 94l467 661l-217 575l186 78l172 -455l309 437l159 -76l18 -12l-403 -570l151 -401l118 -285l-79 -28l-129 -17l-201 533l-422 -596z" />
<glyph unicode="y" horiz-adv-x="795" d="M-21 5l153 291l152 307l-245 779l190 66l183 -586l269 543l168 -52l20 -9l-622 -1265l-82 -90l-98 -1z" />
<glyph unicode="z" horiz-adv-x="1018" d="M40 -32l5 54l-1 36l-4 9l3 17l-1 49l11 2l18 91l78 141l2 -1l537 830l-341 -12v-4l-200 -4h-8l-4 76l2 14l26 56l98 54l103 4v-2l474 18l2 1l10 -1l56 2l52 -22l15 -51l-2 -20l7 -11l-8 -13l-1 -8l-23 -68l-679 -1033l596 89l4 -175l-129 -43l-578 -86l-114 9v2h-6z" />
<glyph unicode="{" />
<glyph unicode="|" />
<glyph unicode="}" />
<glyph unicode="~" />
<glyph unicode="&#xa1;" />
<glyph unicode="&#xa2;" />
<glyph unicode="&#xa3;" />
<glyph unicode="&#xa4;" />
<glyph unicode="&#xa5;" />
<glyph unicode="&#xa6;" />
<glyph unicode="&#xa7;" />
<glyph unicode="&#xa8;" />
<glyph unicode="&#xa9;" />
<glyph unicode="&#xaa;" />
<glyph unicode="&#xab;" />
<glyph unicode="&#xac;" />
<glyph unicode="&#xad;" horiz-adv-x="504" d="M40 758l16 124l394 14l14 -65l-21 -130l-381 -14z" />
<glyph unicode="&#xae;" />
<glyph unicode="&#xaf;" />
<glyph unicode="&#xb0;" />
<glyph unicode="&#xb1;" />
<glyph unicode="&#xb2;" />
<glyph unicode="&#xb3;" />
<glyph unicode="&#xb4;" />
<glyph unicode="&#xb5;" />
<glyph unicode="&#xb6;" />
<glyph unicode="&#xb7;" />
<glyph unicode="&#xb8;" />
<glyph unicode="&#xb9;" />
<glyph unicode="&#xba;" />
<glyph unicode="&#xbb;" />
<glyph unicode="&#xbc;" />
<glyph unicode="&#xbd;" />
<glyph unicode="&#xbe;" />
<glyph unicode="&#xbf;" />
<glyph unicode="&#xc0;" />
<glyph unicode="&#xc1;" />
<glyph unicode="&#xc2;" />
<glyph unicode="&#xc3;" />
<glyph unicode="&#xc4;" />
<glyph unicode="&#xc5;" />
<glyph unicode="&#xc6;" />
<glyph unicode="&#xc7;" />
<glyph unicode="&#xc8;" />
<glyph unicode="&#xc9;" />
<glyph unicode="&#xca;" />
<glyph unicode="&#xcb;" />
<glyph unicode="&#xcc;" />
<glyph unicode="&#xcd;" />
<glyph unicode="&#xce;" />
<glyph unicode="&#xcf;" />
<glyph unicode="&#xd0;" />
<glyph unicode="&#xd1;" />
<glyph unicode="&#xd2;" />
<glyph unicode="&#xd3;" />
<glyph unicode="&#xd4;" />
<glyph unicode="&#xd5;" />
<glyph unicode="&#xd6;" />
<glyph unicode="&#xd7;" />
<glyph unicode="&#xd8;" />
<glyph unicode="&#xd9;" />
<glyph unicode="&#xda;" />
<glyph unicode="&#xdb;" />
<glyph unicode="&#xdc;" />
<glyph unicode="&#xdd;" />
<glyph unicode="&#xde;" />
<glyph unicode="&#xdf;" />
<glyph unicode="&#xe0;" />
<glyph unicode="&#xe1;" />
<glyph unicode="&#xe2;" />
<glyph unicode="&#xe3;" />
<glyph unicode="&#xe4;" />
<glyph unicode="&#xe5;" />
<glyph unicode="&#xe6;" />
<glyph unicode="&#xe7;" />
<glyph unicode="&#xe8;" />
<glyph unicode="&#xe9;" />
<glyph unicode="&#xea;" />
<glyph unicode="&#xeb;" />
<glyph unicode="&#xec;" />
<glyph unicode="&#xed;" />
<glyph unicode="&#xee;" />
<glyph unicode="&#xef;" />
<glyph unicode="&#xf0;" />
<glyph unicode="&#xf1;" />
<glyph unicode="&#xf2;" />
<glyph unicode="&#xf3;" />
<glyph unicode="&#xf4;" />
<glyph unicode="&#xf5;" />
<glyph unicode="&#xf6;" />
<glyph unicode="&#xf7;" />
<glyph unicode="&#xf8;" />
<glyph unicode="&#xf9;" />
<glyph unicode="&#xfa;" />
<glyph unicode="&#xfb;" />
<glyph unicode="&#xfc;" />
<glyph unicode="&#xfd;" />
<glyph unicode="&#xfe;" />
<glyph unicode="&#xff;" />
<glyph unicode="&#x152;" />
<glyph unicode="&#x153;" />
<glyph unicode="&#x178;" />
<glyph unicode="&#x2c6;" />
<glyph unicode="&#x2dc;" />
<glyph unicode="&#x2000;" horiz-adv-x="851" />
<glyph unicode="&#x2001;" horiz-adv-x="1703" />
<glyph unicode="&#x2002;" horiz-adv-x="851" />
<glyph unicode="&#x2003;" horiz-adv-x="1703" />
<glyph unicode="&#x2004;" horiz-adv-x="567" />
<glyph unicode="&#x2005;" horiz-adv-x="425" />
<glyph unicode="&#x2006;" horiz-adv-x="283" />
<glyph unicode="&#x2007;" horiz-adv-x="283" />
<glyph unicode="&#x2008;" horiz-adv-x="212" />
<glyph unicode="&#x2009;" horiz-adv-x="340" />
<glyph unicode="&#x200a;" horiz-adv-x="94" />
<glyph unicode="&#x2010;" horiz-adv-x="504" d="M40 758l16 124l394 14l14 -65l-21 -130l-381 -14z" />
<glyph unicode="&#x2011;" horiz-adv-x="504" d="M40 758l16 124l394 14l14 -65l-21 -130l-381 -14z" />
<glyph unicode="&#x2012;" horiz-adv-x="504" d="M40 758l16 124l394 14l14 -65l-21 -130l-381 -14z" />
<glyph unicode="&#x2013;" />
<glyph unicode="&#x2014;" />
<glyph unicode="&#x2018;" />
<glyph unicode="&#x2019;" />
<glyph unicode="&#x201a;" />
<glyph unicode="&#x201c;" />
<glyph unicode="&#x201d;" />
<glyph unicode="&#x201e;" />
<glyph unicode="&#x2022;" />
<glyph unicode="&#x2026;" />
<glyph unicode="&#x202f;" horiz-adv-x="340" />
<glyph unicode="&#x2039;" />
<glyph unicode="&#x203a;" />
<glyph unicode="&#x205f;" horiz-adv-x="425" />
<glyph unicode="&#x20ac;" />
<glyph unicode="&#x2122;" />
<glyph unicode="&#x25fc;" horiz-adv-x="1410" d="M0 0v1410h1410v-1410h-1410z" />
</font>
</defs>
</svg>
