<?xml version="1.0" standalone="no"?>
<!DOCTYPE svg PUBLIC "-//W3C//DTD SVG 1.1//EN" "http://www.w3.org/Graphics/SVG/1.1/DTD/svg11.dtd" >
<svg xmlns="http://www.w3.org/2000/svg" xmlns:xlink="http://www.w3.org/1999/xlink" version="1.1">
<metadata>
Created by FontForge 20150102 at Mon Jan 26 10:01:52 2015
 By uniteet7
DominiqueIdiart
</metadata>
<defs>
<font id="ComicNeueSansID" horiz-adv-x="866" >
  <font-face 
    font-family="ComicNeueSansID"
    font-weight="500"
    font-stretch="normal"
    units-per-em="1000"
    panose-1="2 0 6 3 0 0 0 0 0 0"
    ascent="800"
    descent="-200"
    x-height="522"
    cap-height="758"
    bbox="-195.13 -290.067 953.25 957.704"
    underline-thickness="50"
    underline-position="-100"
    unicode-range="U+0020-F8FF"
  />
<missing-glyph horiz-adv-x="364" 
d="M66 33h199v600h-199v-600zM33 0v666h265v-666h-265z" />
    <glyph glyph-name=".notdef" horiz-adv-x="364" 
d="M66 33h199v600h-199v-600zM33 0v666h265v-666h-265z" />
    <glyph glyph-name=".null" horiz-adv-x="0" 
 />
    <glyph glyph-name="nonmarkingreturn" horiz-adv-x="333" 
 />
    <glyph glyph-name="space" unicode=" " horiz-adv-x="300" 
 />
    <glyph glyph-name="exclam" unicode="!" horiz-adv-x="257" 
d="M167 50q15 -17 12 -39q-4 -26 -7 -40q-2 -9 -3 -14q-2 -5 -4 -9q-5 -11 -14 -19q-13 -10 -30 -11q-20 -1 -35 11q-11 10 -15 24q-3 7 -4 16q-1 8 -1 23q0 14 0.5 34t1 37t0.5 18q0 21 15 35t36 14t35 -15t14 -36v-5q0 -4 -0.5 -11t-0.5 -13zM167 -20v-1v1zM198 754
q-3 -49 -12.5 -168t-13 -202.5t-0.5 -163.5q1 -21 -13 -36t-35 -16t-36 13t-16 35q-3 83 0.5 170.5t13 209t12.5 164.5q1 21 16.5 34.5t36.5 12.5t34.5 -16.5t12.5 -36.5z" />
    <glyph glyph-name="quotedbl" unicode="&#x22;" horiz-adv-x="334" 
d="M125 699q-1 -24 -1 -47v-28q0 -3 -1 -17t-1 -15.5t-2 -24.5t-3 -41q-2 -21 -17.5 -34t-36.5 -11.5t-34 17t-12 36.5q2 20 3.5 41t2 23t1 14t0.5 16v26q0 22 1 47q0 21 15 35t36 14t35 -15t14 -36zM275 738q0 -92 -33 -272q-4 -20 -21 -32t-37 -8t-32 21t-8 37
q31 172 31 254q0 21 14.5 35.5t35.5 14.5t35.5 -14.5t14.5 -35.5z" />
    <glyph glyph-name="numbersign" unicode="#" horiz-adv-x="620" 
d="M212 416l-28 -78q54 4 101 5l27 77q-46 -1 -100 -4zM149 236l-58 -185q-6 -20 -24 -30t-38 -4t-30 24t-4 38q24 80 47 150q-17 2 -29 14.5t-14 30.5q-1 21 12 36.5t34 17.5l31 2l27 78l-46 -3q-21 -1 -36.5 12.5t-17 34t12 36t33.5 17.5q57 4 91 6l75 203q7 19 26 27.5
t38.5 1.5t28 -26t1.5 -39l-60 -160q52 2 99 3l65 175q7 19 26 27.5t38.5 1.5t28 -26t1.5 -39l-52 -139l58 -2q21 -1 35 -16.5t13 -36t-16.5 -34.5t-35.5 -13q-44 2 -91 2l-27 -77q38 0 76 -2q20 -1 34 -16.5t13 -36t-16.5 -34.5t-36.5 -13q-50 3 -105 3q-37 -112 -67 -212
q-6 -20 -24 -30t-38 -4t-30 24t-4 38q28 96 57 181q-45 -2 -101 -6z" />
    <glyph glyph-name="dollar" unicode="$" horiz-adv-x="577" 
d="M217 444q0 81 -3 156q-25 0 -48 -6q-61 -16 -56 -61q3 -37 43 -61q24 -14 64 -28zM277 320q-2 -99 -6 -216q37 -13 74 1t58 48t14 75q-6 33 -48 57q-30 16 -92 35zM334 551q-11 9 -18 17l-12 10q-3 4 -9 7q-8 4 -19 7q2 -81 2 -168q97 -29 139 -52q85 -47 98 -128
q10 -55 -8.5 -105.5t-55 -83t-86 -48t-99.5 -5.5q-2 -45 -4 -100q-1 -12 -10.5 -20.5t-22 -8t-21 10t-8.5 22.5q4 65 6 118l-3 1q-27 16 -51 37t-45 49t-33 46q-10 15 -30 48q-11 18 -5.5 38t23 31t37.5 5.5t31 -22.5q48 -80 81 -113q3 104 5 195q-75 23 -115 48
q-82 50 -91 136q-7 69 32.5 110.5t99.5 57.5q32 8 69 9q-2 40 -5 79q0 13 8 22.5t21 10t22.5 -7.5t10.5 -21l4 -88q40 -6 69 -22q8 -4 18 -11.5t17 -13.5l14 -12q7 -7 8 -7q16 -13 18 -33.5t-11 -37t-33.5 -18.5t-37.5 11z" />
    <glyph glyph-name="percent" unicode="%" horiz-adv-x="869" 
d="M472 125q-8 0 -16 4q-12 6 -16.5 19.5t2.5 26.5q0 1 9.5 19t12.5 23t12.5 22t15.5 25l18 22q11 13 21 21t23.5 17t27.5 14q43 17 85.5 6.5t76.5 -35.5t52.5 -66t12.5 -84q-8 -58 -47 -93.5t-92 -44.5q-50 -8 -100 10.5t-82 61.5q-10 12 -16 32zM307 395q2 -5 3 -11
q1 -14 -8 -25t-23 -12q-34 -3 -48 -3.5t-47 1t-59 11t-48 26.5q-44 35 -55 93t14 110.5t77 74.5q57 19 103.5 5t79.5 -54q31 -38 40 -87t-9 -100q-6 -14 -20 -29zM634 697q-84 -181 -185 -360l-242 -410q-6 -11 -18.5 -14t-23.5 3.5t-14 19t4 23.5l240 407q100 178 183 357
q6 11 17.5 15.5t23 -1t16 -17t-0.5 -23.5zM528 174q0 -1 8 -27q3 -10 6 -14q20 -26 52.5 -38t65.5 -7q32 6 54.5 26.5t26.5 54.5q5 32 -15.5 61.5t-54 42.5t-65.5 1q-25 -9 -44 -32t-39 -60q3 -4 5 -8zM238 421q4 5 10 11l8 8q6 7 7 10q12 30 6.5 61.5t-26.5 55.5
q-20 25 -46.5 33t-57.5 -4q-28 -11 -42 -41.5t-8.5 -65t30.5 -53.5q35 -28 114 -24q1 5 5 9z" />
    <glyph glyph-name="ampersand" unicode="&#x26;" horiz-adv-x="646" 
d="M215 299q-49 -39 -71 -65q-31 -39 -15 -71q19 -38 60.5 -59t94.5 -21q63 0 113 28l-106 105q-44 46 -76 83zM540 110l34 -37q14 -15 13 -35q-1 -21 -16.5 -35t-36 -13t-34.5 17l-30 31q-80 -54 -185 -55q-77 0 -144.5 33.5t-101.5 102.5q-44 89 27 177q29 36 89 83
q-31 46 -45 85q-25 75 -5 135t74 90q51 30 113 14.5t101 -74.5q60 -88 -4 -178q-29 -40 -94 -91q29 -34 68 -74l103 -103q5 10 7.5 21t4 19.5t3.5 28.5t5 34q2 21 19 33t37.5 9.5t32.5 -19.5t9 -37q0 -5 -4 -36.5t-6.5 -43.5t-11.5 -36t-22 -46zM234 440q54 42 73 69
q13 19 14 32.5t-10 31.5q-13 19 -29 27.5t-29.5 8t-25.5 -7t-20 -19t-11 -34.5t8 -50q9 -26 30 -58z" />
    <glyph glyph-name="quotesingle" unicode="'" horiz-adv-x="200" 
d="M141 697q-21 -188 -35 -259q-3 -13 -14.5 -21t-25 -5t-21.5 14.5t-5 25.5q14 68 35 253q1 14 12 22.5t25 7t22.5 -12.5t6.5 -25z" />
    <glyph glyph-name="parenleft" unicode="(" horiz-adv-x="367" 
d="M297 722q-91 -80 -135.5 -199.5t-40.5 -243.5t46 -247t117 -217q9 -12 7.5 -26t-13 -23t-25.5 -7.5t-23 12.5q-65 81 -108.5 183t-59.5 214t-5 220.5t60.5 210t133.5 175.5q11 10 25.5 9t24 -12t8.5 -25.5t-12 -23.5z" />
    <glyph glyph-name="parenright" unicode=")" horiz-adv-x="325" 
d="M73 768q82 -74 130 -176t58.5 -210t-5.5 -220t-58 -214q-42 -101 -103 -182q-9 -12 -23.5 -13.5t-26 7t-13 23t6.5 25.5q72 95 113 218t45.5 247.5t-39 243.5t-131.5 199q-11 10 -12 24.5t9 25t24.5 11.5t24.5 -9z" />
    <glyph glyph-name="asterisk" unicode="*" horiz-adv-x="384" 
d="M108 543q-17 12 -62 39q-10 7 -13 19t3.5 22.5t18.5 13.5t23 -3l45 -28q1 13 2.5 42.5t3.5 47.5q0 4 1 6.5t1 4.5q3 8 9 13q9 9 22 8q11 -1 19 -8q5 -5 7 -12q2 -3 2 -7q2 -6 3 -24q5 -42 7 -52l6 -22q36 22 77 40q11 5 22.5 1t16.5 -15.5t1 -23t-16 -16.5
q-44 -20 -80 -44l3 -7l24 -30q12 -15 15 -25q6 -18 -5 -32q-11 -13 -29 -13q-32 0 -55 34l-10 14q-5 8 -6 10l-6 -8q-6 -6 -16 -22q-13 -21 -22 -31q-1 -2 -3 -3q-2 -2 -4 -3q-7 -5 -15 -5q-11 -1 -20 6q-8 6 -11 16q-1 7 0 14q1 3 2.5 6.5t5.5 10.5q10 17 10 18
q21 41 22 45z" />
    <glyph glyph-name="plus" unicode="+" horiz-adv-x="555" 
d="M222 218q-77 0 -131 -2q-18 0 -31.5 12.5t-14 31t12 32t31.5 14.5q53 1 132 1q-1 83 -3 139q0 20 13.5 34.5t33 15t34 -13t15.5 -32.5q2 -58 3 -142q79 0 134 2q18 0 31.5 -12.5t14 -31t-12 -32t-31.5 -14.5q-55 -1 -136 -2q2 -96 4 -157q0 -20 -13.5 -34.5t-33 -15
t-34 13t-15.5 32.5q-2 62 -3 161z" />
    <glyph glyph-name="comma" unicode="," horiz-adv-x="235" 
d="M176 51q3 -66 -18.5 -112.5t-70.5 -97.5q-9 -9 -21.5 -9t-21.5 8.5t-9 21t8 21.5q43 43 59.5 78.5t13.5 87.5q-1 12 7.5 21t21 10t21.5 -7.5t10 -21.5z" />
    <glyph glyph-name="hyphen" unicode="-" horiz-adv-x="453" 
d="M67 306q90 -2 282 4q18 1 31.5 -11t14 -30t-11.5 -31.5t-30 -13.5q-196 -7 -288 -6q-18 1 -30.5 14t-12 31t13.5 30.5t31 12.5z" />
    <glyph glyph-name="period" unicode="." horiz-adv-x="238" 
d="M180 53q0 -26 -19 -45t-45 -19t-45 19t-19 45t19 45t45 19t45 -19t19 -45z" />
    <glyph glyph-name="slash" unicode="/" horiz-adv-x="329" 
d="M268 683q-119 -328 -214 -665q-3 -12 -14 -18t-23 -3t-18 14t-3 23q96 340 216 669q4 12 15.5 17t23 1t16.5 -15.5t1 -22.5z" />
    <glyph glyph-name="zero" unicode="0" horiz-adv-x="555" 
d="M238 685q47 2 73 -4q97 -23 151 -175q19 -54 28.5 -112.5t5.5 -97.5q-7 -69 -44 -135.5t-93 -108.5q-127 -96 -222 -35q-75 49 -99 185q-11 62 -12.5 131.5t14 150t51.5 132.5q9 13 22.5 27.5t28.5 29t18 18.5q14 15 35 16t36 -13q4 -4 7 -9zM196 585q-14 -14 -23 -27
q-25 -35 -37 -97t-11 -124t11 -117q17 -94 56 -119q35 -23 107 31q39 29 65 77q27 48 32 97q3 27 -4 74q-8 47 -24 92q-18 50 -39.5 78.5t-39.5 32.5q-17 3 -23 3t-25 -1t-37 -1q-4 0 -8 1z" />
    <glyph glyph-name="one" unicode="1" horiz-adv-x="425" 
d="M54 537q57 19 94 44t80 73l2 2l3 7q3 6 8 15q26 50 72 47q24 -2 39.5 -19t13.5 -41q0 -15 -10 -34q-2 -4 -6 -11t-5 -9l-2 -5q-15 -61 -23 -177q-5 -75 -3 -197l3 -201q0 -21 -14.5 -35.5t-35.5 -14.5t-35.5 14.5t-14.5 35.5q0 30 -0.5 63t-1.5 73.5t-1 63.5
q-2 122 3 204q3 48 7 80q-58 -45 -141 -72q-20 -7 -38.5 2.5t-25 29t3 38t28.5 24.5z" />
    <glyph glyph-name="two" unicode="2" horiz-adv-x="610" 
d="M129 106q-1 9 -7 3q0 1 7 -3zM62 575l8 8l15 14q7 7 17.5 15t19.5 13q48 26 97 34.5t98 -6.5q54 -21 74 -74q19 -50 2 -121q-14 -56 -92 -157l-104 -131l-3 -4l-7 -8l-9 -12l-11 -14l-12 -17l-9 -13q7 -1 16 0q19 2 80 20q36 11 112 37l130 47q20 7 38.5 -2t25.5 -28.5
t-2 -38t-28 -25.5l-132 -47q-80 -28 -116 -39q-68 -20 -97 -24q-91 -9 -133 49q-16 23 -6 53q3 11 11 25q10 18 29 45l12 16l12 15l10 13q4 5 6 8l3 4l105 131q65 85 73 121q10 41 2 62q-4 11 -15 15q-14 8 -46 2.5t-66 -24.5q-6 -3 -10 -7l-12 -12q-9 -9 -20 -19
q-16 -13 -36.5 -11.5t-34 17t-12 36t16.5 34.5z" />
    <glyph glyph-name="three" unicode="3" horiz-adv-x="623" 
d="M61 634q4 3 7.5 6t7.5 7t7 6q19 19 38 27q52 25 134 26q47 1 79 -10q51 -16 70 -57q34 -77 -35 -152q71 -14 121 -51q50 -36 66 -85t1 -101q-25 -86 -117 -162q-88 -72 -183 -94q-120 -28 -182 43q-18 21 -30 56q0 1 -8 23q-3 11 -6 17q-8 19 -0.5 38.5t26.5 27.5
t38.5 0.5t27.5 -26.5l9 -26q1 0 3.5 -8.5t3.5 -12.5q6 -17 12 -23q22 -26 84 -12q72 17 141 74t85 112q14 47 -29 79q-30 21 -75 31t-88 5q-2 0 -35 -13q-49 -18 -85 -1q-28 12 -33 40q-6 34 25 55q11 7 34 13q41 11 42 11q48 25 77 56q26 27 19 44q-3 2 -10 4q-17 6 -46 5
q-60 -1 -94 -16q-4 -2 -13 -10l-25 -24q-16 -13 -37 -11t-34 18t-11 37t18 34z" />
    <glyph glyph-name="four" unicode="4" horiz-adv-x="568" 
d="M371 251l-86 -26q-141 -41 -177 -46q-1 -1 -8 -3q-13 -3 -20 -4q-19 -4 -34 0q-35 9 -43 43q-11 41 26 76q5 5 9 8.5t5.5 4.5t2.5 1.5t2 1.5l29 42l83 119q26 40 66 107.5t65 125.5q9 19 28 26.5t38 -1t26.5 -27.5t-0.5 -38q-27 -62 -69.5 -134t-69.5 -112l-83 -121
l96 27q61 18 103 32l25 9q5 19 13 32q4 8 10.5 16t22.5 14.5t34 2.5q21 -6 32.5 -21.5t11.5 -33.5q1 -18 -8.5 -38t-24.5 -36q-3 -23 -5 -55q0 -7 -8 -234q-1 -20 -16 -34.5t-35.5 -13.5t-35 16t-13.5 36q8 228 8 236v2z" />
    <glyph glyph-name="five" unicode="5" horiz-adv-x="541" 
d="M403 602q-21 1 -137 1h-89q-5 -1 -8 -1q-1 -1 -1 -4v-5q-2 -15 -4 -25q-15 -59 -20 -88v-3q24 8 39 10q141 14 219 -40q99 -68 76 -223q-9 -69 -53 -128q-44 -58 -106 -87q-44 -21 -89 -23q-46 -2 -92.5 18.5t-83.5 66.5q-17 20 -26 55l-6 21q-2 10 -4 15q-7 19 1.5 38
t28 26t38.5 -1.5t26 -28.5q4 -10 7 -25q1 0 2.5 -7.5t2.5 -11.5q4 -14 8 -19q60 -74 144 -34q40 19 68.5 57.5t35.5 81.5q13 94 -35 127q-47 33 -152 22q-4 0 -7.5 -1t-11.5 -4l-18 -6q-51 -16 -85 5q-20 13 -27 38q-3 12 -3 27q0 20 5 50q5 33 20 96q1 4 2 12q2 18 3 21
q6 39 28 61q5 5 11.5 8.5t9.5 3.5l4 1q3 1 8 1q4 1 12 1q11 1 31 2h91q121 0 143 -1q21 -1 34.5 -16.5t12.5 -36.5t-16.5 -34.5t-36.5 -12.5z" />
    <glyph glyph-name="six" unicode="6" horiz-adv-x="555" 
d="M143 98q12 -12 29 -15q28 -3 74 23t88 75t57 95q13 41 -1 65q-26 44 -93 24q-34 -11 -64.5 -33.5t-44.5 -45.5q-26 -43 -30 -69q-2 -9 -2 -19v-30q0 -20 -1 -40q-1 -17 -12 -30zM298 607q-9 1 -21 3h-5l-4 2h-5l-7 1q-38 -12 -79 -90q-36 -69 -55 -158q26 31 65 57
q39 25 80 38q28 9 55 10q28 2 56.5 -4t54 -25t43.5 -50q37 -62 10 -145q-21 -66 -77 -130q-52 -62 -120.5 -101t-130.5 -30q-56 8 -90 46t-49 94q-25 92 -2 223q20 122 72 221q61 115 137 140q23 7 52 2q1 0 17 -3q6 -1 9 -1q21 -1 34.5 -17t12.5 -36.5t-17 -34t-36 -12.5z
" />
    <glyph glyph-name="seven" unicode="7" horiz-adv-x="555" 
d="M18 605q106 3 263 74q21 10 72 30q30 12 44 17q10 4 16 6q6 1 10 2t9 1q15 1 27 -7q43 -25 37 -76q-2 -26 -20 -57q-10 -19 -27 -42l-10 -14l-4 -5q-47 -72 -88 -146l14 4q15 4 27.5 -3.5t16 -22t-4 -27t-21.5 -15.5l-78 -20q-72 -139 -119 -273q-7 -20 -25.5 -29t-38 -2
t-28.5 25.5t-2 37.5q36 104 86 210q-49 -11 -90 -18q-14 -2 -26 6.5t-14.5 22.5t6 26t22.5 15q62 10 143 30q61 118 136 233q2 3 8 11l5 6q-30 -12 -43 -18q-82 -36 -153.5 -58t-145.5 -24q-21 -1 -36 13.5t-16 35t13.5 35.5t34.5 16z" />
    <glyph glyph-name="eight" unicode="8" horiz-adv-x="483" 
d="M155 92h1h2q2 0 4.5 0.5t7 1.5t8.5 2q29 9 63 31q34 23 57 47q7 8 11.5 14.5t5.5 8.5l1 3q3 18 -21 43q-22 24 -67 53q-18 -28 -32 -52q-42 -73 -49 -117q-4 -28 8 -35zM141 347l-36 20q-65 38 -88 66q-15 17 -21 45q0 1 -2 14q-1 5 -2 7q-6 20 4 38.5t29 24.5q15 4 29 0
q20 62 85 110q33 24 71 40q38 15 81 19.5t78 -13.5q52 -26 55 -83q2 -35 -18 -79q-7 -14 -17.5 -31t-18.5 -29l-16 -22q-8 -11 -9 -12q-4 -7 -13 -19l-23 -31l-25 -34q54 -34 84 -67q55 -59 48 -123q-5 -39 -45 -82q-31 -33 -75 -62q-46 -30 -88 -43q-59 -19 -98 2
q-41 21 -54.5 59t-6.5 81q9 62 60 150q14 26 32 54zM325 628q-17 8 -54 -1t-73 -36q-25 -18 -37.5 -36.5t-12.5 -32.5t6 -25q2 -3 11 -9l13 -10q11 -7 18 -12q9 -8 14 -20l21 28l19 27l13 17q2 4 14 20t21 31q10 15 17 30q9 19 10 29z" />
    <glyph glyph-name="nine" unicode="9" horiz-adv-x="566" 
d="M321 551l-9 12q-3 4 -10 13l-20 22l-19 23l-17 22q-8 1 -12 0q-29 -8 -66 -42.5t-59 -78.5q-45 -90 14 -128q66 -42 129 23q53 55 69 134zM224 742q6 7 13 12q20 15 48 9q22 -4 51 -24q56 -38 79 -83q15 -28 10 -77q20 -29 41 -77q29 -67 38 -138.5t-6 -144.5
q-18 -76 -70 -131.5t-139 -75.5q-31 -6 -65 -7t-72.5 9.5t-66.5 31.5q-21 16 -41 45l-13 20q-6 10 -11 15q-12 17 -9.5 37.5t19 33t37 10t33.5 -18.5l15 -22l12 -19q10 -15 18 -21q20 -15 55.5 -19.5t66.5 3.5q109 25 134 132q21 88 -16 192q-26 -50 -61 -86
q-33 -34 -71 -53t-87 -17t-97 32q-48 31 -66.5 78.5t-11.5 91t28 86.5q31 61 83 110t106 63q8 2 16 3z" />
    <glyph glyph-name="colon" unicode=":" horiz-adv-x="245" 
d="M178 397q0 -22 -15.5 -37.5t-37.5 -15.5t-37.5 15.5t-15.5 37.5t15.5 37.5t37.5 15.5t37.5 -15.5t15.5 -37.5zM187 60q0 -22 -15.5 -37.5t-37.5 -15.5t-37.5 15.5t-15.5 37.5t15.5 37.5t37.5 15.5t37.5 -15.5t15.5 -37.5z" />
    <glyph glyph-name="semicolon" unicode=";" horiz-adv-x="294" 
d="M215 84q4 -66 -19 -112t-72 -97q-9 -9 -21.5 -9t-21.5 8.5t-9 21t8 21.5q43 44 60 79t15 86q-1 12 7.5 21.5t21 10t22 -8t9.5 -21.5zM236 261q0 -22 -15.5 -37.5t-37.5 -15.5t-37.5 15.5t-15.5 37.5t15.5 37.5t37.5 15.5t37.5 -15.5t15.5 -37.5z" />
    <glyph glyph-name="less" unicode="&#x3c;" horiz-adv-x="672" 
d="M13 305q39 14 95 40q88 40 96 44q73 32 191 77q125 48 176 70q12 4 23.5 -0.5t16 -16t0 -23t-15.5 -16.5l-177 -69q-124 -48 -190 -76q-6 -3 -95 -45l-17 -8q144 -68 466 -191q19 -7 27.5 -26t1 -38t-26.5 -27.5t-38 -0.5l-183 71l-163 66q-100 43 -178 82
q-14 7 -21.5 20.5t-5.5 28.5q-4 12 1.5 23t16.5 15z" />
    <glyph glyph-name="equal" unicode="=" horiz-adv-x="600" 
d="M72 201q137 -2 421 5q18 0 31 -12.5t13.5 -30.5t-12 -31t-30.5 -14q-286 -6 -425 -5q-18 1 -30.5 14t-12 31t13.5 30.5t31 12.5zM76 390q137 -2 421 5q18 0 31 -12.5t13.5 -30.5t-12 -31t-30.5 -14q-286 -6 -425 -5q-18 1 -30.5 14t-12 31t13.5 30.5t31 12.5z" />
    <glyph glyph-name="greater" unicode="&#x3e;" horiz-adv-x="683" 
d="M77 539q78 -38 177 -80l156 -65l183 -70q19 -7 27.5 -26t0.5 -38q-3 -8 -8 -14q-5 -13 -19 -18q-37 -12 -93 -38q-77 -38 -95 -46q-59 -25 -182.5 -72t-185.5 -74q-12 -4 -23.5 0.5t-16 16t0 23t15.5 16.5q62 26 186 73.5t182 72.5q17 7 93 44l23 10q-303 117 -465 197
q-18 9 -25 28.5t2.5 37.5t29 25t37.5 -3z" />
    <glyph glyph-name="question" unicode="?" horiz-adv-x="557" 
d="M59 557q2 5 3 15l4 20q7 34 22 56q32 44 90.5 67t119.5 22q42 -1 79.5 -13t70.5 -42t45 -75q5 -18 5 -37.5t-3.5 -35.5t-12 -34t-17 -31.5t-21 -29.5t-21.5 -26l-21 -23l-34 -35q-28 -29 -41 -45q-33 -37 -39 -59l1 -6q0 -2 1 -5v-4q1 -3 2 -5q2 -11 3 -20
q2 -20 -11.5 -36t-34 -18t-36.5 11.5t-18 34.5q0 3 -1 9q-3 15 -3 16q-5 29 1 51q13 43 59 97l43 46l35 36q78 84 68 123q-7 25 -33 40t-68 16t-77 -13t-49 -34q-3 -4 -6 -18q-1 -3 -1.5 -6t-1 -6.5t-0.5 -6.5q-3 -14 -6 -24q-6 -20 -24 -30t-38 -4t-30 24t-4 38zM324 37
q0 -26 -19 -45t-45 -19t-45 19t-19 45t19 45t45 19t45 -19t19 -45z" />
    <glyph glyph-name="at" unicode="@" horiz-adv-x="992" 
d="M566 422q-6 5 -19 19t-17.5 18.5t-13.5 12t-16 10.5t-15 5q-35 6 -69 -25q-37 -34 -50 -88q-14 -52 5 -87q20 -36 79 -41q25 -2 40.5 11t45.5 55q2 3 5 6q3 4 4.5 7t1.5 3.5t0.5 1t0.5 1.5q11 39 22 87zM774 471q-34 101 -91 141q-55 39 -163 42q-177 5 -275 -89
q-99 -96 -86 -270q10 -124 133 -199q55 -33 147 -37q137 -6 218 29q68 29 109 74q41 46 94 134q8 15 24 19t30.5 -4.5t18.5 -24.5t-5 -30q-28 -48 -46.5 -75t-48 -62t-65 -60t-79.5 -45q-98 -41 -254 -35q-112 5 -185 49q-158 96 -171 261q-16 210 111 333q123 119 332 112
q132 -5 207 -57q77 -55 121 -180q3 -10 1 -20q7 -11 5 -25q-1 -9 -1.5 -18.5t-0.5 -23.5t-1 -25q-2 -53 -23 -85q-39 -60 -72 -94q-34 -36 -71 -45q-64 -14 -117 56q-54 -61 -128 -55q-103 9 -144 85q-35 63 -14 148q20 77 75 128q65 61 142 46q45 -8 90 -52l2 12
q4 16 17.5 25t29.5 5.5t25 -17t6 -29.5q-31 -147 -47 -204q9 1 17.5 -10.5t13.5 -24.5l9 -25q4 -11 6 -11q32 7 94 104q9 15 10 47q1 5 1 20t0.5 29t2.5 25z" />
    <glyph glyph-name="A" unicode="A" horiz-adv-x="669" 
d="M195 309q45 10 181 31q-21 62 -45 147q-21 76 -22 78q-22 -43 -31 -65zM-13 92q149 327 199 446q11 26 28 61q19 39 25 54q1 0 1 1v1q0 1 0.5 5.5t2.5 12.5q4 18 13 30q19 27 52 26q27 -1 47 -24q9 -11 18 -28q12 -23 25 -62q0 -1 29 -102q44 -155 86 -250l48 -104
q31 -68 46 -110q7 -20 -2 -38.5t-28.5 -25.5t-38 2t-25.5 28q-15 43 -43 102l-49 106l-9 21l-62 -10l-66 -10q-22 -3 -55.5 -10t-62.5 -15q-10 -3 -21 -1l-68 -148q-8 -19 -27.5 -26t-38.5 1.5t-26 28t2 38.5z" />
    <glyph glyph-name="B" unicode="B" horiz-adv-x="696" 
d="M117 411q15 3 23 4q14 3 68 7q36 3 55 8q31 8 77 53t50 70q0 5 -2.5 11t-15.5 16t-35 19q-30 12 -63.5 18t-52.5 5q-49 -3 -86 -20q-20 -84 -18 -191zM124 305q6 -57 29 -209q170 -2 246 23q5 2 10 5t8.5 6t12.5 9.5t17 11.5q67 49 84 86q18 37 -22 77q-37 38 -179 23
q-43 -5 -127 -19q-56 -10 -79 -13zM437 440q96 -7 144 -56q88 -90 41 -189q-29 -61 -117 -124q-1 -1 -11.5 -9.5t-18 -13.5t-20.5 -12.5t-24 -10.5q-46 -16 -107 -23t-111 -6.5t-101 0.5q-18 0 -31.5 12t-16.5 30q-4 7 -5 16q-3 14 -11.5 69t-11.5 78t-9 73t-7.5 81.5
t-2.5 75t2.5 82t10.5 76.5q-7 7 -11 16q-8 19 -0.5 38t26.5 28l7 3l5 15q7 19 25.5 28t38.5 2q9 -3 16 -9q32 9 78 12q31 2 75.5 -6t84.5 -24q22 -9 41 -21t38.5 -30.5t29 -45t4.5 -56.5q-6 -46 -51 -99z" />
    <glyph glyph-name="C" unicode="C" horiz-adv-x="692" 
d="M514 543q-24 47 -56 69q-34 21 -90 24q-60 3 -112.5 -17.5t-89.5 -58.5t-61.5 -88t-32.5 -107q-12 -77 6.5 -142t69.5 -109t128 -51q76 -8 135 19q18 8 31.5 15.5t27.5 19.5l21 19q8 8 27 28l31 31q14 15 35 15t35.5 -14.5t14.5 -35.5t-15 -35l-29 -29q-19 -21 -30 -31
l-28 -25q-17 -16 -37 -27.5t-44 -22.5q-82 -37 -185 -27q-58 6 -106 26.5t-81.5 51t-58.5 70.5t-36 84.5t-15.5 91.5t4.5 92q10 71 41.5 135.5t80.5 116.5t121.5 81t157.5 24q81 -5 138 -40.5t92 -108.5q9 -19 2 -38.5t-25.5 -28.5t-38 -2t-28.5 25z" />
    <glyph glyph-name="D" unicode="D" horiz-adv-x="691" 
d="M173 68q70 -8 109 10q52 25 104.5 69t89.5 97q83 119 44 217q-33 85 -182 121q-79 19 -196 24q-3 -93 14 -295q14 -170 17 -243zM71 708q184 -3 291 -29q199 -48 252 -182q22 -53 18 -110t-22 -105q-19 -47 -52 -95q-45 -65 -107 -117q-63 -52 -127 -82q-62 -30 -154 -20
q-14 -28 -45 -28q-19 0 -33.5 13t-16.5 32l-16 5q-20 5 -31 22.5t-5 37.5q4 18 18 28.5t31 9.5q-2 45 -16 215q-17 200 -14 314q-22 15 -22 42q0 21 15 35t36 14z" />
    <glyph glyph-name="E" unicode="E" horiz-adv-x="607" 
d="M177 721q115 -4 294 5q20 1 35.5 -13t16.5 -34.5t-13 -36t-35 -16.5q-181 -9 -297 -5l-12 -100q-8 -66 -11 -99l105 12q69 7 90 10q21 2 37 -11t18.5 -33.5t-10.5 -36.5t-33 -19q-17 -2 -94.5 -10t-118.5 -14q-1 -15 -1 -29q1 -120 30 -168q11 -19 26 -23q21 -6 58 7
q23 8 212 112q18 10 38 4t30 -24t4 -38t-24 -30q-195 -107 -226 -118q-67 -25 -120 -9q-52 15 -84 67q-43 72 -44 219v19q-14 3 -25 14.5t-13 26.5q-4 21 8.5 37.5t32.5 19.5l2 1q5 54 13 125q19 149 19 162q0 21 15 35t36 14q27 -1 41 -23z" />
    <glyph glyph-name="F" unicode="F" horiz-adv-x="574" 
d="M122 324q8 -191 13 -232q2 -21 -11 -37t-33.5 -18.5t-36.5 10.5t-19 33q-5 44 -13 240q-15 11 -20 29q-7 31 17 51q-2 82 -2 135q-1 39 0 62q1 13 2 22q2 18 9 29q27 42 83 61q19 6 74 9q40 2 104 4q38 1 100 1.5t74 1.5q21 1 36 -13t16 -35t-13 -36t-35 -16
q-13 0 -75.5 -1t-100.5 -2q-55 -2 -100 -4q-43 -2 -50 -5q-13 -4 -23 -13q0 -2 -1 -8q-1 -20 0 -57q0 -45 2 -110q55 8 156 15q20 1 36 -12.5t17 -34t-12.5 -36.5t-34.5 -17q-104 -7 -159 -16z" />
    <glyph glyph-name="G" unicode="G" horiz-adv-x="756" 
d="M406 417q7 -3 46 -1.5t44.5 2t46 3.5t49.5 4q1 0 6 1q12 3 17 4q45 8 70 -22q5 -5 7.5 -11t3.5 -9v-3q1 -3 1 -6v-5v-11v-31q-1 -33 -3 -93l-2 -63q-2 -37 -2.5 -56.5t-0.5 -22.5q0 -21 -14.5 -35.5t-35.5 -14.5t-35.5 14.5t-14.5 35.5q0 4 1 35q-38 -50 -110 -90
q-74 -41 -150.5 -41.5t-137.5 33.5t-106 96q-43 62 -58 142q-17 92 4 190q20 99 76 171q39 49 90 75q53 26 107.5 28t107 -11.5t99.5 -40.5q15 -8 27.5 -19t22.5 -25l17 -22q6 -8 15.5 -24t10.5 -19q11 -17 6.5 -37t-22 -31t-37.5 -6.5t-31 22.5q-5 6 -14 21l-12 20l-9 12
q-6 9 -11.5 13.5t-12.5 8.5q-49 28 -100 36t-98 -8t-78 -55q-41 -52 -57 -130.5t-3 -150.5q11 -58 41.5 -102t72 -66t92.5 -21t100 29q72 40 96 91q16 35 17 100q-87 -7 -145 -4q-21 1 -34.5 16.5t-12.5 36.5t16.5 34.5t36.5 12.5z" />
    <glyph glyph-name="H" unicode="H" horiz-adv-x="627" 
d="M568 695q-5 -59 -17 -177.5t-16 -177.5q-3 -72 -2.5 -103.5t4.5 -104.5t5 -110q1 -20 -13.5 -35t-35 -16t-35.5 13.5t-16 35.5q-1 30 -4.5 96.5t-4.5 102t1 103.5q-90 -4 -265 -3q-3 -26 -9 -90q-12 -133 -14 -182q-1 -21 -16 -35t-36 -13t-35 16t-13 36q2 47 15 188
l8 88q-23 15 -23 42q0 33 30 46v6q5 96 -24 270q-4 20 8 37t32.5 20.5t37.5 -8.5t20 -33q31 -182 26 -288q173 -1 266 4q1 19 11.5 122t14.5 158q2 20 17.5 33.5t36 12t34 -17t12.5 -36.5z" />
    <glyph glyph-name="I" unicode="I" horiz-adv-x="239" 
d="M176 710q5 -152 4 -238.5t-5 -238.5t-4 -239q0 -21 -14.5 -35.5t-35.5 -14.5t-35.5 14.5t-14.5 35.5q0 87 4 237.5t5 236.5t-4 238q-1 20 13 35.5t34.5 16.5t36 -13t16.5 -35z" />
    <glyph glyph-name="J" unicode="J" horiz-adv-x="499" 
d="M401 652q2 -33 12 -114q16 -126 18 -136q20 -177 -5 -267q-16 -57 -50.5 -105t-81.5 -72q-54 -30 -115 -15.5t-113 73.5q-21 23 -35 62l-9 27q-5 13 -9 20q-8 19 -1 38.5t26 28t38.5 1.5t28.5 -26q5 -12 11 -30l4 -9q3 -10 5 -15q7 -22 15 -31q56 -62 108 -35
q26 13 48 44t34 72q19 68 1 228q-1 12 -17 133q-11 87 -13 124q-1 20 13 35.5t34.5 16.5t36 -13t16.5 -35z" />
    <glyph glyph-name="K" unicode="K" horiz-adv-x="654" 
d="M550 662q-32 -35 -85 -101q-61 -76 -88 -106l-29 -33q67 -161 236 -369q13 -17 11 -37.5t-18.5 -33.5t-37 -11t-33.5 18q-160 197 -233 353l-132 -140l-6 -6q7 -66 20 -140q4 -20 -8 -37t-32 -21t-37 8t-21 32q-38 210 -28 395q2 42 12 121q8 75 10 115q1 20 16.5 34
t36 13t34.5 -16.5t13 -36.5q-2 -42 -11 -121q-9 -75 -11 -115q-3 -50 -2 -94l176 188q18 20 84 103q55 69 91 106q14 15 34.5 16t35.5 -13.5t16 -35t-14 -35.5z" />
    <glyph glyph-name="L" unicode="L" horiz-adv-x="643" 
d="M168 707q-1 -10 -5 -68l-9 -136l-9 -145q-7 -132 -9 -210q-1 -44 0 -70v-15q11 -6 38 -7q46 -1 124 17q61 14 133 38l51 17q30 11 37 13q20 6 38.5 -3.5t24.5 -29.5t-3.5 -38.5t-29.5 -24.5q-7 -2 -36 -12l-50 -17q-80 -26 -142 -41q-90 -21 -149 -19q-94 3 -126 61
q-6 12 -8 30q-2 11 -2 28q-1 28 0 76q2 79 9 212l9 146l9 136q4 58 5 68q1 21 16.5 34.5t36.5 12.5t34.5 -16.5t12.5 -36.5z" />
    <glyph glyph-name="M" unicode="M" horiz-adv-x="785" 
d="M37 46q8 86 15 196q9 127 13 181q6 74 13 127q1 6 0.5 8.5t-1.5 12.5t-1 21q-1 24 5 40q10 24 33 33q23 8 47 -3q40 -21 74 -90q24 -47 49 -125q8 -26 37 -128q20 -71 27 -90q5 -15 24 -59l55 114l112 246q5 11 44 86l28 52l9 18l4 5l2 4l2 4l6 6q5 4 10 7q19 10 39 4
q27 -9 36 -38q4 -10 5 -23q2 -17 2 -44q0 -35 -2 -70q-5 -74 -5.5 -154.5t1.5 -184t2 -154.5q0 -21 -14.5 -35.5t-35.5 -14.5t-35.5 14.5t-14.5 35.5q0 31 -2.5 209.5t0.5 209.5l-102 -225q-43 -90 -70 -141q-17 -32 -29 -50q-8 -12 -15 -19q-14 -16 -31 -20q-21 -6 -39 1.5
t-28 24.5q-10 14 -13 37q-1 4 -1.5 8t-1 9.5t-0.5 7.5l-2 9l-16 40l-18 46q-8 23 -29 97q-25 88 -37 125q-9 30 -18 54q-1 -6 -5 -56q-5 -54 -13.5 -182t-14.5 -197q-2 -20 -18 -33.5t-36.5 -11.5t-34 18t-11.5 37z" />
    <glyph glyph-name="N" unicode="N" horiz-adv-x="676" 
d="M498 62v-1v1zM20 17q3 217 34 504q0 1 0.5 13.5t1.5 27.5t3 33.5t5 31.5q12 52 47 69q48 23 99 -27q18 -18 33 -50q13 -31 15 -34q159 -270 246 -405v11q13 242 13 586q0 21 14.5 35.5t35.5 14.5t35.5 -14.5t14.5 -35.5q0 -347 -13 -592q-1 -12 -1.5 -43.5t-1.5 -45.5
q-1 -29 -3 -45q-2 -12 -5 -21q-9 -27 -33 -37q-21 -8 -41 2q-7 3 -13 9q-6 5 -13 13q-8 10 -21 28l-44 68q-91 141 -256 422q-7 11 -16 32q0 -4 -0.5 -24.5t-1.5 -31.5q-31 -283 -34 -496q0 -20 -15 -34.5t-35.5 -14.5t-35 15t-14.5 36z" />
    <glyph glyph-name="O" unicode="O" horiz-adv-x="783" 
d="M327 757q-5 17 3 34q9 19 28.5 25.5t38.5 -2.5q51 -25 102 -64.5t96.5 -88.5t79.5 -109q34 -58 45 -117q17 -86 -31 -209q-34 -88 -101.5 -151t-155.5 -85t-188 8q-60 20 -107 55.5t-74.5 79t-45 94.5t-17.5 103t8 104q15 80 55.5 148.5t109.5 117t154 57.5zM369 658
q-99 3 -171 -66.5t-92 -176.5q-14 -70 -0.5 -133t57 -114.5t113.5 -73.5q100 -33 190 16q89 48 129 152q38 98 27 153q-14 71 -72 145t-134 127q-14 -30 -47 -29z" />
    <glyph glyph-name="P" unicode="P" horiz-adv-x="655" 
d="M157 630q-3 -17 -3 -45q-1 -24 -0.5 -56t0.5 -36q-1 -21 -3 -67t-2 -70q12 -11 21 -16q34 -16 100 2q71 18 134.5 63t84.5 91q17 38 -7 68q-76 91 -295 66q-10 -1 -30 0zM62 19q-19 123 -15 296q-14 26 2 51q1 23 2.5 67t2.5 64q0 4 -0.5 35.5t0.5 55.5q1 37 4 60
q3 17 7 29q8 22 23 34q23 19 60 19q10 0 18.5 -0.5t8.5 0.5q273 30 383 -102q65 -78 22 -173q-32 -71 -118 -132q-79 -55 -167 -78q-87 -23 -149 -3q0 -116 14 -209q4 -20 -8.5 -36.5t-33 -20t-37 9t-19.5 33.5z" />
    <glyph glyph-name="Q" unicode="Q" horiz-adv-x="762" 
d="M535 18q-99 -65 -234 -38q-90 18 -166.5 74.5t-108.5 137.5q-23 56 -25.5 119.5t15 123.5t49 114.5t77.5 96.5q47 43 103 66q67 28 176 17q44 -5 74 -19.5t61 -44.5q19 -18 33 -35q19 -6 29 -24q2 -6 12 -23.5t18.5 -34t13.5 -31.5q29 -79 14 -209q-14 -124 -54 -197
q-7 -12 -15 -23q35 -34 72 -56q17 -11 22.5 -31t-5.5 -37.5t-31 -23t-38 5.5q-46 28 -92 72zM555 479l-16 35q-8 19 -11.5 26t-9 17t-12.5 17l-18 19q-21 19 -36 26t-41 10q-28 4 -67.5 2t-60.5 -11q-50 -22 -91.5 -66.5t-63.5 -98.5t-27 -114t17 -111q23 -55 78.5 -96.5
t124.5 -55.5q83 -17 145 15q-65 77 -72 84q-14 15 -13 36t16 35t36 13t35 -16q22 -24 69 -80q29 56 40 154q9 81 -2 138q-14 7 -20 22z" />
    <glyph glyph-name="R" unicode="R" horiz-adv-x="723" 
d="M307 231q-98 -32 -168 -6q6 -131 48 -245q7 -19 -1.5 -38t-28 -26t-38.5 1.5t-26 28.5q-29 79 -43 162.5t-12 168t11.5 159.5t27.5 162q-5 8 -6 18q-3 28 20 45l11 51q5 20 22.5 30.5t38 6t31 -22t6.5 -38.5l-3 -10q39 3 92 1q39 -1 88.5 -13t90.5 -34q24 -13 43 -29.5
t36 -41t19.5 -53t-6.5 -65.5q-14 -45 -57 -89t-99 -78l37 -41l25 -30l26 -31l22 -24q14 -16 27 -28q13 -11 26 -21q9 -7 17.5 -11t23.5 -10.5t29 -14.5q18 -9 24.5 -29t-3 -38t-29.5 -24.5t-38 3.5q-3 1 -21 9t-34.5 17t-28.5 18q-17 13 -33 27.5t-32 31.5l-26 30l-28 32
q-18 21 -23 28q-33 39 -58 61zM322 346q55 26 94.5 63t47.5 64q13 40 -44 71q-60 32 -135 35q-59 2 -110 -3q-21 -98 -29 -178q33 -2 72.5 -10t55.5 -16q25 -11 48 -26z" />
    <glyph glyph-name="S" unicode="S" horiz-adv-x="690" 
d="M435 529q-12 7 -22.5 15t-17 12.5t-14.5 7.5q-23 9 -69 13.5t-99 -0.5q-48 -7 -71 -25q-16 -12 -14 -34q2 -27 41 -51q35 -21 124 -48q141 -42 156 -48q93 -33 137 -78q37 -38 42 -69q11 -60 -13.5 -110t-71.5 -83q-41 -30 -93.5 -43.5t-102.5 -7.5q-47 7 -90 27
t-78 51.5t-60.5 60.5t-52.5 67q-12 17 -8.5 37.5t20.5 32.5t37.5 8.5t32.5 -20.5q50 -71 101 -114q51 -42 112 -50q30 -5 63.5 4t60.5 28q55 39 45 94q-1 1 -5.5 6t-10.5 11q-27 29 -99 54q-12 5 -151 46q-100 29 -147 59q-81 49 -89 126q-7 77 54 124q43 33 117 44
q62 7 122.5 1.5t97.5 -21.5q12 -5 26.5 -13.5t28 -18.5t15.5 -11q17 -11 21.5 -31t-6.5 -37.5t-31 -22t-38 6.5z" />
    <glyph glyph-name="T" unicode="T" horiz-adv-x="664" 
d="M7 690q16 1 76 4.5t82 4.5t74 4t82.5 3.5t75 1t83.5 0.5q36 -1 77 -3q21 -1 35 -16.5t13 -36t-16.5 -34.5t-35.5 -13q-105 5 -232 1q1 -298 36 -666q2 -21 -11.5 -37t-34 -18t-36.5 11.5t-18 33.5q-35 360 -36 672q-22 -1 -208 -12q-21 -1 -36.5 12.5t-16.5 34.5
t12.5 36.5t34.5 16.5z" />
    <glyph glyph-name="U" unicode="U" horiz-adv-x="692" 
d="M162 617q1 -30 1.5 -88.5t1 -91t4.5 -82.5t11 -84.5t20 -76.5q14 -40 33 -76q24 -45 70 -65t93 -9t75 50q49 68 60 280q2 56 2.5 117t-0.5 127.5t-1 86.5q0 21 14.5 35.5t35.5 14.5t35.5 -14.5t14.5 -35.5q0 -19 1 -87.5t0.5 -130.5t-2.5 -118q-13 -242 -78 -333
q-40 -55 -98.5 -78.5t-116.5 -16.5t-110.5 41t-82.5 88q-23 42 -39 90.5t-24 89.5t-12.5 96.5t-5 90t-1 93t-1.5 85.5q-1 20 13.5 35t35 16t35.5 -13.5t16 -35.5z" />
    <glyph glyph-name="V" unicode="V" horiz-adv-x="660" 
d="M286 184q4 15 9.5 31.5t8 25.5t3.5 10q75 227 199 495q8 19 27.5 26t38.5 -1.5t26 -28t-2 -38.5q-121 -263 -195 -485q0 -1 -5 -15l-11 -38l-13 -42q-13 -41 -21 -64q-5 -15 -8 -23l-5 -10l-4 -8q-11 -16 -29 -20q-27 -7 -47 11q-6 5 -10 11q-3 5 -7 13q-5 9 -12 28
q-25 59 -27 64q-77 174 -125 399q-4 20 7 37.5t31.5 21.5t38 -7t21.5 -32q43 -203 111 -361z" />
    <glyph glyph-name="W" unicode="W" horiz-adv-x="909" 
d="M133 527l43 -143q11 -38 16 -52l10 -30q3 -7 7 -22l11 -41q3 -9 9 -34t10 -39q1 6 1 9q24 102 60 220q26 85 44 132q13 31 23 50q19 32 43 42q18 4 30 4t24 -8t17.5 -13.5t10.5 -11.5q14 -19 26 -52q7 -21 14 -46q2 -8 4 -15l1 -5v-1l19 -53q9 -27 24 -60l20 -50
q7 -15 26.5 -58.5t22.5 -51.5q3 17 19 115.5t23 136.5t25 110q17 73 37 130q7 20 25.5 29t38 2t28.5 -25.5t2 -37.5q-19 -56 -35 -123.5t-24 -109.5t-22 -132.5t-20 -121.5q-7 -39 -15 -74q-7 -31 -15 -50q-5 -14 -11 -23q-13 -20 -32 -28q-21 -8 -40 0q-19 7 -30 25
q-7 13 -10 33q0 3 -0.5 10t-0.5 9q0 3 -1 5q-7 20 -18 45l-34 77l-37 84l-31 76q-18 46 -31 85q0 2 -1 4v1v1l-1 3q-1 7 -3 13l-3 10q-16 -42 -36 -111q-34 -112 -58 -215q-1 -2 -1.5 -6t-1.5 -10t-2 -11q-5 -28 -11 -47q-9 -32 -23 -52q-24 -35 -60 -42q-20 -4 -36.5 4.5
t-24.5 24.5q-8 14 -9 33q0 3 -0.5 9.5t-0.5 8.5v3l-11 30q-9 22 -13 37l-12 44q-7 29 -8 36q-8 28 -11.5 41.5t-6 20t-9.5 27.5l-17 52l-43 145q-6 19 4 37.5t29.5 24.5t38 -4t24.5 -30z" />
    <glyph glyph-name="X" unicode="X" horiz-adv-x="641" 
d="M309 293q-98 -148 -169 -241q-13 -17 -33.5 -19.5t-37 10t-19 33t9.5 36.5q86 114 186 267q-63 90 -99 162q-9 18 -2.5 37.5t25 29t38 3t29.5 -25.5q26 -53 69 -116q90 138 149 218q12 17 32.5 20.5t37 -9t20 -33t-9.5 -36.5q-60 -83 -167 -247l65 -90l66 -100
q46 -71 73 -108q13 -16 9.5 -36.5t-20 -33t-37 -9t-32.5 20.5q-27 37 -74 108q-42 65 -67 100z" />
    <glyph glyph-name="Y" unicode="Y" horiz-adv-x="621" 
d="M300 291q-19 3 -31 17q-119 145 -220 342q-9 19 -2.5 38.5t25 29t38 3t29.5 -24.5q92 -183 202 -317q60 139 124 327q6 20 24.5 29t38.5 2.5t29 -25t2 -38.5q-67 -199 -140.5 -365.5t-169.5 -307.5q-11 -17 -31.5 -21t-37.5 7.5t-21 32t8 37.5q70 104 133 234z" />
    <glyph glyph-name="Z" unicode="Z" horiz-adv-x="708" 
d="M560 34q-56 -1 -113.5 -5.5t-140.5 -12.5l-113 -12q-1 0 -12 -1l-27 -3q-15 -1 -28 -2q-28 -2 -46 -2q-13 0 -21 1q-24 3 -38 17q-25 24 -18 62q4 18 16 40q17 27 52 67l36 39l35 34l17 17l248 255l74 74q-27 -3 -69 -9.5t-51 -7.5q-110 -11 -231 -20q-21 -1 -37 12.5
t-17.5 34.5t12 37t34.5 18q120 8 229 20q8 1 52.5 7.5t73.5 9.5q47 6 77 6q21 0 35 -3q25 -4 40 -16q24 -19 19 -49q-1 -7 -5 -15q-2 -4 -5 -8q-2 -4 -7 -8q-5 -7 -16 -19l-50 -50l-35 -36l-33 -32l-16 -16l-248 -255l-17 -16l-34 -34q-19 -20 -35 -38l-12 -14l21 2
q11 1 18.5 2t8.5 1q28 2 115 11t146 13.5t114 5.5q21 0 36.5 -14.5t15.5 -35.5t-14.5 -36.5t-35.5 -15.5z" />
    <glyph glyph-name="bracketleft" unicode="[" horiz-adv-x="307" 
d="M198 654q-75 3 -94 3q0 -50 1 -231t0.5 -297.5t-3.5 -230.5l26 -2q13 -1 14.5 -1.5t9.5 -0.5h10q2 0 16 0.5t28 0.5q17 1 29.5 -11t13 -29t-11.5 -29.5t-29 -12.5q-12 0 -26.5 -0.5t-17.5 -0.5h-10q-7 0 -12 0.5t-11.5 0.5t-21 1.5t-31.5 2.5q-6 0 -11 2q-12 1 -19.5 10
t-7.5 21v3v8q0 3 1 5q3 122 4 247t0 314t-1 246q-2 6 -3 12q0 13 8.5 22t21.5 10q12 0 26 0.5t18 0.5t10 0.5t11 0t11.5 -0.5t21.5 -1t31 -1q13 -1 21.5 -10.5t8 -22t-10 -21t-21.5 -8.5z" />
    <glyph glyph-name="backslash" unicode="\" horiz-adv-x="364" 
d="M26 678q119 -319 276 -639q5 -11 1 -22.5t-15 -17t-22.5 -1.5t-17.5 15q-158 322 -278 643q-4 12 1 23.5t16.5 15.5t23 -1t15.5 -16z" />
    <glyph glyph-name="bracketright" unicode="]" horiz-adv-x="262" 
d="M38 -112q24 -2 48 -3q20 -2 42 -1h11q10 257 -2 542q-2 48 2 129q3 79 4 100l-52 2l-55 -2q-13 0 -22 8.5t-9.5 21.5t8 22t21.5 10q12 0 26 0.5t18 0.5t10 0.5t11 0t11.5 -0.5t21.5 -1t31 -1q9 -1 16 -6q11 -2 17.5 -10t6.5 -19q0 -33 -4 -129q-4 -86 -2 -124
q12 -295 2 -568q3 -8 3 -16q1 -17 -11 -29.5t-29 -12.5q-12 0 -26.5 -0.5t-17.5 -0.5h-10q-7 0 -12 0.5t-11.5 0.5t-21 1.5t-31.5 2.5t-28 14t-10 30t14 28t30 10z" />
    <glyph glyph-name="asciicircum" unicode="^" horiz-adv-x="482" 
d="M45 321q6 15 23 45q14 26 20 40q7 17 24 63t31.5 79t31.5 64q2 4 19 48l11 31l5 10q1 2 1.5 4t1.5 3q1 2 3 4q2 3 5 5q8 6 18 6q15 0 26 -12q3 -5 7 -11q6 -9 13 -25q11 -25 28 -72q10 -25 26.5 -71t20.5 -56q5 -14 19.5 -46t25 -58.5t17.5 -50.5q3 -12 -3 -22.5t-18 -14
t-22.5 2.5t-14.5 18q-6 22 -15.5 45.5t-23.5 54.5t-21 49l-10 28l-18 50l-19 50l-15 38q-11 -30 -15 -36q-16 -30 -29 -60.5t-30 -74.5l-24 -65q-7 -18 -23 -47q-16 -28 -22 -40q-5 -12 -16.5 -16t-23 1t-15.5 16.5t1 22.5z" />
    <glyph glyph-name="underscore" unicode="_" horiz-adv-x="595" 
d="M-2 -69q263 0 518 5q8 0 14 -5.5t6 -14t-5.5 -14.5t-14.5 -6q-255 -5 -518 -5q-8 0 -14 6t-6 14t6 14t14 6z" />
    <glyph glyph-name="grave" unicode="`" horiz-adv-x="255" 
d="M68 750q85 -81 120 -122q10 -11 9 -24.5t-12 -23t-24.5 -8.5t-22.5 12q-34 38 -116 118q-10 9 -10.5 23t9 24t23.5 10.5t24 -9.5z" />
    <glyph glyph-name="a" unicode="a" horiz-adv-x="656" 
d="M367 190q1 61 -5 254q-21 9 -29 12t-20.5 6t-25.5 2q-57 -2 -105 -52t-67 -123q-19 -72 2.5 -125.5t79.5 -70.5q53 -16 92 10q32 21 78 87zM460 514q0 -15 4 -139t3 -189q-1 -29 -1 -70v-10q2 -2 3.5 -5.5t2.5 -5.5v-1q5 1 9.5 3.5t8 5.5t12.5 9t17 12q17 11 37.5 7
t32 -21t7.5 -37.5t-21 -32.5q-2 -1 -12 -8l-18 -12q-8 -6 -19.5 -12t-22.5 -10q-60 -19 -118 28q-8 6 -13 15q-13 -12 -27 -21q-78 -52 -176 -23q-45 13 -77 39q-33 26 -51.5 58t-27 70t-6.5 75.5t11 74.5q16 62 50.5 116t91.5 92.5t123 41.5q43 2 91 -17q14 16 35 16
t36 -14t15 -35z" />
    <glyph glyph-name="b" unicode="b" horiz-adv-x="557" 
d="M125 36v-1q1 -21 -13 -36.5t-34.5 -16.5t-36 13t-16.5 34q-8 166 -11 241q-4 86 -2 219q1 131 12 244q2 21 18 34t37 11t34 -18t11 -37q-12 -127 -13 -251q6 6 12 10q53 39 143 42q100 3 158 -53t71 -142q11 -75 -13 -153.5t-78 -125.5q-31 -26 -76 -38t-84 -11
q-60 2 -119 35zM130 149l30 -17q17 -10 24.5 -14t18.5 -8.5t20.5 -6.5t22.5 -2q25 -1 52 6.5t40 18.5q32 28 49 81.5t9 106.5t-39 82.5t-87 27.5q-60 -2 -87 -22q-10 -8 -18.5 -16.5t-20.5 -23t-24 -26.5l-8 -6q2 -76 7 -177q6 -1 11 -4z" />
    <glyph glyph-name="c" unicode="c" horiz-adv-x="530" 
d="M371 390q-15 12 -39 34q-14 12 -17 15q-9 5 -51 7q-57 3 -98.5 -40.5t-53.5 -116t13 -128t76 -70.5q34 -10 61.5 -7t56.5 22q8 5 13.5 10.5t11.5 15.5t9 16.5t11 23.5l11 28q9 18 28.5 25.5t38 -1t26 -28t-0.5 -38.5q-2 -3 -10 -22.5t-13.5 -30t-16 -28t-24 -31
t-30.5 -24.5q-91 -59 -200 -27q-41 12 -72.5 37t-50 56.5t-30 69t-11.5 74.5t5 73q7 47 27 89.5t51 78.5t77 56t101 17q67 -4 98 -22q12 -8 31 -26l36 -32q16 -13 18 -33.5t-11.5 -36.5t-34 -18t-36.5 12z" />
    <glyph glyph-name="d" unicode="d" horiz-adv-x="543" 
d="M347 362q-2 1 -39 37q-16 16 -28 21q-21 11 -64 5q-42 -6 -57 -22q-26 -29 -44.5 -78t-19.5 -98q-2 -104 72 -128q47 -16 92 2q14 5 23.5 10t19 13t14.5 14l20 20l25 27q-1 99 -1 169q-7 3 -13 8zM484 731q-6 -41 -10.5 -86.5t-7 -81.5t-4 -89.5t-2 -82t0 -89.5
t0.5 -82.5t1.5 -91t1.5 -85.5q0 -21 -14 -36t-35 -15t-36 14t-15 35v5q-29 -23 -69 -39q-78 -30 -160 -4q-51 17 -84 55t-45 80t-11 90q2 67 26.5 133t63.5 110q39 42 117 53q75 11 124 -14q18 -10 37 -26q5 142 21 261q3 20 19.5 32.5t37 10t33 -19t10.5 -37.5z" />
    <glyph glyph-name="e" unicode="e" horiz-adv-x="551" 
d="M452 498h2q20 -5 30.5 -22.5t6.5 -38.5q-1 -2 -2 -8q-2 -15 -2 -16q-4 -28 -16 -47q-42 -63 -194 -107q-53 -16 -167 -41q2 -47 25 -80.5t66 -46.5q36 -11 49 -9q8 1 46 18q43 20 51 26q5 4 16 15l36 32q15 14 35.5 13t34.5 -16.5t13 -36t-17 -34.5l-33 -31
q-15 -15 -24 -21q-16 -12 -70 -37q-53 -24 -75 -27q-34 -5 -90 12q-45 13 -77.5 39t-51 58t-27 70t-6.5 75.5t11 74.5q16 62 50.5 116t91.5 92.5t123 41.5q17 1 33 -1t32.5 -7t26 -8.5t26 -11t20.5 -9.5q19 -8 27 -27zM387 433l-25 11l-21 8q-6 3 -15.5 6t-17.5 3.5t-17 0.5
q-49 -2 -92.5 -40t-67.5 -97q70 15 118 30q117 34 138 67l1 6q1 2 1 4q-1 0 -2 1z" />
    <glyph glyph-name="f" unicode="f" horiz-adv-x="446" 
d="M164 429q-4 -45 -6.5 -99t-3.5 -91.5t-1.5 -103.5t-0.5 -97q0 -20 -15 -34.5t-35.5 -14.5t-35 15t-14.5 36q0 29 0.5 89.5t1 98.5t3 91.5t6.5 98.5l-5 -1q-21 -2 -37.5 11t-19 34t10.5 37.5t34 19.5l29 3q9 54 22 103q15 60 33 93q42 77 115 76q35 0 74 -25q8 -5 16 -11
t13 -9l11 -6q19 -9 25.5 -29t-2.5 -38.5t-29 -25t-38 2.5q-3 1 -50 31q-15 10 -22 10q-12 0 -26 -24q-11 -22 -24 -69q-8 -34 -15 -70h62q22 0 37 -14.5t15 -36t-14.5 -36.5t-35.5 -15h-52h-26z" />
    <glyph glyph-name="g" unicode="g" horiz-adv-x="526" 
d="M343 199q-4 21 -47 210q-65 45 -109 12q-23 -17 -41 -53t-25 -81q-6 -45 1 -83.5t24 -60.5q34 -43 116 -2q11 5 21 12.5t24.5 19.5t28.5 22q3 2 7 4zM133 -28q6 -15 11 -28q4 -14 7.5 -22t8.5 -16q37 -56 96 -43q29 6 56.5 27.5t44.5 53.5q12 21 10 83q-1 27 -5 61
q-33 -26 -56 -37q-75 -36 -137 -28t-102 58q-32 41 -42.5 100t-2.5 120q9 61 36 115.5t71 85.5q91 66 202 3q20 2 35.5 -9.5t19.5 -30.5l1 -5q7 -13 6 -27q3 -14 15 -63.5t22 -93.5l17 -84q17 -96 20 -162q3 -90 -22 -136q-28 -49 -72.5 -83.5t-95.5 -45.5q-58 -12 -111 9.5
t-90 77.5q-8 11 -15 27.5t-13 33.5t-7 19q-8 20 -0.5 39t27 27t38.5 0.5t27 -26.5z" />
    <glyph glyph-name="h" unicode="h" horiz-adv-x="516" 
d="M129 291q0 -48 4 -273q0 -21 -14 -36t-35 -15t-36 14t-15 35q0 18 -1 86l-2 90q-1 23 -1 84t0.5 91.5t2 85t4.5 91.5l7 86q4 47 10 90q3 20 19.5 32.5t37 10t33 -19t10.5 -37.5q-16 -112 -21 -244q69 70 148 66q112 -6 152 -103q21 -49 23 -153q4 -179 0 -253
q-1 -20 -16.5 -34t-36 -13t-34.5 16.5t-13 36.5q4 80 0 245q-2 85 -15 117q-8 19 -22.5 29t-43.5 12q-23 1 -44.5 -14t-51.5 -50l-12 -16q-5 -8 -12.5 -21.5t-14.5 -24.5q-4 -7 -10 -11z" />
    <glyph glyph-name="i" unicode="i" horiz-adv-x="197" 
d="M134 474q-1 -72 1.5 -214t1.5 -212q0 -21 -15 -35.5t-35.5 -14.5t-35 15t-14.5 35q1 71 -1.5 213t-1.5 215q0 20 15 34.5t35.5 14.5t35 -15t14.5 -36zM37 654l1 53q0 21 15 35t36 14t35 -15t14 -36l-1 -53q0 -21 -15 -35t-36 -14t-35 15t-14 36z" />
    <glyph glyph-name="j" unicode="j" horiz-adv-x="204" 
d="M37 654l1 53q0 21 15 35t36 14t35 -15t14 -36l-1 -53q0 -21 -15 -35t-36 -14t-35 15t-14 36zM145 512q-1 -36 -0.5 -115.5t0.5 -129t-6 -126.5t-17 -133.5t-34 -122t-57 -119.5q-11 -17 -31 -21.5t-37.5 6.5t-22 31t6.5 37q34 56 55.5 123t29.5 134t11.5 142.5t1.5 147
t0 148.5q0 20 15 34.5t35.5 14.5t35 -15t14.5 -36z" />
    <glyph glyph-name="k" unicode="k" horiz-adv-x="488" 
d="M281 303q54 -113 141 -254q10 -17 5.5 -37.5t-22 -31t-38 -6t-31.5 22.5q-88 143 -140 253l-35 -34q-16 -15 -38 -14q0 -35 1.5 -102t1.5 -80q0 -21 -14 -36t-35 -15t-36 14t-15 35q0 18 -2 86l-2 90v84t0.5 91.5t2 85t4.5 91.5l7 86q4 47 10 90q3 20 19.5 32.5t37 10
t33 -19t10.5 -37.5q-24 -165 -24 -391q122 118 184 201q12 17 32.5 19.5t37.5 -9.5t19.5 -32.5t-9.5 -37.5q-49 -65 -119 -138q9 -7 14 -17z" />
    <glyph glyph-name="l" unicode="l" horiz-adv-x="212" 
d="M146 707q-11 -116 -11 -239q0 -132 4 -207t14 -242q1 -21 -12.5 -36.5t-34.5 -16.5t-36.5 12.5t-16.5 34.5q-10 169 -14 243.5t-4 212.5q0 135 11 248q2 21 18 34t37 11t34 -18t11 -37z" />
    <glyph glyph-name="m" unicode="m" horiz-adv-x="764" 
d="M418 353q3 -58 4 -169t1 -130q0 -21 -14 -36t-35 -15t-36 14t-15 35q-1 36 -1 102t-1 119.5t-4 101.5q-2 30 -5 33q-22 27 -72 22q-53 -6 -75 -38q-6 -10 -11 -20t-11.5 -26.5t-12.5 -29.5q1 -46 5.5 -135t5.5 -132q1 -20 -13.5 -35t-35 -16t-35.5 13.5t-16 35.5
q-1 37 -4 103l-5 112q-2 45 -2 106t4 111q2 21 17.5 34.5t36.5 11.5q30 -3 42 -31q44 29 99 35q45 5 88.5 -8.5t72.5 -48.5l2 -3q23 21 47 34q71 39 162 14q56 -15 80 -59q5 -10 9 -22t5.5 -24t2 -20t0.5 -18v-13q2 -46 3 -98t2 -115.5t2 -98.5q0 -21 -14 -36t-35 -15
t-36 14t-15 35q-1 35 -1.5 98t-2 114.5t-3.5 97.5q0 8 -0.5 17.5t-0.5 14t-0.5 9t-1 7t-2.5 5.5q-4 7 -18 11q-52 14 -88 -5q-27 -15 -69 -63z" />
    <glyph glyph-name="n" unicode="n" horiz-adv-x="518" 
d="M34 349q1 79 0 125q0 21 14.5 36t35 15t35.5 -14.5t15 -34.5v-8q19 18 33 26q32 19 75 27t83 0q48 -8 83 -40t40 -87q4 -49 6 -105.5t3 -126t2 -106.5q1 -21 -13.5 -36t-35 -16t-35.5 13.5t-16 34.5q-1 38 -2 105.5t-2.5 123t-6.5 105.5q-2 30 -41 37q-22 4 -47 -0.5
t-43 -14.5q-13 -8 -49 -50l-34 -41q-1 -175 5 -271q1 -20 -12.5 -36t-34 -17t-36.5 12.5t-17 34.5q-6 96 -5 275q-3 0 -2 17z" />
    <glyph glyph-name="o" unicode="o" horiz-adv-x="535" 
d="M147 385q-48 -49 -43 -132q4 -67 41 -110t94 -42q76 0 115 76q19 35 22.5 76.5t-9.5 75.5q-25 66 -56 83q-9 1 -40 7q-35 -2 -100 -30q-12 -6 -24 -4zM279 519q20 0 39 -4q93 -21 141 -150q21 -58 16 -119t-33 -115q-30 -58 -82 -93q-53 -36 -121 -37q-54 0 -98.5 21.5
t-72.5 57.5t-44 79t-19 88q-2 45 9 89.5t35 84t66.5 67t98.5 34.5q27 4 65 -3z" />
    <glyph glyph-name="p" unicode="p" horiz-adv-x="567" 
d="M139 435v-2q-3 -18 -4 -51v-58v-34q-2 -75 -2 -138q3 -4 5 -5h2q3 0 11 2q10 2 16 3q108 13 171 42q79 37 70 93q-9 53 -24 72q-14 17 -48 35t-78 29q-88 23 -119 12zM44 -239q-12 162 -12 352q-16 26 1 53q0 60 2 126v34q0 35 1 59q1 38 4 62q2 16 6 28q8 27 30 38
q76 41 207 7q56 -14 103 -40q49 -25 76 -59q32 -39 44 -118q6 -38 -2 -71q-9 -33 -29 -57t-43 -41t-52 -30q-77 -36 -201 -52q-3 0 -9 -1q-11 -2 -16 -3q-11 -2 -21 -1q1 -146 11 -278q1 -21 -12.5 -36.5t-34 -17t-36 12t-17.5 33.5z" />
    <glyph glyph-name="q" unicode="q" horiz-adv-x="546" 
d="M340 368l-12 8q-9 6 -18.5 13t-18.5 13l-33 18q-39 3 -73 -10l-2 -2q-2 -2 -7 -9q-6 -9 -11 -14q-25 -31 -40 -75t-13 -85q4 -88 78 -110q30 -9 44.5 -8t33.5 12l18 13q7 5 14 13.5t11 14.5l15 21q10 15 17 26q4 5 9 10q4 64 13 142q-14 1 -25 9zM479 472
q-13 -105 -19.5 -173.5t-10.5 -165.5t5 -180t31 -152q6 -20 -3.5 -38t-29.5 -24.5t-38 3t-25 29.5q-37 118 -41 283q-12 -10 -28 -19q-40 -25 -79.5 -27.5t-78.5 11.5q-73 22 -110 77t-40 124q-3 61 18 122q21 62 59 107q2 2 6 8q6 9 9 13q19 24 42 33q56 21 120 17
q29 -2 79 -34l32 -22l2 20q3 21 19.5 33.5t37 10t33 -19t10.5 -36.5z" />
    <glyph glyph-name="r" unicode="r" horiz-adv-x="398" 
d="M236 428q-1 1 -3 2l-1 1q-2 2 -3 1q-2 -2 3 -4q2 -1 4 0zM237 427q-21 -21 -39.5 -32.5t-31 -22t-30.5 -36.5q0 -41 1 -144.5t1 -159.5q0 -21 -14.5 -35.5t-35.5 -14.5t-35.5 14.5t-14.5 35.5q0 36 -1.5 233.5t0.5 233.5q0 20 15 34.5t36 14.5q20 0 34.5 -14.5
t14.5 -35.5q39 27 95 33q33 3 64 -23l9 -8q4 -3 5 -4l2 -2q1 -1 3 -2q18 -11 22.5 -31.5t-6 -38t-31 -22t-37.5 5.5q-10 6 -26 21z" />
    <glyph glyph-name="s" unicode="s" horiz-adv-x="500" 
d="M340 385l-23 22q-12 12 -20.5 19.5t-18.5 14.5q-32 19 -65.5 19.5t-61.5 -18t-36 -48.5q-2 -5 0 -10t12 -12q25 -17 94 -36q114 -31 123 -35q84 -31 94 -88q9 -51 -4.5 -94.5t-44 -71t-69 -42.5t-82.5 -11.5t-83 26.5q-23 13 -42.5 29.5t-29.5 27t-29 33.5t-28 33
q-13 16 -11.5 36.5t17 34t36 12t34.5 -16.5l30 -36q17 -21 24 -28.5t19.5 -18t29.5 -20.5q36 -18 68 -12t52 33.5t15 64.5q-9 7 -31 15q-11 4 -114 33q-84 23 -124 50q-75 51 -52 132q19 68 76 104t122.5 34t116.5 -37q12 -8 26 -20t28 -25.5t18 -16.5q16 -14 17 -35
t-12.5 -36.5t-34.5 -16.5t-36 12z" />
    <glyph glyph-name="t" unicode="t" horiz-adv-x="346" 
d="M41 447h-9q-20 2 -33.5 17.5t-12 36t17 34t36.5 12.5q3 0 7 -1q5 66 13 134q3 21 19 33.5t37 10t33.5 -18.5t10.5 -37q-8 -63 -13 -124q40 1 86 5q21 1 36.5 -12t17 -34t-11.5 -36.5t-34 -17.5q-53 -4 -100 -5q-6 -144 4 -272q4 -53 11 -74q6 -17 12 -19q2 1 3 2
q30 23 32 25q18 10 38 5.5t30.5 -22.5t6 -38t-22.5 -31q-3 -1 -5 -3t-6 -5l-11 -9q-29 -23 -59 -24q-45 -1 -72 24.5t-40 61.5q-11 33 -17 99q-11 132 -4 283z" />
    <glyph glyph-name="u" unicode="u" horiz-adv-x="523" 
d="M459 479q-6 -259 5 -428q1 -20 -12.5 -36t-34 -17t-36.5 12.5t-17 34.5l-2 32q-24 -22 -41 -34q-33 -24 -77 -35t-85 -5q-51 6 -86.5 39.5t-38.5 92.5q-2 75 -2 112.5t2 113t2 112.5q0 21 15 35.5t35.5 14.5t35 -15t14.5 -35q0 -38 -2 -111.5t-2 -110.5t2 -112
q1 -17 10 -26t28 -11q22 -3 47.5 3t41.5 18q27 19 97 86q-3 115 1 272q0 21 15 35t36 14t35 -15t14 -36z" />
    <glyph glyph-name="v" unicode="v" horiz-adv-x="501" 
d="M441 466q-10 -49 -74 -232q-29 -83 -50 -136q-12 -30 -21 -48q-5 -11 -9 -18q-10 -16 -24 -24q-27 -14 -58 -9.5t-52 23.5q-7 7 -14 19q-4 6 -8 16q-8 16 -18 43q-19 46 -45 118q-56 157 -66 196q-4 20 6.5 38t30.5 22.5t38 -6t23 -30.5q8 -34 62 -186q26 -71 44 -115
l9 -24l9 22q22 53 49 132q61 177 70 219q4 20 21.5 31.5t37.5 7.5t31.5 -21.5t7.5 -37.5z" />
    <glyph glyph-name="w" unicode="w" horiz-adv-x="725" 
d="M665 470q-6 -40 -19 -89.5t-21 -75.5t-29.5 -91t-23.5 -74q-5 -13 -13 -32q-9 -19 -10 -23q0 -2 -1 -4v-7q-1 -8 -2 -11q-3 -20 -11 -32q-10 -16 -26.5 -23t-36.5 -3q-47 12 -87 79q-27 44 -53 117l-15 43l-30 -104l-10 -30q-1 -3 -3 -8l-4 -9l-2 -8q-1 -1 -1 -4
q-2 -18 -2 -19q-3 -19 -11 -32q-10 -16 -27 -23.5t-37 -1.5q-45 12 -82 80q-23 43 -47 119q-34 107 -54 214q-4 20 7.5 37t32 21t37.5 -7.5t21 -32.5q20 -104 51 -202q15 -47 30 -80q3 6 5 14l23 78l24 84q8 30 18.5 74t16.5 80q3 21 19.5 33.5t37 9t33 -20t8.5 -36.5
q-1 -13 -4 -26l2 -6q22 -105 57 -203q20 -56 40 -91l2 5q6 13 8 21l25 76l29 88q7 24 18.5 70t18.5 82q3 21 20 33t37.5 8.5t32.5 -20.5t8 -37z" />
    <glyph glyph-name="x" unicode="x" horiz-adv-x="511" 
d="M212 353q65 89 112 162q11 17 31 21.5t37.5 -6.5t22 -31t-6.5 -38q-42 -66 -134 -193q71 -92 164 -188q14 -15 14 -36t-15 -35t-36 -14t-35 15q-85 89 -154 174q-69 -97 -111 -171q-10 -18 -30 -23q-20 -6 -38 4.5t-23.5 30.5t5.5 38q48 85 134 205q-75 106 -119 204
q-9 19 -2 38.5t26 28t38.5 1.5t27.5 -26q36 -77 92 -161z" />
    <glyph glyph-name="y" unicode="y" horiz-adv-x="503" 
d="M442 486l-34 -116l-39 -128q-15 -50 -43 -125t-55.5 -128t-69.5 -111.5t-91 -101.5q-15 -14 -35.5 -13t-34.5 16.5t-13 36t17 34.5q102 92 173 262q-117 143 -216 336q-9 19 -2.5 38.5t25 29t38 3t29.5 -24.5q78 -155 167 -272l47 156l41 138q6 20 24.5 29.5t38.5 3.5
t29.5 -24.5t3.5 -38.5z" />
    <glyph glyph-name="z" unicode="z" horiz-adv-x="643" 
d="M118 498l112 19q32 6 119 21l54 9l17 3q3 1 5 1q1 0 2 1h3h2h3q4 0 8 -1q22 -4 33 -23q14 -21 7 -48q-3 -14 -12 -28q-10 -18 -31 -41q-14 -15 -33 -33q-4 -3 -8 -7l-6 -6l-3 -3q-34 -34 -155 -168l-83 -93q2 0 3 1q212 28 370 58q20 4 37 -8q17 -11 21 -31.5t-7.5 -37.5
t-32.5 -21q-165 -32 -374 -60q-4 0 -10.5 -1.5t-22.5 -3.5t-27 -2q-31 0 -52 12q-36 19 -42 60q-1 14 4 27q1 3 4 7q2 3 4 7l10 13l31 36l93 104l156 170l-71 -12l-112 -19q-20 -4 -37 8t-20.5 32.5t8.5 37.5t33 20z" />
    <glyph glyph-name="braceleft" unicode="{" horiz-adv-x="356" 
d="M262 664q-70 -14 -95 -49q-19 -26 -18 -78q0 -14 3 -51t3 -56q1 -70 -30 -111q-4 -7 -11 -12.5t-12.5 -9t-14.5 -7t-13 -4.5l-14 -5q-9 -3 -10 -3q-17 -6 -23 -10l-1 -1q0 -6 26 -17q1 -1 12 -5.5t16.5 -7t15 -8t17 -11.5t12.5 -13q33 -44 34 -113q0 -19 -2 -54
q-3 -35 -3 -50q0 -48 19 -74q27 -35 103 -52q11 -3 17 -12.5t3.5 -20.5t-12 -17t-20.5 -4q-95 21 -134 72q-32 41 -31 109q0 16 3 53q2 32 2 49q-1 51 -23 80l-4 4q-2 2 -5 4t-5.5 3.5t-7.5 3.5t-8 3.5t-10 4.5t-11 5l-18 9q-8 3 -19 11.5t-17 20.5t-6 27q0 28 25 46
q12 9 38 17q43 14 48 21q19 27 19 79q0 14 -3 51t-4 55q-1 70 29 111q37 53 130 71q11 2 20.5 -4.5t11.5 -17.5t-4.5 -20.5t-17.5 -11.5z" />
    <glyph glyph-name="bar" unicode="|" horiz-adv-x="175" 
d="M115 768q0 -62 1 -256t0 -324.5t-5 -255.5q0 -12 -9.5 -20.5t-21.5 -8.5t-20.5 9.5t-8.5 21.5q4 125 5 255.5t0 323t-1 255.5q0 12 9 21t21 9t21 -9t9 -21z" />
    <glyph glyph-name="braceright" unicode="}" horiz-adv-x="373" 
d="M17 -134q73 15 99 50q19 27 18 78q-1 10 -4 50q-3 36 -3 55q-1 70 31 112q5 6 11.5 11.5t12.5 9t15 7t13.5 5t14 4t10.5 3.5q17 5 23 9l1 1q0 2 -0.5 3t-7 5.5t-18.5 9.5q-1 0 -13 5l-16 8q-6 2 -15.5 7.5t-17 11.5t-12.5 13q-33 45 -33 113q0 19 3 53.5t3 49.5
q2 48 -18 74q-26 36 -102 55q-11 3 -17 13t-3 21t13 17t21 3q95 -24 133 -76q30 -41 29 -108q-1 -17 -4 -53q-3 -32 -3 -49q0 -50 22 -79q2 -3 4 -4.5t5 -3.5t5.5 -3.5t7.5 -4t8.5 -4t10.5 -4t11 -4.5q11 -5 18.5 -9t18.5 -12.5t17 -20.5t6 -27q-1 -29 -25 -46
q-12 -8 -39 -17q-44 -14 -49 -21q-20 -27 -20 -77q0 -14 3 -51t4 -54q1 -70 -28 -111q-39 -53 -132 -72q-12 -2 -21.5 4t-11.5 17.5t4 21t17 11.5z" />
    <glyph glyph-name="asciitilde" unicode="~" horiz-adv-x="663" 
d="M-3 233q83 124 172 121q12 -1 23.5 -3t23.5 -7l20 -8q8 -4 21 -12.5t17 -11.5l16 -12q13 -9 14 -9q55 -40 85 -39q52 3 125 96q13 17 34 19t37.5 -10.5t18.5 -33.5t-10 -37q-102 -129 -200 -134q-29 -2 -60.5 8.5t-48 21t-40.5 27.5q-41 29 -51 35q-15 9 -28 9
q-34 1 -85 -76q-12 -17 -32.5 -21t-37.5 7.5t-21 32t7 37.5z" />
    <glyph glyph-name="exclamdown" unicode="&#xa1;" horiz-adv-x="258" 
d="M99 489q-15 17 -13 39q3 26 5 40q1 9 3 14q1 5 3 9q5 12 14 20q13 12 31 12q20 1 35 -11q10 -9 15 -23q2 -6 4 -15q1 -8 2 -23q0 -11 0.5 -26.5t0.5 -27.5v-23v-12q0 -21 -14 -36t-35 -15t-36 14t-15 35v5v11v13zM70 -238q2 51 7.5 137t8 133.5t4.5 132t-3 132.5
q-1 21 12.5 36.5t34.5 16.5t36.5 -12.5t16.5 -34.5q5 -50 3 -138t-4.5 -137.5t-7.5 -135.5q-5 -72 -8 -134q-1 -21 -16.5 -35t-36 -13t-34.5 16.5t-13 35.5z" />
    <glyph glyph-name="cent" unicode="&#xa2;" horiz-adv-x="551" 
d="M172 117q53 175 112 346q-59 7 -106 -34t-66 -111q-18 -63 -2 -118t62 -83zM386 398q-7 8 -15 20l-10 17q-8 11 -12 14q-3 2 -5 3q-61 -175 -115 -353q50 -5 88 12q11 5 19.5 9.5t17 12t13.5 12.5l18 19l21 22q15 15 35.5 15t35.5 -14.5t15 -35t-14 -35.5l-20 -20
q-13 -15 -20.5 -22t-20.5 -18t-27.5 -20t-32.5 -17q-72 -31 -156 -17l-22 -76q-3 -12 -14 -18t-23 -3t-18 14t-3 23l22 78q-48 22 -80.5 60t-45 81.5t-14.5 91.5t12 91q12 46 37.5 87.5t61 74.5t85 48.5t104.5 6.5q1 0 15 -2l19 52q4 12 15.5 17t23 1t16.5 -15.5t1 -22.5
l-16 -45q14 -6 26 -13q21 -14 41 -43l12 -18q5 -8 8 -12q13 -16 10.5 -36.5t-18.5 -33.5t-36.5 -10.5t-33.5 18.5z" />
    <glyph glyph-name="sterling" unicode="&#xa3;" horiz-adv-x="565" 
d="M375 494v19l1 5v8v10q-9 26 -40.5 46t-76.5 25t-80 -7t-49 -35q-13 -21 -16 -38q-4 -17 -1 -28t12 -26q3 -6 15.5 -23.5t25 -37.5t21.5 -40h139q12 0 20.5 -8.5t8.5 -20.5t-8.5 -20.5t-20.5 -8.5h-60h-61q16 -92 -44 -196q37 -1 106 -20q36 -10 52.5 -13.5t41 -5t42 5.5
t35.5 23q13 11 30 10t28 -14t10 -30t-14 -28q-24 -21 -51 -32.5t-48.5 -15t-50 -0.5t-44.5 7l-43 11q-7 2 -10 3q-33 10 -53.5 13.5t-46.5 2t-49 -11.5l-11 -15q-16 -22 -43 -20q-26 -9 -44 12q-10 12 -10 27t9 26q3 8 8 15l24 32l21 30q13 18 20 30l16 28q9 17 13 30.5
t7 28.5t2.5 30t-4.5 29q-1 5 -2 9q-40 1 -75 2q-12 0 -20 9t-8 21t9 20t21 8q20 -1 42 -1q-22 30 -33 49q-55 95 6 194q34 55 97 76t129.5 13t123 -43t76.5 -95q7 -19 6 -45q0 -1 -1 -15v-10q1 -21 -13.5 -36t-35 -16t-35.5 13.5t-16 34.5z" />
    <glyph glyph-name="currency" unicode="&#xa4;" horiz-adv-x="552" 
d="M271 486q-71 5 -114.5 -40t-50.5 -115q-5 -55 15 -98q11 -2 17 -11q7 -9 6 -21q26 -25 66 -22q25 2 43 12.5t48 35.5q50 42 64 75q12 25 5.5 58.5t-29.5 67.5q-25 37 -60 59q-5 -1 -10 -1zM405 239q6 -8 11 -14t6.5 -8.5t3.5 -4.5l2 -2q2 -2 9 -7l26 -19q9 -7 10.5 -19
t-5.5 -21.5t-19 -11t-22 5.5l-24 18l-14 11q-3 3 -29 35q-9 -9 -21 -19q-24 -20 -36.5 -29t-37.5 -20t-51 -13q-67 -5 -112 39l-1 -1q-1 -1 -2.5 -3t-7 -10t-14.5 -19q-7 -10 -19 -11.5t-21.5 5.5t-11 19t5.5 21q28 38 29 39q3 3 9 8q-28 57 -20 129q6 64 40 116
q-2 3 -10 13t-11 14.5t-10 14t-10 15.5l-8 17q-4 10 -7 19.5t-5 19.5q-2 12 5 22t19 12t22 -5t12 -19q2 -14 8.5 -28t12.5 -22l20 -28q16 13 33 23q-4 6 -4 13q0 12 8 21t20 9q3 0 15 1t19 1t20 -1q62 -8 118 -64q32 46 89 95q9 8 21 7t20 -10t7 -21t-10 -20
q-58 -49 -88 -96q0 -1 -2 -2q27 -42 35 -85.5t-9 -90.5q-8 -17 -20 -34q3 -2 6 -5z" />
    <glyph glyph-name="yen" unicode="&#xa5;" horiz-adv-x="559" 
d="M43 307q51 2 112 2l-19 35l-26 52q-11 0 -26.5 -1t-45.5 -1q-17 -1 -29 10.5t-13 28t10.5 28.5t27.5 13l37 2q-63 131 -83 176q-8 19 -0.5 38.5t27 28t39 1t28.5 -27.5q21 -49 89 -188l56 -113l4 -9q23 24 84 139q18 32 49 92l40 78q11 18 31 24t38.5 -4.5t24.5 -30.5
t-4 -39q-10 -17 -40.5 -76.5t-48.5 -91.5l-3 -6h46q17 0 28.5 -11.5t11.5 -28.5t-11.5 -28.5t-28.5 -11.5q-71 0 -91 -1q-33 -55 -54 -76l-5 -6q2 1 4 1q50 2 121 2q17 0 28.5 -11.5t11.5 -28.5t-11.5 -28.5t-28.5 -11.5q-69 0 -117 -2q-22 -1 -34 17q7 -180 8 -247
q0 -21 -14.5 -36.5t-35.5 -15.5t-36.5 14.5t-15.5 35.5q-1 69 -8 236h-6q-69 0 -117 -2q-17 -1 -29 10.5t-13 28t10.5 28.5t27.5 13z" />
    <glyph glyph-name="brokenbar" unicode="&#xa6;" horiz-adv-x="192" 
d="M126 325q3 -52 3 -148q0 -99 2 -144q1 -17 -10.5 -29t-28 -13t-28.5 10.5t-13 27.5q-2 46 -2 148q0 94 -3 144q-1 16 10 28.5t27.5 13.5t29 -10t13.5 -28zM133 721q1 -24 -2 -131q-2 -82 0 -126q1 -17 -10.5 -29t-28 -13t-28.5 10.5t-13 27.5q-2 48 1 132q2 88 1 127
q0 17 11.5 29t28 12t28.5 -11.5t12 -27.5z" />
    <glyph glyph-name="section" unicode="&#xa7;" horiz-adv-x="540" 
d="M215 382q-79 -23 -102 -64q-5 -8 -4 -11q1 -5 11 -14q21 -19 93 -51q99 -44 129 -63l9 -5q5 6 13 14l15 14q12 12 15 19q17 45 -9 74q-25 27 -99 58l-69 28zM373 533q-6 12 -9 21.5t-5 14t-6 9.5q-23 29 -66 39t-87 -2q-44 -11 -63 -32.5t-13 -40.5q8 -30 61 -58
q17 -9 40 -19q11 -2 20 -9l2 -1l70 -28q91 -38 127 -78q59 -65 24 -156q-9 -24 -32 -47l-16 -16l-10 -10q17 -22 24 -47q14 -54 6 -94q-6 -33 -35.5 -58.5t-65.5 -41.5q-36 -15 -69 -20q-42 -6 -70 7q-19 10 -39.5 25.5t-42 34.5t-28.5 24q-13 11 -15 27t8.5 29.5t26.5 15.5
t30 -8l34 -30q19 -17 32.5 -28t29.5 -18q5 -3 22 0q23 3 48 14q18 8 31.5 17.5t18.5 15.5t6 8q4 23 -6 60q-7 28 -56 58q-30 18 -119 58q-85 38 -114 64q-28 25 -36 55q-8 35 12 70q26 43 77 71q-59 40 -74 93q-9 33 0 63t31 51t48 35t55 22q40 8 81.5 8t84.5 -19.5
t71 -55.5q5 -6 10 -16t8.5 -18t6.5 -16t3 -9q7 -15 1.5 -30.5t-20.5 -22.5t-30.5 -1.5t-22.5 20.5z" />
    <glyph glyph-name="dieresis" unicode="&#xa8;" horiz-adv-x="309" 
d="M111 655q0 -17 -11.5 -28.5t-28.5 -11.5t-28.5 11.5t-11.5 28.5t11.5 28.5t28.5 11.5t28.5 -11.5t11.5 -28.5zM250 657q0 -17 -11.5 -28.5t-28.5 -11.5t-28.5 11.5t-11.5 28.5t11.5 28.5t28.5 11.5t28.5 -11.5t11.5 -28.5z" />
    <glyph glyph-name="copyright" unicode="&#xa9;" horiz-adv-x="770" 
d="M540 682q-5 24 16 37q12 8 26.5 5t22.5 -16q40 -61 68.5 -143t36.5 -171.5t-19 -163.5q-11 -32 -36 -62.5t-44.5 -47t-50.5 -39.5q-75 -54 -162.5 -68.5t-173 15.5t-147.5 102q-51 58 -72.5 124t-14.5 127t33 116.5t70 101.5q56 58 128 91.5t157.5 33.5t161.5 -42z
M522 610q-62 39 -133 42.5t-133.5 -24t-111 -78.5t-70.5 -112t-9 -130.5t66 -131.5q49 -57 117 -81t138.5 -12.5t131.5 56.5q43 31 69 57.5t38 57.5q18 52 15 117t-21 130t-47 122q0 -1 -1 -2q-8 -13 -22.5 -16t-26.5 5zM430 456l-30 27q-9 8 -12 10q-6 4 -38 5
q-50 3 -82.5 -37.5t-33.5 -105.5q-1 -62 28 -100q30 -37 83 -30q34 5 51 23.5t38 64.5q6 15 21 21t29.5 -0.5t20.5 -21.5t-1 -29q-12 -28 -21.5 -45t-27 -38.5t-42.5 -34t-58 -16.5q-97 -13 -153 59q-47 59 -45 149q1 39 13 77.5t35.5 72t62 52.5t86.5 17q52 -4 74 -17
q9 -6 24 -19q18 -16 28 -24q12 -10 13.5 -26t-8.5 -28.5t-26 -14t-29 8.5z" />
    <glyph glyph-name="ordfeminine" unicode="&#xaa;" horiz-adv-x="427" 
d="M222 660q-57 23 -99 1q-37 -19 -54 -66q-17 -46 -5 -85q13 -40 49 -51q31 -9 54 6q17 12 48 55q5 6 13 9v42v48v39q-3 0 -6 2zM294 694v-123v-72q1 -15 1 -23v-3h1q11 14 18 19q11 9 24.5 7.5t22.5 -12.5t7.5 -24.5t-12.5 -22.5l-4 -4q-1 -1 -4 -4.5t-7 -7.5
q-20 -21 -44 -22t-44 18q-11 11 -19 27q-18 -19 -34 -31q-46 -31 -105 -13q-34 10 -56.5 34.5t-30.5 54.5t-6.5 62.5t11.5 61.5q26 68 83 97q64 33 142 4q9 9 22 9q14 1 24 -8.5t10 -23.5z" />
    <glyph glyph-name="guillemotleft" unicode="&#xab;" horiz-adv-x="498" 
d="M430 379q-31 -29 -89 -77q-20 -16 -26 -22q4 -7 14 -17q7 -8 88 -82q9 -8 10 -20.5t-7.5 -21.5t-21 -10t-21.5 8q-83 75 -92 85q-37 39 -29 71q2 11 11.5 22.5t15.5 17t20 16.5q56 46 85 74q9 8 21.5 8t21 -9t8.5 -21.5t-9 -21.5zM245 382q-36 -32 -92 -72
q-23 -16 -29 -22q3 -6 12 -17q11 -13 85 -87q9 -9 9 -21t-9 -21t-21 -9t-21 9q-76 76 -89 91q-35 41 -23 73q3 11 13.5 22t16.5 15.5t21 14.5q54 39 87 68q9 9 21.5 8t21 -10t7.5 -21.5t-10 -20.5z" />
    <glyph glyph-name="logicalnot" unicode="&#xac;" horiz-adv-x="571" 
d="M35 404q13 0 91.5 1.5t129.5 1.5q82 1 130 0q29 0 46 -2q24 -1 34 -6q27 -13 37 -38q6 -15 8 -49q2 -25 2 -63q0 -44 -2 -110q0 -12 -9.5 -20.5t-21.5 -8.5t-20.5 9.5t-8.5 21.5q2 64 2 108q0 35 -2 59q-2 25 -4 31q-1 3 -5 5h-2q-1 0 -4.5 0.5t-7.5 0.5q-16 2 -43 2
q-47 1 -128 0q-51 0 -130 -1.5t-92 -1.5q-12 0 -21 9t-9 21t9 21t21 9z" />
    <glyph glyph-name="registered" unicode="&#xae;" horiz-adv-x="770" 
d="M540 682q-5 24 16 37q12 8 26.5 5t22.5 -16q40 -61 68.5 -143t36.5 -171.5t-19 -163.5q-11 -32 -36 -62.5t-44.5 -47t-50.5 -39.5q-75 -54 -162.5 -68.5t-173 15.5t-147.5 102q-51 58 -72.5 124t-14.5 127t33 116.5t70 101.5q56 58 128 91.5t157.5 33.5t161.5 -42z
M369 390q21 7 37 17q27 19 29 43q2 21 -9 30q-14 10 -48 13q-33 3 -118 -5q-1 -52 -1 -100q11 3 27 4q27 2 63 0zM522 610q-62 39 -133 42.5t-133.5 -24t-111 -78.5t-70.5 -112t-9 -130.5t66 -131.5q49 -57 117 -81t138.5 -12.5t131.5 56.5q43 31 69 57.5t38 57.5
q18 52 15 117t-21 130t-47 122q0 -1 -1 -2q-8 -13 -22.5 -16t-26.5 5zM223 565q7 0 42 3.5t58.5 5t60.5 -0.5q58 -5 91 -30q45 -35 40 -99q-4 -51 -45 -88q28 -30 31 -81q1 -16 0 -37q-2 -27 -2 -29q0 -17 -12 -28t-29 -11t-28 12t-11 29q0 3 2 32q1 17 0 27q-1 21 -9 30h-2
q-2 1 -6 2.5t-9 2.5q-9 2 -20 4q-13 -3 -26 -5q-6 0 -26 -4q-24 -4 -35 -6q-18 -2 -29 -1l2 -97q1 -13 -8 -22t-21.5 -9.5t-21.5 8.5t-9 21q-5 142 -2 300q-13 12 -14 29t10 29t28 13z" />
    <glyph glyph-name="macron" unicode="&#xaf;" horiz-adv-x="385" 
d="M-1 675q21 2 41.5 3.5t44.5 2.5t41.5 1t45.5 -0.5t40.5 -0.5t44 -1t40.5 -1q12 0 20.5 -9t8.5 -21.5t-9 -21t-22 -8.5q-8 0 -40 1t-44 1t-40 0.5t-44 0.5t-39 -1t-42.5 -2.5t-38.5 -3.5q-13 -1 -22.5 6.5t-11 20t6 22t19.5 11.5z" />
    <glyph glyph-name="degree" unicode="&#xb0;" horiz-adv-x="373" 
d="M124 626q-22 -18 -30.5 -43.5t-4.5 -52.5q5 -33 28 -54.5t58 -21.5q44 0 69.5 36t20.5 82q-4 44 -34 61q-37 22 -100 -6q-4 -1 -7 -1zM243 682q6 -3 13 -6q51 -31 58 -99q4 -40 -9.5 -78.5t-47.5 -66.5t-82 -28q-55 0 -91 34.5t-44 84.5q-7 49 15 94.5t72 67.5
q31 13 52.5 14t55.5 -11q4 -2 8 -6z" />
    <glyph glyph-name="plusminus" unicode="&#xb1;" horiz-adv-x="628" 
d="M241 283h-210q-12 0 -21 9t-9 21t9 21t21 9h206q-2 27 -4.5 78.5t-2.5 56.5q-1 13 7.5 22t21 10t21.5 -7.5t10 -20.5q1 -16 2 -44t2.5 -51.5t2.5 -43.5h242q12 0 21 -9t9 -21t-9 -21t-21 -9h-238q6 -67 16 -121q2 -12 -5.5 -22t-19.5 -12.5t-22 5t-13 19.5
q-10 58 -16 131zM43 64q86 25 240 19q37 -2 117.5 -7t117.5 -6q12 0 20.5 -9t8.5 -21.5t-9 -21t-22 -8.5q-37 1 -117.5 6t-118.5 7q-144 5 -221 -17q-12 -3 -22.5 3t-14 18t2.5 22.5t18 14.5z" />
    <glyph glyph-name="uni00B2" unicode="&#xb2;" horiz-adv-x="384" 
d="M14 639q26 24 63.5 40.5t70.5 16.5q47 -1 68.5 -35t6.5 -93q-7 -29 -59 -95q-71 -90 -78 -101q-16 -22 -22 -36q22 0 64 13q37 11 73 24q13 4 27 9l30 12q17 6 27 9q11 5 22.5 -0.5t16 -17t-1 -23t-17.5 -15.5l-84 -32l-75 -24q-51 -15 -81 -16q-42 -1 -58 26
q-13 23 1 57q8 20 28 49q10 15 81 104q44 55 48 71q8 34 1 47q-4 6 -18 6q-21 0 -48 -12t-46 -28q-9 -9 -21.5 -8.5t-21 10t-8 22t10.5 20.5z" />
    <glyph glyph-name="uni00B3" unicode="&#xb3;" horiz-adv-x="361" 
d="M25 673q22 17 57.5 27t66.5 9q42 0 62 -22q27 -31 1 -77q-5 -10 -14 -20q48 -9 75 -35q41 -40 26 -107q-7 -30 -41 -62q-30 -29 -68 -49q-43 -23 -80 -26q-51 -4 -79 28q-10 12 -17 32l-4 13q-2 6 -4 9q-5 11 -0.5 23t16 17t23.5 0.5t17 -16.5q2 -6 5 -14q0 -1 1.5 -5.5
t2.5 -6.5q3 -9 6 -12q8 -9 27 -7q25 2 57 19q32 16 55 38q21 20 23 33q8 33 -9 49q-17 17 -59 22q-19 2 -31 1q-1 0 -28 -11q-15 -5 -24 -6q-22 0 -31 17q-8 15 0 32q11 24 46 36q25 8 28 10q22 15 29 28q2 4 3 7q-6 2 -15 2q-22 0 -48 -7.5t-39 -16.5q-10 -8 -22.5 -6
t-20 12t-5.5 22.5t12 19.5z" />
    <glyph glyph-name="acute" unicode="&#xb4;" horiz-adv-x="274" 
d="M207 697q-66 -76 -107 -117q-10 -10 -24 -10t-24 10t-10 24t10 24q39 39 105 113q9 11 23 12t24.5 -8.5t11.5 -23.5t-9 -24z" />
    <glyph glyph-name="uni00B5" unicode="&#xb5;" horiz-adv-x="573" 
d="M-65 -158q7 55 22 122t28 114t36 122.5t32 109.5l14 50q5 27 11 47q1 4 4 13l19 78q1 3 3 16q0 3 1 8.5t1.5 10t0.5 7.5q3 20 7 29q4 10 10 17q22 24 52 15q20 -5 31 -23q3 -6 5 -13q8 -24 2 -60q-4 -22 -14 -52l-16 -47l-6 -14l-14 -55q-14 -69 -18 -132q-3 -57 3 -94
q5 -26 13 -36q5 2 13.5 8.5t16 14l16.5 16.5q7 9 12 14q53 54 96.5 126t65.5 143v1l9 47q6 31 11 50q3 12 6 20q2 7 4 11q7 13 17 21q2 2 6.5 4.5t18 6.5t25.5 -2q24 -8 32 -31q4 -10 4 -21q-1 -12 -7 -31q-1 -2 -9 -23q-4 -11 -4 -14q-12 -52 -15 -63l-2 -8v-4q-1 -3 -1 -5
q-10 -38 -26 -88q-17 -51 -25 -82q-6 -25 -9.5 -38t-5.5 -28.5t-2.5 -22t-2 -31t-2.5 -42.5q-2 -21 -17.5 -34.5t-36 -12t-34 17t-12.5 35.5q1 17 3 44l-15 -16l-6 -7l-14 -14q-6 -7 -16.5 -16.5t-19.5 -16.5q-73 -56 -132 -11q-17 13 -29 33q-30 -112 -40 -196
q-3 -21 -19 -33.5t-37 -10t-33.5 18.5t-10.5 37z" />
    <glyph glyph-name="paragraph" unicode="&#xb6;" horiz-adv-x="543" 
d="M68 567q11 10 27 22q26 19 69 47q-32 -11 -58 -29q-22 -15 -38 -40zM412 708l44 -3q12 -1 20.5 -10t7.5 -21.5t-10 -21t-22 -7.5q-11 1 -26 2q-7 -60 -8 -131.5t2 -125.5t9 -137t8 -131q2 -35 2 -75t-1 -89t-1 -75q0 -12 -9 -21t-21 -9t-21 9t-9 21l1 118q2 118 -1 119
q-2 44 -7 127l-10 138q-3 55 -2 129.5t9 136.5q-71 4 -115 1q-8 -24 -11 -58t-3 -53.5t2 -69t2 -59.5q2 -80 2.5 -163.5t0 -207.5t-0.5 -164q0 -12 -9 -21t-21 -9t-21 9t-9 21q0 20 0.5 202t-0.5 202h-5q-61 3 -79 10q-58 21 -88 69t-32 106q-1 56 23 108t69 83
q44 30 103 44t111.5 12.5t108.5 -4.5q5 2 11 1zM182 418q-6 -14 -16 -35q-1 -2 -23 -34q-2 -3 -5 -5q5 -1 45 -3h1l-2 69v8zM157 559q7 -5 11 -12q7 -12 10 -22q0 27 1 49zM173 478q4 -2 6 -5v15l-2 -4zM67 479q-11 2 -20 10q-3 3 -5 6q-2 -14 -2 -27q2 -68 48 -103
q0 10 5 18q5 6 11 14t8 12l3 6q-16 0 -28 7q-16 11 -20 32q-3 13 0 25z" />
    <glyph glyph-name="periodcentered" unicode="&#xb7;" horiz-adv-x="230" 
d="M172 344q0 -24 -17.5 -41.5t-41.5 -17.5t-41.5 17.5t-17.5 41.5t17.5 41.5t41.5 17.5t41.5 -17.5t17.5 -41.5z" />
    <glyph glyph-name="cedilla" unicode="&#xb8;" horiz-adv-x="296" 
d="M67 -47q2 2 4 3q8 6 15.5 11t9.5 7t5 4t5.5 4.5l5.5 5.5l12 10q8 7 17 16q7 6 17 5.5t16.5 -7.5t6 -17t-7.5 -17l-16 -14q22 -3 39 -12q24 -13 34.5 -36t5.5 -48q-10 -51 -64 -72q-55 -20 -131 6q-12 4 -17 15.5t-1 23t15.5 16.5t22.5 1q41 -16 67 -11t37 14t12 19
q3 12 -10 19q-25 14 -80 -3q-12 -3 -23 2.5t-15 17.5q-3 12 2 22.5t16 14.5z" />
    <glyph glyph-name="uni00B9" unicode="&#xb9;" horiz-adv-x="258" 
d="M30 616q30 10 49.5 23t41.5 38q1 0 1 0.5v1.5l2 4l4 7q16 28 43 27q10 -1 17 -6.5t9 -11.5l2 -5q1 -4 1 -8q0 -1 -1 -3v-2v-2l-1 -3l-2 -10q-4 -18 -7 -33q-10 -51 -11 -79q-4 -1 -2 -106t2 -106q0 -13 -9 -22t-22 -9t-22 9t-9 22q0 23 -1 67.5t-1 80.5t2 68q1 15 4 34
q-28 -20 -70 -34q-12 -4 -23.5 1.5t-15.5 17.5t1.5 23.5t17.5 15.5z" />
    <glyph glyph-name="ordmasculine" unicode="&#xba;" horiz-adv-x="372" 
d="M103 650q-29 -25 -38 -59.5t2 -63.5q12 -38 42.5 -58t68.5 -11q39 8 60 50.5t13 90.5q-8 45 -39 62q-38 20 -104 -10q-2 -1 -5 -1zM232 718l8 -4q57 -30 70 -104q8 -42 -2 -85.5t-40.5 -79.5t-75.5 -47q-65 -14 -115 19.5t-68 91.5q-18 59 4 118t87 93q1 1 5 3q6 3 9 5
q14 8 28 8q12 1 26 -1t29 -5t18 -4q10 -1 17 -8z" />
    <glyph glyph-name="guillemotright" unicode="&#xbb;" horiz-adv-x="494" 
d="M262 179q32 33 86 79q22 18 27 24q-4 6 -13 16q-14 14 -92 79q-10 8 -11 20.5t7 22t20.5 10.5t21.5 -7q80 -67 96 -83q39 -38 30 -72q-3 -10 -12.5 -22t-15 -17.5t-19.5 -16.5q-52 -44 -81 -75q-9 -9 -21.5 -9t-21.5 8.5t-9 21t8 21.5zM70 172q32 37 83 81q22 19 27 26
q-4 5 -13 14q-15 15 -95 77q-9 8 -10.5 20.5t6 22t20 11t22.5 -5.5q81 -65 99 -82q39 -38 30 -72q-3 -10 -12.5 -22t-14.5 -16l-19 -18q-48 -42 -79 -76q-8 -9 -20.5 -10t-21.5 7.5t-10 21t8 21.5z" />
    <glyph glyph-name="onequarter" unicode="&#xbc;" horiz-adv-x="791" 
d="M78 607q30 10 49.5 23t41.5 38q1 0 1 0.5v1.5l2 4l4 7q16 28 43 27q10 -1 17 -6.5t9 -11.5l2 -5q1 -4 1 -8q0 -1 -1 -3v-2v-2l-1 -3l-2 -10q-4 -18 -7 -33q-10 -51 -11 -79q-4 -1 -2 -106t2 -106q0 -13 -9 -22t-22 -9t-22 9t-9 22q0 23 -1 67.5t-1 80.5t2 68q1 15 4 34
q-28 -20 -70 -34q-12 -4 -23.5 1.5t-15.5 17.5t1.5 23.5t17.5 15.5zM608 646q-159 -255 -344 -608q-6 -11 -18 -14.5t-23 2t-14.5 17.5t1.5 23q187 355 348 612q6 10 18 13t22.5 -3.5t13.5 -18.5t-4 -23zM672 378q-36 -77 -108 -174l-20 -25q25 7 62 23q8 3 20 9l22 10l16 7
q16 6 27 7q28 3 39 -20l2 -10q1 -2 1 -3v-3q-1 -2 -1 -6q0 -6 -1 -18q-1 -15 -5 -54q-7 -81 -7 -90q-1 -12 -10 -20.5t-21 -8t-20.5 9.5t-8.5 21q1 11 8 94l4 39l-41 -18q-102 -45 -158 -28q-14 4 -20 17q-7 13 0 28q3 8 13 16q4 4 7.5 7t4.5 4t2 1l17 21q11 13 20 26
q69 91 102 162q5 12 16.5 16t23 -1t15.5 -16.5t-1 -22.5z" />
    <glyph glyph-name="onehalf" unicode="&#xbd;" horiz-adv-x="828" 
d="M78 607q30 10 49.5 23t41.5 38q1 0 1 0.5v1.5l2 4l4 7q16 28 43 27q10 -1 17 -6.5t9 -11.5l2 -5q1 -4 1 -8q0 -1 -1 -3v-2v-2l-1 -3l-2 -10q-4 -18 -7 -33q-10 -51 -11 -79q-4 -1 -2 -106t2 -106q0 -13 -9 -22t-22 -9t-22 9t-9 22q0 23 -1 67.5t-1 80.5t2 68q1 15 4 34
q-28 -20 -70 -34q-12 -4 -23.5 1.5t-15.5 17.5t1.5 23.5t17.5 15.5zM570 654q-159 -255 -344 -608q-6 -11 -18 -14.5t-23 2t-14.5 17.5t1.5 23q187 355 348 612q6 10 18 13t22.5 -3.5t13.5 -18.5t-4 -23zM458 354q26 24 63.5 40.5t70.5 16.5q47 -1 68.5 -35t6.5 -93
q-7 -29 -59 -95q-71 -90 -78 -101q-16 -22 -22 -36q22 0 64 13q37 11 73 24q13 4 27 9l30 11q17 7 27 10q11 5 22.5 -0.5t16 -17t-1 -23t-17.5 -15.5l-84 -32l-75 -24q-51 -15 -81 -16q-42 -1 -58 26q-13 23 1 57q8 20 28 49q10 15 81 104q44 55 48 71q8 34 1 47q-4 6 -18 6
q-21 0 -48 -12t-46 -28q-9 -9 -21.5 -8.5t-21 10t-8 22t10.5 20.5z" />
    <glyph glyph-name="threequarters" unicode="&#xbe;" horiz-adv-x="821" 
d="M63 657q20 14 55 24t65 11q43 0 63 -22q27 -30 2 -77q-6 -10 -14 -19q46 -9 73 -36q39 -39 25 -104q-7 -30 -40 -62q-29 -28 -67 -48q-42 -23 -79 -26q-50 -4 -78 28q-10 12 -17 32l-4 13q-2 6 -4 9q-5 11 -0.5 23t16 17t23.5 0.5t17 -16.5q2 -6 5 -14q0 -1 1.5 -5.5
t2.5 -6.5q3 -9 6 -12q8 -9 27 -7q24 2 55 18t54 38q20 20 22 33q8 32 -8 48q-17 16 -57 21q-19 2 -31 1q-1 0 -28 -10q-15 -6 -23 -7q-22 0 -32 18q-7 15 1 32q12 23 46 34q24 8 26 10q21 14 28 28q3 4 4 7q-6 1 -15 1q-22 0 -47.5 -7.5t-38.5 -16.5q-10 -7 -22.5 -5
t-19.5 12.5t-5 23t13 19.5zM637 637q-156 -249 -339 -597q-6 -11 -18 -14.5t-23 2t-14.5 17.5t1.5 23q185 350 343 601q6 10 18 13t22.5 -3.5t13.5 -18.5t-4 -23zM702 379q-36 -77 -108 -174l-10 -12q31 1 52 10q8 3 20 9l22 10l16 7q16 6 27 7q28 3 39 -20l2 -10q1 -2 1 -3
v-3q-1 -2 -1 -6q0 -6 -1 -18q-1 -15 -5 -54q-7 -81 -7 -90q-1 -12 -10 -20.5t-21 -8t-20.5 9.5t-8.5 21q1 11 8 94l4 39l-41 -18q-102 -45 -158 -28q-14 4 -20 17q-7 13 0 28q3 8 13 16q4 4 7.5 7t4.5 4t2 1l17 20q11 14 20 27q69 91 102 162q5 12 16.5 16t23 -1t15.5 -16.5
t-1 -22.5z" />
    <glyph glyph-name="questiondown" unicode="&#xbf;" horiz-adv-x="560" 
d="M500 -15l-3 -15l-3 -21q-7 -34 -22 -56q-30 -45 -88.5 -69.5t-119.5 -23.5q-41 0 -78.5 11t-71.5 40.5t-47 74.5q-17 58 16 123q21 40 70 95q5 6 33 36l41 46q31 38 37 60l-1 7q-1 3 -1 5t-1 4.5t-1 4.5q-2 11 -3 20q-2 20 11.5 36t34 18t36.5 -11.5t18 -34.5q0 -3 1 -9
q3 -15 3 -16q5 -28 -1 -50q-11 -43 -56 -98l-43 -48q-29 -32 -33 -36q-41 -46 -56 -75t-9 -49q7 -25 33.5 -39.5t68 -15t76.5 14.5t49 35q3 5 5 18q1 3 1 7l2 6q0 4 1 7q2 14 5 24q5 20 23 30.5t38 5t30.5 -23.5t4.5 -38zM354 477q0 -26 -19 -45t-45 -19t-45 19t-19 45
t19 45t45 19t45 -19t19 -45z" />
    <glyph glyph-name="Agrave" unicode="&#xc0;" horiz-adv-x="669" 
d="M195 309q45 10 181 31q-21 62 -45 147q-21 76 -22 78q-22 -43 -31 -65zM-13 92q149 327 199 446q11 26 28 61q19 39 25 54q1 0 1 1v1q0 1 0.5 5.5t2.5 12.5q4 18 13 30q19 27 52 26q27 -1 47 -24q9 -11 18 -28q12 -23 25 -62q0 -1 29 -102q44 -155 86 -250l48 -104
q31 -68 46 -110q7 -20 -2 -38.5t-28.5 -25.5t-38 2t-25.5 28q-15 43 -43 102l-49 106l-9 21l-62 -10l-66 -10q-22 -3 -55.5 -10t-62.5 -15q-10 -3 -21 -1l-68 -148q-8 -19 -27.5 -26t-38.5 1.5t-26 28t2 38.5zM223 935q84 -80 120 -119q9 -11 8.5 -24.5t-11 -23t-24 -9
t-23.5 10.5q-34 38 -116 117q-10 9 -10.5 23t9 24t23.5 10.5t24 -9.5z" />
    <glyph glyph-name="Aacute" unicode="&#xc1;" horiz-adv-x="669" 
d="M195 309q45 10 181 31q-21 62 -45 147q-21 76 -22 78q-22 -43 -31 -65zM-13 92q149 327 199 446q11 26 28 61q19 39 25 54q1 0 1 1v1q0 1 0.5 5.5t2.5 12.5q4 18 13 30q19 27 52 26q27 -1 47 -24q9 -11 18 -28q12 -23 25 -62q0 -1 29 -102q44 -155 86 -250l48 -104
q31 -68 46 -110q7 -20 -2 -38.5t-28.5 -25.5t-38 2t-25.5 28q-15 43 -43 102l-49 106l-9 21l-62 -10l-66 -10q-22 -3 -55.5 -10t-62.5 -15q-10 -3 -21 -1l-68 -148q-8 -19 -27.5 -26t-38.5 1.5t-26 28t2 38.5zM388 884q-69 -87 -104 -125q-10 -10 -24 -10.5t-24 9
t-10.5 23.5t8.5 24q34 36 102 121q8 11 22 12.5t25 -7t12.5 -22.5t-7.5 -25z" />
    <glyph glyph-name="Acircumflex" unicode="&#xc2;" horiz-adv-x="669" 
d="M195 309q45 10 181 31q-21 62 -45 147q-21 76 -22 78q-22 -43 -31 -65zM-13 92q149 327 199 446q11 26 28 61q19 39 25 54q1 0 1 1v1q0 1 0.5 5.5t2.5 12.5q4 18 13 30q19 27 52 26q27 -1 47 -24q9 -11 18 -28q12 -23 25 -62q0 -1 29 -102q44 -155 86 -250l48 -104
q31 -68 46 -110q7 -20 -2 -38.5t-28.5 -25.5t-38 2t-25.5 28q-15 43 -43 102l-49 106l-9 21l-62 -10l-66 -10q-22 -3 -55.5 -10t-62.5 -15q-10 -3 -21 -1l-68 -148q-8 -19 -27.5 -26t-38.5 1.5t-26 28t2 38.5zM183 758q5 7 31 46l39 60l13 18l9 14q7 9 14 14q16 12 35 4
q10 -4 18 -15q3 -5 8 -15l24 -40l42 -73q7 -11 3.5 -23t-14.5 -18.5t-23 -3t-18 14.5l-14 23l-14 26l-14 22l-14 23l-5 -7l-39 -58q-25 -39 -29 -46q-7 -11 -19.5 -13.5t-23.5 4.5t-13.5 19.5t4.5 23.5z" />
    <glyph glyph-name="Atilde" unicode="&#xc3;" horiz-adv-x="669" 
d="M195 309q45 10 181 31q-21 62 -45 147q-21 76 -22 78q-22 -43 -31 -65zM-13 92q149 327 199 446q11 26 28 61q19 39 25 54q1 0 1 1v1q0 1 0.5 5.5t2.5 12.5q4 18 13 30q19 27 52 26q27 -1 47 -24q9 -11 18 -28q12 -23 25 -62q0 -1 29 -102q44 -155 86 -250l48 -104
q31 -68 46 -110q7 -20 -2 -38.5t-28.5 -25.5t-38 2t-25.5 28q-15 43 -43 102l-49 106l-9 21l-62 -10l-66 -10q-22 -3 -55.5 -10t-62.5 -15q-10 -3 -21 -1l-68 -148q-8 -19 -27.5 -26t-38.5 1.5t-26 28t2 38.5zM167 812q43 61 93 60q26 -1 75 -30q32 -19 48 -17q26 1 59 45
q7 10 19 12t21.5 -5.5t11.5 -19.5t-6 -21q-49 -66 -101 -70q-34 -2 -82 26q-35 21 -46 22q-19 0 -44 -36q-7 -10 -19 -12t-22 5t-12 19t5 22z" />
    <glyph glyph-name="Adieresis" unicode="&#xc4;" horiz-adv-x="669" 
d="M195 309q45 10 181 31q-21 62 -45 147q-21 76 -22 78q-22 -43 -31 -65zM-13 92q149 327 199 446q11 26 28 61q19 39 25 54q1 0 1 1v1q0 1 0.5 5.5t2.5 12.5q4 18 13 30q19 27 52 26q27 -1 47 -24q9 -11 18 -28q12 -23 25 -62q0 -1 29 -102q44 -155 86 -250l48 -104
q31 -68 46 -110q7 -20 -2 -38.5t-28.5 -25.5t-38 2t-25.5 28q-15 43 -43 102l-49 106l-9 21l-62 -10l-66 -10q-22 -3 -55.5 -10t-62.5 -15q-10 -3 -21 -1l-68 -148q-8 -19 -27.5 -26t-38.5 1.5t-26 28t2 38.5zM278 806q0 -21 -14.5 -35.5t-35.5 -14.5t-35.5 14.5t-14.5 35.5
t14.5 35.5t35.5 14.5t35.5 -14.5t14.5 -35.5zM421 807q0 -21 -14.5 -35.5t-35.5 -14.5t-35.5 14.5t-14.5 35.5t14.5 35.5t35.5 14.5t35.5 -14.5t14.5 -35.5z" />
    <glyph glyph-name="Aring" unicode="&#xc5;" horiz-adv-x="669" 
d="M195 310q45 10 181 31q-21 62 -45 147l-22 78q-22 -43 -31 -65zM-13 92l89 197l110 250q11 26 28 61q19 39 25 53q1 0 1 1v1v3q0 2 1 5.5t2 9.5q4 18 13 30q5 7 11 12q-24 13 -36.5 37.5t-10.5 50.5q3 34 28 57.5t66 26.5q11 2 20 2q37 -2 54.5 -31.5t13.5 -63.5
q-3 -26 -17 -48.5t-38 -32.5l8 -8q9 -11 18 -28q12 -23 25 -62q7 -20 29 -101q44 -155 86 -250l48 -104q31 -68 46 -110q7 -20 -2 -38.5t-28.5 -25.5t-38 2t-25.5 28q-15 43 -43 102l-49 106l-9 21l-62 -9l-66 -10q-22 -4 -55.5 -11t-62.5 -15q-10 -3 -21 -1l-66 -147
q-9 -19 -28 -26.5t-38 1t-26.5 27.5t0.5 38zM340 847q-11 2 -20 1q-4 -1 -9 -2l-28 -8q-22 -13 -24 -38q-2 -22 12 -38.5t40 -16.5q21 0 35 15t17 38q4 39 -21 49h-2z" />
    <glyph glyph-name="AE" unicode="&#xc6;" horiz-adv-x="1012" 
d="M195 309q45 10 181 31q-21 62 -45 147q-21 76 -22 78q-22 -43 -31 -65zM-13 92q149 327 199 446q11 26 28 61q19 39 25 54q1 0 1 1v1q0 1 0.5 5.5t2.5 12.5q4 18 13 30q19 27 52 26q27 -1 47 -24q9 -11 18 -28q12 -23 25 -62q3 -10 29 -102q17 -61 32 -108l12 113
q17 138 18 140q-5 11 -5 23q1 20 16 34.5t36 13.5h1h4h5q109 -4 287 5q20 1 35.5 -13t16.5 -34.5t-13 -36t-35 -16.5q-149 -7 -251 -6q-2 -20 -8 -64t-7 -58q-8 -59 -12 -105q37 5 103.5 12t88.5 10q21 2 37 -11t18.5 -33.5t-10.5 -36.5t-33 -19l-93 -10q-76 -8 -116 -13
q-1 -13 -1 -24q1 -81 14 -130l19 -43q10 -14 23 -18q21 -6 58 7q23 8 212 112q18 10 38 4t30 -24t4 -38t-24 -30q-196 -107 -226 -118q-65 -24 -117 -10q-4 -2 -7 -3q-20 -7 -38.5 2t-25.5 28q-7 20 -15 40l-1 1q-14 24 -24 55l-3 6l-49 106l-9 21l-62 -10l-66 -10
q-22 -3 -55.5 -10t-62.5 -15q-10 -3 -21 -1l-68 -148q-8 -19 -27.5 -26t-38.5 1.5t-26 28t2 38.5z" />
    <glyph glyph-name="Ccedilla" unicode="&#xc7;" horiz-adv-x="726" 
d="M548 568q-24 47 -56 68q-34 22 -90 25q-60 3 -112.5 -17.5t-89.5 -58.5t-61.5 -88t-32.5 -107q-12 -77 6.5 -142t69.5 -109t128 -51q76 -8 135 19q18 8 31.5 15.5t27.5 19.5l21 20q8 7 27 26l31 32q14 15 35 15t35.5 -14.5t14.5 -35.5t-15 -35l-29 -30q-19 -20 -30 -30
l-28 -26q-17 -15 -37 -26.5t-44 -22.5q-60 -27 -127 -29q2 -13 -8 -22l-1 -1q22 -3 40 -12q24 -13 34.5 -36t5.5 -48q-10 -51 -65 -71q-54 -21 -130 5q-12 4 -17 15.5t-1 23t15.5 16.5t22.5 1q41 -16 67 -11t37 14t12 19q3 12 -10 19q-25 14 -80 -3q-17 -5 -29 7q-5 3 -8 7
q-6 8 -5 17t8 15q6 9 16 12h1q16 11 42 35h-5q-58 6 -106 26.5t-81.5 51t-58.5 70.5t-36 84.5t-15.5 91.5t4.5 92q10 71 41.5 135.5t80.5 116.5t121.5 81t157.5 24q81 -5 138 -40.5t92 -108.5q9 -19 2 -38.5t-25.5 -28.5t-38 -2t-28.5 25z" />
    <glyph glyph-name="Egrave" unicode="&#xc8;" horiz-adv-x="607" 
d="M177 721q115 -4 294 5q20 1 35.5 -13t16.5 -34.5t-13 -36t-35 -16.5q-181 -9 -297 -5l-12 -100q-8 -66 -11 -99l105 12q69 7 90 10q21 2 37 -11t18.5 -33.5t-10.5 -36.5t-33 -19q-17 -2 -94.5 -10t-118.5 -14q-1 -15 -1 -29q1 -120 30 -168q11 -19 26 -23q21 -6 58 7
q23 8 212 112q18 10 38 4t30 -24t4 -38t-24 -30q-195 -107 -226 -118q-67 -25 -120 -9q-52 15 -84 67q-43 72 -44 219v19q-14 3 -25 14.5t-13 26.5q-4 21 8.5 37.5t32.5 19.5l2 1q5 54 13 125q19 149 19 162q0 21 15 35t36 14q27 -1 41 -23zM223 935q84 -80 120 -119
q9 -11 8.5 -24.5t-11 -23t-24 -9t-23.5 10.5q-34 38 -116 117q-10 9 -10.5 23t9 24t23.5 10.5t24 -9.5z" />
    <glyph glyph-name="Eacute" unicode="&#xc9;" horiz-adv-x="607" 
d="M177 721q115 -4 294 5q20 1 35.5 -13t16.5 -34.5t-13 -36t-35 -16.5q-181 -9 -297 -5l-12 -100q-8 -66 -11 -99l105 12q69 7 90 10q21 2 37 -11t18.5 -33.5t-10.5 -36.5t-33 -19q-17 -2 -94.5 -10t-118.5 -14q-1 -15 -1 -29q1 -120 30 -168q11 -19 26 -23q21 -6 58 7
q23 8 212 112q18 10 38 4t30 -24t4 -38t-24 -30q-195 -107 -226 -118q-67 -25 -120 -9q-52 15 -84 67q-43 72 -44 219v19q-14 3 -25 14.5t-13 26.5q-4 21 8.5 37.5t32.5 19.5l2 1q5 54 13 125q19 149 19 162q0 21 15 35t36 14q27 -1 41 -23zM405 888q-70 -89 -105 -124
q-9 -10 -23 -10.5t-24 9t-10.5 23.5t9.5 24q32 34 101 120q8 11 22 12.5t25 -7t12.5 -22.5t-7.5 -25z" />
    <glyph glyph-name="Ecircumflex" unicode="&#xca;" horiz-adv-x="607" 
d="M177 721q115 -4 294 5q20 1 35.5 -13t16.5 -34.5t-13 -36t-35 -16.5q-181 -9 -297 -5l-12 -100q-8 -66 -11 -99l105 12q69 7 90 10q21 2 37 -11t18.5 -33.5t-10.5 -36.5t-33 -19q-17 -2 -94.5 -10t-118.5 -14q-1 -15 -1 -29q1 -120 30 -168q11 -19 26 -23q21 -6 58 7
q23 8 212 112q18 10 38 4t30 -24t4 -38t-24 -30q-195 -107 -226 -118q-67 -25 -120 -9q-52 15 -84 67q-43 72 -44 219v19q-14 3 -25 14.5t-13 26.5q-4 21 8.5 37.5t32.5 19.5l2 1q5 54 13 125q19 149 19 162q0 21 15 35t36 14q27 -1 41 -23zM310 882q-1 1 -2 1zM199 787
q23 35 57 96q13 23 19 31q13 18 27 24q23 10 44 -7q11 -9 24 -28q6 -9 61 -102q7 -11 4 -23.5t-14 -19t-23.5 -3.5t-18.5 14l-60 100l-9 -16q-36 -63 -61 -100q-7 -11 -19.5 -13.5t-23 5t-13 20t5.5 22.5z" />
    <glyph glyph-name="Edieresis" unicode="&#xcb;" horiz-adv-x="607" 
d="M177 721q115 -4 294 5q20 1 35.5 -13t16.5 -34.5t-13 -36t-35 -16.5q-181 -9 -297 -5l-12 -100q-8 -66 -11 -99l105 12q69 7 90 10q21 2 37 -11t18.5 -33.5t-10.5 -36.5t-33 -19q-17 -2 -94.5 -10t-118.5 -14q-1 -15 -1 -29q1 -120 30 -168q11 -19 26 -23q21 -6 58 7
q23 8 212 112q18 10 38 4t30 -24t4 -38t-24 -30q-195 -107 -226 -118q-67 -25 -120 -9q-52 15 -84 67q-43 72 -44 219v19q-14 3 -25 14.5t-13 26.5q-4 21 8.5 37.5t32.5 19.5l2 1q5 54 13 125q19 149 19 162q0 21 15 35t36 14q27 -1 41 -23zM301 810q0 -21 -14.5 -35.5
t-35.5 -14.5t-35.5 14.5t-14.5 35.5t14.5 35.5t35.5 14.5t35.5 -14.5t14.5 -35.5zM454 818q0 -21 -14.5 -35.5t-35.5 -14.5t-35.5 14.5t-14.5 35.5t14.5 35.5t35.5 14.5t35.5 -14.5t14.5 -35.5z" />
    <glyph glyph-name="Igrave" unicode="&#xcc;" horiz-adv-x="239" 
d="M176 682q4 -77 4 -162q1 -89 -0.5 -153.5t-4.5 -166.5t-4 -156q0 -21 -15 -35t-36 -14t-35 15t-14 36q1 55 4 155t4.5 163.5t0.5 150.5q0 76 -4 161q-1 21 13 36.5t34.5 16.5t36 -13t16.5 -34zM37 940l116 -114q10 -10 10.5 -23.5t-9.5 -23.5t-23.5 -10.5t-23.5 9.5
l-118 114q-10 10 -10 24t10 24t24 10t24 -10z" />
    <glyph glyph-name="Iacute" unicode="&#xcd;" horiz-adv-x="269" 
d="M176 682q4 -77 4 -162q1 -89 -0.5 -153.5t-4.5 -166.5t-4 -156q0 -21 -15 -35t-36 -14t-35 15t-14 36q1 55 4 155t4.5 163.5t0.5 150.5q0 76 -4 161q-1 21 13 36.5t34.5 16.5t36 -13t16.5 -34zM203 886q-67 -85 -104 -126q-9 -10 -23 -10.5t-24.5 8.5t-11 23t8.5 25
q35 39 102 122q8 11 22 12.5t25 -7t12.5 -22.5t-7.5 -25z" />
    <glyph glyph-name="Icircumflex" unicode="&#xce;" horiz-adv-x="301" 
d="M176 682q4 -77 4 -162q1 -89 -0.5 -153.5t-4.5 -166.5t-4 -156q0 -21 -15 -35t-36 -14t-35 15t-14 36q1 55 4 155t4.5 163.5t0.5 150.5q0 76 -4 161q-1 21 13 36.5t34.5 16.5t36 -13t16.5 -34zM5 773q69 106 70 107l13 18l9 14q7 9 13 14q17 12 35 4q11 -4 19 -15l8 -14
q17 -30 24 -41l43 -74q6 -11 2.5 -23t-14.5 -18.5t-23 -3t-19 14.5q-4 8 -13 22l-14 27q-7 12 -14 23l-14 23l-5 -7q-11 -15 -22 -32l-25 -40q-14 -21 -21 -33q-7 -10 -19.5 -13t-23 4t-13.5 19.5t4 23.5z" />
    <glyph glyph-name="Idieresis" unicode="&#xcf;" horiz-adv-x="302" 
d="M176 682q4 -77 4 -162q1 -89 -0.5 -153.5t-4.5 -166.5t-4 -156q0 -21 -15 -35t-36 -14t-35 15t-14 36q1 55 4 155t4.5 163.5t0.5 150.5q0 76 -4 161q-1 21 13 36.5t34.5 16.5t36 -13t16.5 -34zM101 812q0 -21 -14.5 -35.5t-35.5 -14.5t-35.5 14.5t-14.5 35.5t14.5 35.5
t35.5 14.5t35.5 -14.5t14.5 -35.5zM243 810q0 -21 -14.5 -35.5t-35.5 -14.5t-35.5 14.5t-14.5 35.5t14.5 35.5t35.5 14.5t35.5 -14.5t14.5 -35.5z" />
    <glyph glyph-name="Eth" unicode="&#xd0;" horiz-adv-x="691" 
d="M173 68q70 -8 109 10q52 25 104.5 69t89.5 97q83 119 44 217q-33 85 -182 121q-79 19 -196 24q-2 -82 5 -190q23 0 81.5 0.5t89.5 0.5q19 1 32.5 -12.5t14 -32t-13 -32t-31.5 -13.5q-32 -1 -89 -1.5t-77 -0.5l2 -14q14 -170 17 -243zM71 708q184 -3 291 -29
q199 -48 252 -182q22 -53 18 -110t-22 -105q-19 -47 -52 -95q-45 -65 -107 -117q-63 -52 -127 -82q-62 -30 -154 -20q-14 -28 -45 -28q-19 0 -33.5 13t-16.5 32l-16 5q-20 5 -31 22.5t-5 37.5q4 18 18 28.5t31 9.5q-2 58 -16 215l-2 20h-27q-18 -1 -32 12t-14.5 31.5
t12.5 32.5t32 14q11 1 22 1q-8 115 -5 203q-22 15 -22 42q0 21 15 35t36 14z" />
    <glyph glyph-name="Ntilde" unicode="&#xd1;" horiz-adv-x="679" 
d="M498 62v-1v1zM20 17q3 172 28 445q8 85 10 101q5 38 9 62q3 15 6 25q6 21 18 32q35 36 78 20q26 -9 46 -40q10 -14 25 -42q14 -28 18 -35q159 -270 246 -405v11q1 22 7.5 120t8 143t-1.5 115.5t-14 118.5q-4 20 7 37.5t31 22t37.5 -6.5t22.5 -31q12 -54 15.5 -132.5
t2 -126.5t-7.5 -149l-8 -117q-1 -12 -1.5 -43.5t-1.5 -45.5q-1 -29 -3 -45q-2 -12 -5 -21q-9 -27 -33 -37q-21 -8 -41 2q-7 3 -13 9q-6 5 -13 13q-8 10 -21 28l-44 68q-91 141 -256 422q-5 8 -14 25l-1 -9q-1 -9 -9 -99q-25 -269 -28 -437q0 -20 -15 -34.5t-35.5 -14.5
t-35 15t-14.5 36zM167 812q43 61 93 60q26 -1 75 -30q32 -19 48 -17q26 1 59 45q7 10 19 12t21.5 -5.5t11.5 -19.5t-6 -21q-49 -66 -101 -70q-34 -2 -82 26q-35 21 -46 22q-19 0 -44 -36q-7 -10 -19 -12t-22 5t-12 19t5 22z" />
    <glyph glyph-name="Ograve" unicode="&#xd2;" horiz-adv-x="772" 
d="M322 699q-1 13 4 25q8 19 27 27t38 0q48 -20 99 -55q50 -36 95 -81t79 -100.5t45 -110.5q16 -79 -31 -192q-54 -130 -175 -190t-257 -20q-60 18 -106 50t-73.5 72t-44.5 87.5t-17 95.5t9 97q24 114 106.5 198.5t201.5 96.5zM366 601q-95 3 -164.5 -60t-90.5 -158
q-11 -44 -5 -89t24 -82.5t55 -67.5q37 -31 89 -46q99 -29 186 14q86 43 126 138q35 85 25 134q-13 63 -70 130.5t-129 112.5q-15 -27 -46 -26zM305 941q46 -48 105 -116q10 -10 9 -24t-11.5 -23.5t-24.5 -8.5t-23 12l-103 114q-10 10 -9.5 24t10.5 23.5t24 9t23 -10.5z" />
    <glyph glyph-name="Oacute" unicode="&#xd3;" horiz-adv-x="772" 
d="M322 699q-1 13 4 25q8 19 27 27t38 0q48 -20 99 -55q50 -36 95 -81t79 -100.5t45 -110.5q16 -79 -31 -192q-54 -130 -175 -190t-257 -20q-60 18 -106 50t-73.5 72t-44.5 87.5t-17 95.5t9 97q24 114 106.5 198.5t201.5 96.5zM366 601q-95 3 -164.5 -60t-90.5 -158
q-11 -44 -5 -89t24 -82.5t55 -67.5q37 -31 89 -46q99 -29 186 14q86 43 126 138q35 85 25 134q-13 63 -70 130.5t-129 112.5q-15 -27 -46 -26zM428 889q-69 -79 -108 -116q-10 -10 -24 -9.5t-23.5 10.5t-9 24t10.5 23q36 36 104 112q9 11 23 12t24.5 -8.5t11.5 -23.5t-9 -24
z" />
    <glyph glyph-name="Ocircumflex" unicode="&#xd4;" horiz-adv-x="772" 
d="M322 699q-1 13 4 25q8 19 27 27t38 0q48 -20 99 -55q50 -36 95 -81t79 -100.5t45 -110.5q16 -79 -31 -192q-54 -130 -175 -190t-257 -20q-60 18 -106 50t-73.5 72t-44.5 87.5t-17 95.5t9 97q24 114 106.5 198.5t201.5 96.5zM366 601q-95 3 -164.5 -60t-90.5 -158
q-11 -44 -5 -89t24 -82.5t55 -67.5q37 -31 89 -46q99 -29 186 14q86 43 126 138q35 85 25 134q-13 63 -70 130.5t-129 112.5q-15 -27 -46 -26zM244 804q24 36 57 95q13 22 19 31q13 19 27 24q23 10 44 -7q11 -9 24 -28q6 -8 61 -102q7 -11 4 -23.5t-14 -19t-23.5 -3.5
t-18.5 14q-55 93 -60 100l-9 -16q-35 -61 -61 -99q-7 -11 -19.5 -13t-23 5t-12.5 19.5t5 22.5z" />
    <glyph glyph-name="Otilde" unicode="&#xd5;" horiz-adv-x="772" 
d="M322 699q-1 13 4 25q8 19 27 27t38 0q48 -20 99 -55q50 -36 95 -81t79 -100.5t45 -110.5q16 -79 -31 -192q-54 -130 -175 -190t-257 -20q-60 18 -106 50t-73.5 72t-44.5 87.5t-17 95.5t9 97q24 114 106.5 198.5t201.5 96.5zM366 601q-95 3 -164.5 -60t-90.5 -158
q-11 -44 -5 -89t24 -82.5t55 -67.5q37 -31 89 -46q99 -29 186 14q86 43 126 138q35 85 25 134q-13 63 -70 130.5t-129 112.5q-15 -27 -46 -26zM190 820q43 61 93 60q26 -1 75 -30q32 -19 48 -17q26 1 59 45q7 10 19 12t21.5 -5.5t11.5 -19.5t-6 -21q-49 -66 -101 -70
q-34 -2 -82 26q-35 21 -46 22q-19 0 -44 -36q-7 -10 -19 -12t-22 5t-12 19t5 22z" />
    <glyph glyph-name="Odieresis" unicode="&#xd6;" horiz-adv-x="772" 
d="M322 699q-1 13 4 25q8 19 27 27t38 0q48 -20 99 -55q50 -36 95 -81t79 -100.5t45 -110.5q16 -79 -31 -192q-54 -130 -175 -190t-257 -20q-60 18 -106 50t-73.5 72t-44.5 87.5t-17 95.5t9 97q24 114 106.5 198.5t201.5 96.5zM366 601q-95 3 -164.5 -60t-90.5 -158
q-11 -44 -5 -89t24 -82.5t55 -67.5q37 -31 89 -46q99 -29 186 14q86 43 126 138q35 85 25 134q-13 63 -70 130.5t-129 112.5q-15 -27 -46 -26zM334 814q0 -21 -14.5 -35.5t-35.5 -14.5t-35.5 14.5t-14.5 35.5t14.5 35.5t35.5 14.5t35.5 -14.5t14.5 -35.5zM490 806
q0 -21 -14.5 -35.5t-35.5 -14.5t-35.5 14.5t-14.5 35.5t14.5 35.5t35.5 14.5t35.5 -14.5t14.5 -35.5z" />
    <glyph glyph-name="multiply" unicode="&#xd7;" horiz-adv-x="554" 
d="M254 184l-159 -175q-14 -15 -34.5 -16t-35.5 13.5t-16 35t14 35.5l160 178l-164 150q-15 14 -16 34.5t13 36t34.5 16.5t36.5 -13l163 -150q91 101 160 169q15 14 35.5 14t35 -15t14.5 -35.5t-15 -35.5q-69 -67 -159 -167q89 -92 148 -175q12 -17 8.5 -37.5t-20.5 -32.5
t-37.5 -8.5t-32.5 20.5q-53 75 -133 158z" />
    <glyph glyph-name="Oslash" unicode="&#xd8;" horiz-adv-x="772" 
d="M550 541l-363 -389q39 -37 93 -54q98 -32 183 15t123 148q35 92 25 146q-13 66 -61 134zM80 122q-46 63 -61 146t1 157q15 78 54 144.5t105.5 114.5t147.5 56q-3 16 3 30q9 19 28.5 26.5t37.5 -0.5q101 -46 186 -137l55 54q9 9 21.5 9t21 -9t8.5 -21.5t-9 -20.5l-58 -58
q70 -92 88 -186q16 -83 -29 -202q-33 -86 -97.5 -147t-150 -83t-182.5 7q-76 25 -130 75l-59 -69q-9 -9 -21 -10t-21.5 7.5t-10.5 20.5t7 22zM370 642q-94 3 -163 -64t-88 -171q-23 -119 30 -208l363 389q-44 47 -95 82q-14 -29 -47 -28z" />
    <glyph glyph-name="Ugrave" unicode="&#xd9;" horiz-adv-x="666" 
d="M256 921l119 -117q10 -10 9.5 -23.5t-10.5 -23.5t-23.5 -9.5t-23.5 10.5l-117 115q-10 9 -10.5 23t9 24t23.5 10.5t24 -9.5zM135 647q1 -22 1 -70t1 -71q1 -90 8 -153q19 -171 87 -241q38 -40 88.5 -44t93.5 28q44 31 61 87q25 81 31 239q6 160 -9 248q-4 21 8.5 37.5
t33 20t37 -9t19.5 -32.5q17 -94 10.5 -267t-34.5 -266q-20 -63 -67.5 -110t-105 -65.5t-122.5 -3t-116 67.5q-91 95 -114 300q-7 67 -9 162q-1 23 -1 70.5t-1 70.5q-1 20 13.5 35t35 16t35.5 -13.5t16 -35.5z" />
    <glyph glyph-name="Uacute" unicode="&#xda;" horiz-adv-x="666" 
d="M135 647q1 -22 1 -70t1 -71q1 -90 8 -153q19 -171 87 -241q38 -40 88.5 -44t93.5 28q44 31 61 87q25 81 31 239q6 160 -9 248q-4 21 8.5 37.5t33 20t37 -9t19.5 -32.5q17 -94 10.5 -267t-34.5 -266q-20 -63 -67.5 -110t-105 -65.5t-122.5 -3t-116 67.5q-91 95 -114 300
q-7 67 -9 162q-1 23 -1 70.5t-1 70.5q-1 20 13.5 35t35 16t35.5 -13.5t16 -35.5zM416 872q-71 -79 -107 -115q-10 -10 -24 -10t-24 10t-10 24t10 24q33 33 105 113q9 10 23 10.5t24.5 -8.5t11 -23t-8.5 -25z" />
    <glyph glyph-name="Ucircumflex" unicode="&#xdb;" horiz-adv-x="666" 
d="M135 647q1 -22 1 -70t1 -71q1 -90 8 -153q19 -171 87 -241q38 -40 88.5 -44t93.5 28q44 31 61 87q25 81 31 239q6 160 -9 248q-4 21 8.5 37.5t33 20t37 -9t19.5 -32.5q17 -94 10.5 -267t-34.5 -266q-20 -63 -67.5 -110t-105 -65.5t-122.5 -3t-116 67.5q-91 95 -114 300
q-7 67 -9 162q-1 23 -1 70.5t-1 70.5q-1 20 13.5 35t35 16t35.5 -13.5t16 -35.5zM224 778q24 36 57 95q13 22 19 31q13 18 27 24q23 10 44 -7q11 -9 24 -28q4 -6 61 -101q7 -11 4 -23.5t-14 -19t-23.5 -3.5t-18.5 14q-56 94 -60 99l-9 -16q-35 -61 -61 -99q-7 -11 -19.5 -13
t-23 5t-12.5 19.5t5 22.5z" />
    <glyph glyph-name="Udieresis" unicode="&#xdc;" horiz-adv-x="666" 
d="M135 647q1 -22 1 -70t1 -71q1 -90 8 -153q19 -171 87 -241q38 -40 88.5 -44t93.5 28q44 31 61 87q25 81 31 239q6 160 -9 248q-4 21 8.5 37.5t33 20t37 -9t19.5 -32.5q17 -94 10.5 -267t-34.5 -266q-20 -63 -67.5 -110t-105 -65.5t-122.5 -3t-116 67.5q-91 95 -114 300
q-7 67 -9 162q-1 23 -1 70.5t-1 70.5q-1 20 13.5 35t35 16t35.5 -13.5t16 -35.5zM315 801q0 -21 -15 -36t-36 -15t-36 15t-15 36t15 36t36 15t36 -15t15 -36zM471 796q0 -21 -15 -36t-36 -15t-36 15t-15 36t15 36t36 15t36 -15t15 -36z" />
    <glyph glyph-name="Yacute" unicode="&#xdd;" horiz-adv-x="621" 
d="M300 291q-19 3 -31 17q-119 145 -220 342q-9 19 -2.5 38.5t25 29t38 3t29.5 -24.5q92 -183 202 -317q60 139 124 327q6 20 24.5 29t38.5 2.5t29 -25t2 -38.5q-67 -199 -140.5 -365.5t-169.5 -307.5q-11 -17 -31.5 -21t-37.5 7.5t-21 32t8 37.5q70 104 133 234zM381 870
q-69 -79 -108 -116q-10 -10 -24 -9.5t-23.5 10.5t-9 24t10.5 23q36 36 104 112q9 11 23 12t24.5 -8.5t11.5 -23.5t-9 -24z" />
    <glyph glyph-name="Thorn" unicode="&#xde;" horiz-adv-x="609" 
d="M131 189v-137q0 -21 -14.5 -35.5t-35.5 -14.5t-35.5 14.5t-14.5 35.5q0 42 -0.5 151.5t-0.5 168t2 147t7 161.5q1 21 16.5 35t36.5 12.5t35 -17t12 -36.5q-3 -46 -5 -95q124 5 156 4q120 -4 173 -43q35 -25 58 -63.5t28 -81.5q5 -45 -12 -86.5t-59 -67.5q-24 -15 -78 -26
q-42 -9 -105 -15q-81 -8 -164 -11zM131 249q80 3 158 11q60 6 99 14q44 8 58 17q51 33 43 97q-3 30 -19.5 58t-40.5 46q-39 27 -141 31q-27 1 -155 -4q-3 -104 -2 -270z" />
    <glyph glyph-name="germandbls" unicode="&#xdf;" horiz-adv-x="644" 
d="M69 -1q-26 108 -15 281q16 259 121 388q25 30 62.5 51.5t76.5 26.5q49 5 89.5 -18t60.5 -75q15 -51 8.5 -97.5t-29.5 -91.5q53 -19 92.5 -66.5t47.5 -100t-14.5 -102.5t-63.5 -88q-40 -37 -91 -57t-101 -14q-28 4 -60 25l-19 13q-9 6 -14 9q-19 10 -25 29.5t4 38
t29.5 24.5t37.5 -4q11 -5 24 -14l17 -12q14 -9 20 -9q24 -4 53.5 8t56 36.5t39 52t9.5 49.5q-4 24 -19 52t-35 44t-41 -3q6 6 9 3q1 -2 -1 -3l-15 -7q-17 -9 -31 -11q-36 -5 -58 22q-15 17 -14 38q0 20 13 36q10 11 28 21q2 1 7.5 4t8.5 4l1 1q23 30 32.5 69.5t-0.5 64.5
q-12 33 -44 29q-19 -2 -39.5 -13.5t-33.5 -28.5q-85 -103 -99 -330q-10 -158 13 -251q4 -20 -6.5 -38t-30.5 -22.5t-38 6t-23 30.5z" />
    <glyph glyph-name="agrave" unicode="&#xe0;" horiz-adv-x="656" 
d="M367 190q1 61 -5 254q-21 9 -29 12t-20.5 6t-25.5 2q-57 -2 -105 -52t-67 -123q-19 -72 2.5 -125.5t79.5 -70.5q53 -16 92 10q32 21 78 87zM460 514q0 -15 4 -139t3 -189q-1 -29 -1 -70v-10q2 -2 3.5 -5.5t2.5 -5.5v-1q5 1 9.5 3.5t8 5.5t12.5 9t17 12q17 11 37.5 7
t32 -21t7.5 -37.5t-21 -32.5q-2 -1 -12 -8l-18 -12q-8 -6 -19.5 -12t-22.5 -10q-60 -19 -118 28q-8 6 -13 15q-13 -12 -27 -21q-78 -52 -176 -23q-45 13 -77 39q-33 26 -51.5 58t-27 70t-6.5 75.5t11 74.5q16 62 50.5 116t91.5 92.5t123 41.5q43 2 91 -17q14 16 35 16
t36 -14t15 -35zM186 749q54 -65 97 -124q8 -11 6 -25t-13 -22t-25 -6t-22 13q-40 54 -95 122q-9 10 -7.5 24t12 23t24.5 7.5t23 -12.5z" />
    <glyph glyph-name="aacute" unicode="&#xe1;" horiz-adv-x="656" 
d="M367 190q1 61 -5 254q-21 9 -29 12t-20.5 6t-25.5 2q-57 -2 -105 -52t-67 -123q-19 -72 2.5 -125.5t79.5 -70.5q53 -16 92 10q32 21 78 87zM460 514q0 -15 4 -139t3 -189q-1 -29 -1 -70v-10q2 -2 3.5 -5.5t2.5 -5.5v-1q5 1 9.5 3.5t8 5.5t12.5 9t17 12q17 11 37.5 7
t32 -21t7.5 -37.5t-21 -32.5q-2 -1 -12 -8l-18 -12q-8 -6 -19.5 -12t-22.5 -10q-60 -19 -118 28q-8 6 -13 15q-13 -12 -27 -21q-78 -52 -176 -23q-45 13 -77 39q-33 26 -51.5 58t-27 70t-6.5 75.5t11 74.5q16 62 50.5 116t91.5 92.5t123 41.5q43 2 91 -17q14 16 35 16
t36 -14t15 -35zM330 715l-97 -124q-9 -11 -22.5 -12.5t-24.5 7.5t-12.5 22.5t7.5 24.5l95 122q8 11 22 13t25 -6t13 -22t-6 -25z" />
    <glyph glyph-name="acircumflex" unicode="&#xe2;" horiz-adv-x="656" 
d="M249 715q-1 1 -2 1zM367 190q1 61 -5 254q-21 9 -29 12t-20.5 6t-25.5 2q-57 -2 -105 -52t-67 -123q-19 -72 2.5 -125.5t79.5 -70.5q53 -16 92 10q32 21 78 87zM138 620q23 35 57 96q13 23 19 31q13 18 27 24q23 10 44 -7q11 -9 24 -28q6 -9 61 -102q7 -11 4 -23.5
t-14 -19t-23.5 -3.5t-18.5 14l-60 100l-9 -16q-36 -63 -61 -100q-7 -11 -19.5 -13.5t-23 5t-13 20t5.5 22.5zM460 514q0 -15 4 -139t3 -189q-1 -29 -1 -70v-10q2 -2 3.5 -5.5t2.5 -5.5v-1q5 1 9.5 3.5t8 5.5t12.5 9t17 12q17 11 37.5 7t32 -21t7.5 -37.5t-21 -32.5
q-2 -1 -12 -8l-18 -12q-8 -6 -19.5 -12t-22.5 -10q-60 -19 -118 28q-8 6 -13 15q-13 -12 -27 -21q-78 -52 -176 -23q-45 13 -77 39q-33 26 -51.5 58t-27 70t-6.5 75.5t11 74.5q16 62 50.5 116t91.5 92.5t123 41.5q43 2 91 -17q14 16 35 16t36 -14t15 -35z" />
    <glyph glyph-name="atilde" unicode="&#xe3;" horiz-adv-x="656" 
d="M367 190q1 61 -5 254q-21 9 -29 12t-20.5 6t-25.5 2q-57 -2 -105 -52t-67 -123q-19 -72 2.5 -125.5t79.5 -70.5q53 -16 92 10q32 21 78 87zM460 514q0 -15 4 -139t3 -189q-1 -29 -1 -70v-10q2 -2 3.5 -5.5t2.5 -5.5v-1q5 1 9.5 3.5t8 5.5t12.5 9t17 12q17 11 37.5 7
t32 -21t7.5 -37.5t-21 -32.5q-2 -1 -12 -8l-18 -12q-8 -6 -19.5 -12t-22.5 -10q-60 -19 -118 28q-8 6 -13 15q-13 -12 -27 -21q-78 -52 -176 -23q-45 13 -77 39q-33 26 -51.5 58t-27 70t-6.5 75.5t11 74.5q16 62 50.5 116t91.5 92.5t123 41.5q43 2 91 -17q14 16 35 16
t36 -14t15 -35zM89 642q43 61 93 60q26 -1 75 -30q32 -19 48 -17q26 1 59 45q7 10 19 12t21.5 -5.5t11.5 -19.5t-6 -21q-49 -66 -101 -70q-34 -2 -82 26q-35 21 -46 22q-19 0 -44 -36q-7 -10 -19 -12t-22 5t-12 19t5 22z" />
    <glyph glyph-name="adieresis" unicode="&#xe4;" horiz-adv-x="656" 
d="M367 190q1 61 -5 254q-21 9 -29 12t-20.5 6t-25.5 2q-57 -2 -105 -52t-67 -123q-19 -72 2.5 -125.5t79.5 -70.5q53 -16 92 10q32 21 78 87zM460 514q0 -15 4 -139t3 -189q-1 -29 -1 -70v-10q2 -2 3.5 -5.5t2.5 -5.5v-1q5 1 9.5 3.5t8 5.5t12.5 9t17 12q17 11 37.5 7
t32 -21t7.5 -37.5t-21 -32.5q-2 -1 -12 -8l-18 -12q-8 -6 -19.5 -12t-22.5 -10q-60 -19 -118 28q-8 6 -13 15q-13 -12 -27 -21q-78 -52 -176 -23q-45 13 -77 39q-33 26 -51.5 58t-27 70t-6.5 75.5t11 74.5q16 62 50.5 116t91.5 92.5t123 41.5q43 2 91 -17q14 16 35 16
t36 -14t15 -35zM227 650q0 -21 -15 -36t-36 -15t-36 15t-15 36t15 36t36 15t36 -15t15 -36zM377 657q0 -21 -15 -36t-36 -15t-36 15t-15 36t15 36t36 15t36 -15t15 -36z" />
    <glyph glyph-name="aring" unicode="&#xe5;" horiz-adv-x="656" 
d="M367 190q1 61 -5 254q-21 9 -29 12t-20.5 6t-25.5 2q-57 -2 -105 -52t-67 -123q-19 -72 2.5 -125.5t79.5 -70.5q53 -16 92 10q32 21 78 87zM256 780q11 2 20 2q37 -2 54.5 -31.5t13.5 -63.5q-4 -36 -28 -62.5t-63 -26.5q-44 0 -69 30t-22 68q3 34 28 57.5t66 26.5z
M460 514q0 -15 4 -139t3 -189q-1 -29 -1 -70v-10q2 -2 3.5 -5.5t2.5 -5.5v-1q5 1 9.5 3.5t8 5.5t12.5 9t17 12q17 11 37.5 7t32 -21t7.5 -37.5t-21 -32.5q-2 -1 -12 -8l-18 -12q-8 -6 -19.5 -12t-22.5 -10q-60 -19 -118 28q-8 6 -13 15q-13 -12 -27 -21q-78 -52 -176 -23
q-45 13 -77 39q-33 26 -51.5 58t-27 70t-6.5 75.5t11 74.5q16 62 50.5 116t91.5 92.5t123 41.5q43 2 91 -17q14 16 35 16t36 -14t15 -35zM282 740q-11 2 -20 1q-4 -1 -9 -2l-28 -8q-22 -13 -24 -38q-2 -22 12 -38.5t40 -16.5q21 0 35 15t17 38q4 39 -21 49h-2z" />
    <glyph glyph-name="ae" unicode="&#xe6;" horiz-adv-x="881" 
d="M344 124q-6 11 -6 23q0 13 -1 66t-0.5 80t5.5 71t14 79q-59 39 -118 8q-63 -32 -101 -115q-38 -84 -22 -155q16 -69 86 -90q36 -11 49 -9q8 1 46 18q39 18 48 24zM444 498q12 -9 18 -23l3 -5l3 -5q77 83 176 87q10 0 20.5 -0.5t18 -1.5t18.5 -4t16 -4t16.5 -6t13.5 -5.5
t14 -6t13 -5.5q5 -2 9 -4q19 -9 26.5 -27.5t-0.5 -37.5v-1v-7q0 -29 -10 -49q-19 -41 -74 -78q-40 -28 -101 -57q-53 -24 -155 -63q1 -18 7 -35q3 -6 5 -13q22 -50 77 -66q53 -16 92 10q31 21 81 92q12 17 32.5 20.5t37.5 -8.5t20.5 -32.5t-8.5 -37.5q-60 -86 -107 -117
q-78 -52 -176 -23q-41 12 -72 35q-13 -25 -41 -28q-17 -1 -31 7.5t-21 22.5l-27 -12q-52 -24 -75 -27q-34 -5 -90 12q-64 19 -103 63q-39 43 -53 101q-23 104 29 219q24 53 62 96t85 66q49 28 109 24.5t116 -42.5q14 -10 26 -24zM709 435v3q-36 15 -61 14q-49 -2 -93 -41.5
t-68 -101.5q54 21 94 40q55 25 87 48q32 22 41 38z" />
    <glyph glyph-name="ccedilla" unicode="&#xe7;" horiz-adv-x="519" 
d="M360 397q-15 12 -39 34q-14 12 -17 15q-9 5 -51 7q-57 3 -98.5 -40.5t-53.5 -116t13 -128t76 -70.5q34 -10 61.5 -7t56.5 22q8 5 13.5 10.5t11.5 15.5t9 16.5t10 24.5l12 27q9 18 28.5 25.5t38 -1t26 -28t-0.5 -38.5q-2 -3 -10 -22.5t-13.5 -30t-16 -28t-24 -31
t-30.5 -24.5q-64 -41 -133 -39l-15 -21q39 2 67 -13q24 -13 34.5 -36t5.5 -48q-10 -51 -65 -72q-54 -20 -130 6q-12 4 -17 15.5t-1 23t15.5 16.5t22.5 1q41 -16 67 -11t37 14t12 19q3 12 -10 19q-25 14 -80 -3q-12 -3 -23 2.5t-15 17.5q-1 5 -1 10q-3 12 5 22q27 30 38 46
l-14 4q-41 12 -72.5 37t-50 56.5t-30 69t-11.5 74.5t5 73q7 47 27 89.5t51 78.5t77 56t101 17q67 -4 98 -22q12 -8 31 -26l36 -32q16 -13 18 -33.5t-11.5 -36.5t-34 -18t-36.5 12z" />
    <glyph glyph-name="egrave" unicode="&#xe8;" horiz-adv-x="551" 
d="M452 498h2q20 -5 30.5 -22.5t6.5 -38.5q-1 -2 -2 -8q-2 -15 -2 -16q-4 -28 -16 -47q-42 -63 -194 -107q-53 -16 -167 -41q2 -47 25 -80.5t66 -46.5q36 -11 49 -9q8 1 46 18q43 20 51 26q5 4 16 15l36 32q15 14 35.5 13t34.5 -16.5t13 -36t-17 -34.5l-33 -31
q-15 -15 -24 -21q-16 -12 -70 -37q-53 -24 -75 -27q-34 -5 -90 12q-45 13 -77.5 39t-51 58t-27 70t-6.5 75.5t11 74.5q16 62 50.5 116t91.5 92.5t123 41.5q17 1 33 -1t32.5 -7t26 -8.5t26 -11t20.5 -9.5q19 -8 27 -27zM387 433l-25 11l-21 8q-6 3 -15.5 6t-17.5 3.5t-17 0.5
q-49 -2 -92.5 -40t-67.5 -97q70 15 118 30q117 34 138 67l1 6q1 2 1 4q-1 0 -2 1zM186 749q54 -65 97 -124q8 -11 6 -25t-13 -22t-25 -6t-22 13q-40 54 -95 122q-9 10 -7.5 24t12 23t24.5 7.5t23 -12.5z" />
    <glyph glyph-name="eacute" unicode="&#xe9;" horiz-adv-x="551" 
d="M452 498h2q20 -5 30.5 -22.5t6.5 -38.5q-1 -2 -2 -8q-2 -15 -2 -16q-4 -28 -16 -47q-42 -63 -194 -107q-53 -16 -167 -41q2 -47 25 -80.5t66 -46.5q36 -11 49 -9q8 1 46 18q43 20 51 26q5 4 16 15l36 32q15 14 35.5 13t34.5 -16.5t13 -36t-17 -34.5l-33 -31
q-15 -15 -24 -21q-16 -12 -70 -37q-53 -24 -75 -27q-34 -5 -90 12q-45 13 -77.5 39t-51 58t-27 70t-6.5 75.5t11 74.5q16 62 50.5 116t91.5 92.5t123 41.5q17 1 33 -1t32.5 -7t26 -8.5t26 -11t20.5 -9.5q19 -8 27 -27zM387 433l-25 11l-21 8q-6 3 -15.5 6t-17.5 3.5t-17 0.5
q-49 -2 -92.5 -40t-67.5 -97q70 15 118 30q117 34 138 67l1 6q1 2 1 4q-1 0 -2 1zM333 705q-68 -86 -100 -122q-9 -11 -23 -12t-24.5 8.5t-11.5 23.5t9 24q30 35 96 120q9 11 23 12.5t25 -7t12.5 -22.5t-6.5 -25z" />
    <glyph glyph-name="ecircumflex" unicode="&#xea;" horiz-adv-x="551" 
d="M255 705q-1 1 -2 1zM452 498h2q20 -5 30.5 -22.5t6.5 -38.5q-1 -2 -2 -8q-2 -15 -2 -16q-4 -28 -16 -47q-42 -63 -194 -107q-53 -16 -167 -41q2 -47 25 -80.5t66 -46.5q36 -11 49 -9q8 1 46 18q43 20 51 26q5 4 16 15l36 32q15 14 35.5 13t34.5 -16.5t13 -36t-17 -34.5
l-33 -31q-15 -15 -24 -21q-16 -12 -70 -37q-53 -24 -75 -27q-34 -5 -90 12q-45 13 -77.5 39t-51 58t-27 70t-6.5 75.5t11 74.5q16 62 50.5 116t91.5 92.5t123 41.5q17 1 33 -1t32.5 -7t26 -8.5t26 -11t20.5 -9.5q19 -8 27 -27zM144 610q23 35 57 96q13 23 19 31q13 18 27 24
q23 10 44 -7q11 -9 24 -28q6 -9 61 -102q7 -11 4 -23.5t-14 -19t-23.5 -3.5t-18.5 14l-60 100l-9 -16q-36 -63 -61 -100q-7 -11 -19.5 -13.5t-23 5t-13 20t5.5 22.5zM387 433l-25 11l-21 8q-6 3 -15.5 6t-17.5 3.5t-17 0.5q-49 -2 -92.5 -40t-67.5 -97q70 15 118 30
q117 34 138 67l1 6q1 2 1 4q-1 0 -2 1z" />
    <glyph glyph-name="edieresis" unicode="&#xeb;" horiz-adv-x="551" 
d="M452 498h2q20 -5 30.5 -22.5t6.5 -38.5q-1 -2 -2 -8q-2 -15 -2 -16q-4 -28 -16 -47q-42 -63 -194 -107q-53 -16 -167 -41q2 -47 25 -80.5t66 -46.5q36 -11 49 -9q8 1 46 18q43 20 51 26q5 4 16 15l36 32q15 14 35.5 13t34.5 -16.5t13 -36t-17 -34.5l-33 -31
q-15 -15 -24 -21q-16 -12 -70 -37q-53 -24 -75 -27q-34 -5 -90 12q-45 13 -77.5 39t-51 58t-27 70t-6.5 75.5t11 74.5q16 62 50.5 116t91.5 92.5t123 41.5q17 1 33 -1t32.5 -7t26 -8.5t26 -11t20.5 -9.5q19 -8 27 -27zM387 433l-25 11l-21 8q-6 3 -15.5 6t-17.5 3.5t-17 0.5
q-49 -2 -92.5 -40t-67.5 -97q70 15 118 30q117 34 138 67l1 6q1 2 1 4q-1 0 -2 1zM231 650q0 -20 -14.5 -34.5t-34.5 -14.5t-34.5 14.5t-14.5 34.5t14.5 34.5t34.5 14.5t34.5 -14.5t14.5 -34.5zM381 661q0 -20 -14.5 -34.5t-34.5 -14.5t-34.5 14.5t-14.5 34.5t14.5 34.5
t34.5 14.5t34.5 -14.5t14.5 -34.5z" />
    <glyph glyph-name="igrave" unicode="&#xec;" horiz-adv-x="230" 
d="M168 476q-1 -72 1.5 -214t1.5 -212q0 -21 -15 -35.5t-35.5 -14.5t-35 15t-14.5 35q1 71 -1.5 213t-1.5 215q0 20 15 34.5t35.5 14.5t35 -15t14.5 -36zM62 754q54 -65 97 -124q8 -11 6 -25t-13 -22t-25 -6t-22 13q-40 54 -95 122q-9 10 -7.5 24t12 23t24.5 7.5t23 -12.5z
" />
    <glyph glyph-name="iacute" unicode="&#xed;" horiz-adv-x="273" 
d="M163 478q-1 -72 1.5 -214t1.5 -212q0 -21 -15 -35.5t-35.5 -14.5t-35 15t-14.5 35q1 71 -1.5 213t-1.5 215q0 20 15 34.5t35.5 14.5t35 -15t14.5 -36zM206 708q-66 -76 -107 -117q-10 -10 -24 -10t-24 10t-10 24t10 24q39 39 105 113q9 11 23 12t24.5 -8.5t11.5 -23.5
t-9 -24z" />
    <glyph glyph-name="icircumflex" unicode="&#xee;" horiz-adv-x="296" 
d="M112 705q-1 1 -2 1zM1 610q23 35 57 96q13 23 19 31q13 18 27 24q23 10 44 -7q11 -9 24 -28q6 -9 61 -102q7 -11 4 -23.5t-14 -19t-23.5 -3.5t-18.5 14l-60 100l-9 -16q-36 -63 -61 -100q-7 -11 -19.5 -13.5t-23 5t-13 20t5.5 22.5zM165 475q-1 -72 1.5 -214t1.5 -212
q0 -21 -15 -35.5t-35.5 -14.5t-35 15t-14.5 35q1 71 -1.5 213t-1.5 215q0 20 15 34.5t35.5 14.5t35 -15t14.5 -36z" />
    <glyph glyph-name="idieresis" unicode="&#xef;" horiz-adv-x="295" 
d="M160 478q-1 -72 1.5 -214t1.5 -212q0 -21 -15 -35.5t-35.5 -14.5t-35 15t-14.5 35q1 71 -1.5 213t-1.5 215q0 20 15 34.5t35.5 14.5t35 -15t14.5 -36zM94 650q0 -21 -15 -36t-36 -15t-36 15t-15 36t15 36t36 15t36 -15t15 -36zM236 651q0 -21 -15 -36t-36 -15t-36 15
t-15 36t15 36t36 15t36 -15t15 -36z" />
    <glyph glyph-name="eth" unicode="&#xf0;" horiz-adv-x="548" 
d="M330 444q-40 -15 -84 -49q-25 -18 -61 -59q-32 -36 -43 -76q-12 -39 -6 -68.5t22 -52.5q16 -21 37 -31t50.5 -4t58.5 31q42 36 60 60q17 24 23 62q6 44 -26 124q-12 28 -31 63zM175 637q-34 -22 -63 -43q-9 -7 -21 -5.5t-19 11t-5.5 21.5t11.5 19q22 17 48 34l-24 17
q-18 13 -21.5 33.5t9 38t33 21t37.5 -8.5l60 -43l62 37q10 6 22 3t18 -13t3 -22t-13 -18l-45 -26q53 -46 92 -100l17 -26q20 7 38.5 -2t25.5 -29q11 -32 -14 -55q18 -34 29 -62q44 -106 32 -178q-9 -62 -37 -100.5t-80 -83.5q-51 -44 -108 -54t-105 10.5t-80 64.5
q-32 43 -41.5 97t8.5 114.5t65 114.5q41 47 75 73q49 36 92 55l-1 1q-39 56 -100 104z" />
    <glyph glyph-name="ntilde" unicode="&#xf1;" horiz-adv-x="518" 
d="M34 349q1 79 0 125q0 21 14.5 36t35 15t35.5 -14.5t15 -34.5v-8q19 18 33 26q32 19 75 27t83 0q48 -8 83 -40t40 -87q4 -49 6 -105.5t3 -126t2 -106.5q1 -21 -13.5 -36t-35 -16t-35.5 13.5t-16 34.5q-1 38 -2 105.5t-2.5 123t-6.5 105.5q-2 30 -41 37q-22 4 -47 -0.5
t-43 -14.5q-13 -8 -49 -50l-34 -41q-1 -175 5 -271q1 -20 -12.5 -36t-34 -17t-36.5 12.5t-17 34.5q-6 96 -5 275q-3 0 -2 17zM109 641q43 61 93 60q26 -1 75 -30q32 -19 48 -17q26 1 59 45q7 10 19 12t21.5 -5.5t11.5 -19.5t-6 -21q-49 -66 -101 -70q-34 -2 -82 26
q-35 21 -46 22q-19 0 -44 -36q-7 -10 -19 -12t-22 5t-12 19t5 22z" />
    <glyph glyph-name="ograve" unicode="&#xf2;" horiz-adv-x="535" 
d="M147 385q-48 -49 -43 -132q4 -67 41 -110t94 -42q76 0 115 76q19 35 22.5 76.5t-9.5 75.5q-25 66 -56 83q-9 1 -40 7q-35 -2 -100 -30q-12 -6 -24 -4zM279 519q20 0 39 -4q93 -21 141 -150q21 -58 16 -119t-33 -115q-30 -58 -82 -93q-53 -36 -121 -37q-54 0 -98.5 21.5
t-72.5 57.5t-44 79t-19 88q-2 45 9 89.5t35 84t66.5 67t98.5 34.5q27 4 65 -3zM183 743q66 -75 102 -122q8 -11 6 -24.5t-13 -22t-24.5 -6.5t-22.5 13q-34 44 -98 118q-10 10 -9 24t11.5 23.5t24.5 8.5t23 -12z" />
    <glyph glyph-name="oacute" unicode="&#xf3;" horiz-adv-x="535" 
d="M147 385q-48 -49 -43 -132q4 -67 41 -110t94 -42q76 0 115 76q19 35 22.5 76.5t-9.5 75.5q-25 66 -56 83q-9 1 -40 7q-35 -2 -100 -30q-12 -6 -24 -4zM279 519q20 0 39 -4q93 -21 141 -150q21 -58 16 -119t-33 -115q-30 -58 -82 -93q-53 -36 -121 -37q-54 0 -98.5 21.5
t-72.5 57.5t-44 79t-19 88q-2 45 9 89.5t35 84t66.5 67t98.5 34.5q27 4 65 -3zM319 693q-66 -76 -107 -117q-10 -10 -24 -10t-24 10t-10 24t10 24q39 39 105 113q9 11 23 12t24.5 -8.5t11.5 -23.5t-9 -24z" />
    <glyph glyph-name="ocircumflex" unicode="&#xf4;" horiz-adv-x="535" 
d="M237 698q-1 1 -2 1zM147 385q-48 -49 -43 -132q4 -67 41 -110t94 -42q76 0 115 76q19 35 22.5 76.5t-9.5 75.5q-25 66 -56 83q-9 1 -40 7q-35 -2 -100 -30q-12 -6 -24 -4zM279 519q20 0 39 -4q93 -21 141 -150q21 -58 16 -119t-33 -115q-30 -58 -82 -93q-53 -36 -121 -37
q-54 0 -98.5 21.5t-72.5 57.5t-44 79t-19 88q-2 45 9 89.5t35 84t66.5 67t98.5 34.5q27 4 65 -3zM126 603q23 35 57 96q13 23 19 31q13 18 27 24q23 10 44 -7q11 -9 24 -28q6 -9 61 -102q7 -11 4 -23.5t-14 -19t-23.5 -3.5t-18.5 14l-60 100l-9 -16q-36 -63 -61 -100
q-7 -11 -19.5 -13.5t-23 5t-13 20t5.5 22.5z" />
    <glyph glyph-name="otilde" unicode="&#xf5;" horiz-adv-x="535" 
d="M147 385q-48 -49 -43 -132q4 -67 41 -110t94 -42q76 0 115 76q19 35 22.5 76.5t-9.5 75.5q-25 66 -56 83q-9 1 -40 7q-35 -2 -100 -30q-12 -6 -24 -4zM279 519q20 0 39 -4q93 -21 141 -150q21 -58 16 -119t-33 -115q-30 -58 -82 -93q-53 -36 -121 -37q-54 0 -98.5 21.5
t-72.5 57.5t-44 79t-19 88q-2 45 9 89.5t35 84t66.5 67t98.5 34.5q27 4 65 -3zM89 642q43 61 93 60q26 -1 75 -30q32 -19 48 -17q26 1 59 45q7 10 19 12t21.5 -5.5t11.5 -19.5t-6 -21q-49 -66 -101 -70q-34 -2 -82 26q-35 21 -46 22q-19 0 -44 -36q-7 -10 -19 -12t-22 5
t-12 19t5 22z" />
    <glyph glyph-name="odieresis" unicode="&#xf6;" horiz-adv-x="535" 
d="M147 385q-48 -49 -43 -132q4 -67 41 -110t94 -42q76 0 115 76q19 35 22.5 76.5t-9.5 75.5q-25 66 -56 83q-9 1 -40 7q-35 -2 -100 -30q-12 -6 -24 -4zM279 519q20 0 39 -4q93 -21 141 -150q21 -58 16 -119t-33 -115q-30 -58 -82 -93q-53 -36 -121 -37q-54 0 -98.5 21.5
t-72.5 57.5t-44 79t-19 88q-2 45 9 89.5t35 84t66.5 67t98.5 34.5q27 4 65 -3zM222 644q0 -21 -15 -36t-36 -15t-36 15t-15 36t15 36t36 15t36 -15t15 -36zM383 647q0 -21 -15 -36t-36 -15t-36 15t-15 36t15 36t36 15t36 -15t15 -36z" />
    <glyph glyph-name="divide" unicode="&#xf7;" horiz-adv-x="643" 
d="M42 304q174 13 493 13q20 0 34.5 -14.5t14.5 -34.5t-14.5 -34.5t-34.5 -14.5q-316 0 -485 -13q-21 -1 -36 12t-16.5 33.5t11.5 35.5t33 17zM327 457q0 -21 -15 -36t-36 -15t-36 15t-15 36t15 36t36 15t36 -15t15 -36zM322 77q0 -21 -15 -36t-36 -15t-36 15t-15 36t15 36
t36 15t36 -15t15 -36z" />
    <glyph glyph-name="oslash" unicode="&#xf8;" horiz-adv-x="588" 
d="M391 369l-218 -233q39 -47 98 -46q84 0 121 76q17 36 20 81.5t-9 87.5q-5 19 -12 34zM368 403q-10 9 -22 14q-11 2 -31 6q-44 1 -115 -30q-12 -6 -25 -4q-49 -52 -44 -139q3 -43 19 -78zM81 94q-43 66 -48 150q-3 47 8 93t35.5 86.5t68 69t100.5 35.5q29 4 68 -3
q5 -2 14 -3q13 -1 25 -4q50 -10 86 -45l57 56q6 6 14.5 6t14 -6t5.5 -14.5t-6 -13.5l-60 -59q23 -34 36 -81q16 -55 12 -119.5t-30 -118.5q-28 -60 -81.5 -96t-128.5 -37q-99 0 -165 72l-52 -60q-5 -6 -13.5 -7t-14.5 4.5t-7 14t5 14.5z" />
    <glyph glyph-name="ugrave" unicode="&#xf9;" horiz-adv-x="523" 
d="M186 749q54 -65 97 -124q8 -11 6 -25t-13 -22t-25 -6t-22 13q-40 54 -95 122q-9 10 -7.5 24t12 23t24.5 7.5t23 -12.5zM459 479q-6 -259 5 -428q1 -20 -12.5 -36t-34 -17t-36.5 12.5t-17 34.5l-2 32q-24 -22 -41 -34q-33 -24 -77 -35t-85 -5q-51 6 -86.5 39.5t-38.5 92.5
q-2 75 -2 112.5t2 113t2 112.5q0 21 15 35.5t35.5 14.5t35 -15t14.5 -35q0 -38 -2 -111.5t-2 -110.5t2 -112q1 -17 10 -26t28 -11q22 -3 47.5 3t41.5 18q27 19 97 86q-3 115 1 272q0 21 15 35t36 14t35 -15t14 -36z" />
    <glyph glyph-name="uacute" unicode="&#xfa;" horiz-adv-x="523" 
d="M325 697q-66 -76 -107 -117q-10 -10 -24 -10t-24 10t-10 24t10 24q39 39 105 113q9 11 23 12t24.5 -8.5t11.5 -23.5t-9 -24zM459 479q-6 -259 5 -428q1 -20 -12.5 -36t-34 -17t-36.5 12.5t-17 34.5l-2 32q-24 -22 -41 -34q-33 -24 -77 -35t-85 -5q-51 6 -86.5 39.5
t-38.5 92.5q-2 75 -2 112.5t2 113t2 112.5q0 21 15 35.5t35.5 14.5t35 -15t14.5 -35q0 -38 -2 -111.5t-2 -110.5t2 -112q1 -17 10 -26t28 -11q22 -3 47.5 3t41.5 18q27 19 97 86q-3 115 1 272q0 21 15 35t36 14t35 -15t14 -36z" />
    <glyph glyph-name="ucircumflex" unicode="&#xfb;" horiz-adv-x="523" 
d="M235 698q-1 1 -2 1zM124 603q23 35 57 96q13 23 19 31q13 18 27 24q23 10 44 -7q11 -9 24 -28q6 -9 61 -102q7 -11 4 -23.5t-14 -19t-23.5 -3.5t-18.5 14l-60 100l-9 -16q-36 -63 -61 -100q-7 -11 -19.5 -13.5t-23 5t-13 20t5.5 22.5zM459 479q-6 -259 5 -428
q1 -20 -12.5 -36t-34 -17t-36.5 12.5t-17 34.5l-2 32q-24 -22 -41 -34q-33 -24 -77 -35t-85 -5q-51 6 -86.5 39.5t-38.5 92.5q-2 75 -2 112.5t2 113t2 112.5q0 21 15 35.5t35.5 14.5t35 -15t14.5 -35q0 -38 -2 -111.5t-2 -110.5t2 -112q1 -17 10 -26t28 -11q22 -3 47.5 3
t41.5 18q27 19 97 86q-3 115 1 272q0 21 15 35t36 14t35 -15t14 -36z" />
    <glyph glyph-name="udieresis" unicode="&#xfc;" horiz-adv-x="523" 
d="M459 479q-6 -259 5 -428q1 -20 -12.5 -36t-34 -17t-36.5 12.5t-17 34.5l-2 32q-24 -22 -41 -34q-33 -24 -77 -35t-85 -5q-51 6 -86.5 39.5t-38.5 92.5q-2 75 -2 112.5t2 113t2 112.5q0 21 15 35.5t35.5 14.5t35 -15t14.5 -35q0 -38 -2 -111.5t-2 -110.5t2 -112
q1 -17 10 -26t28 -11q22 -3 47.5 3t41.5 18q27 19 97 86q-3 115 1 272q0 21 15 35t36 14t35 -15t14 -36zM219 650q0 -21 -15 -36t-36 -15t-36 15t-15 36t15 36t36 15t36 -15t15 -36zM368 649q0 -21 -15 -36t-36 -15t-36 15t-15 36t15 36t36 15t36 -15t15 -36z" />
    <glyph glyph-name="yacute" unicode="&#xfd;" horiz-adv-x="503" 
d="M313 687q-66 -76 -107 -117q-10 -10 -24 -10t-24 10t-10 24t10 24q39 39 105 113q9 11 23 12t24.5 -8.5t11.5 -23.5t-9 -24zM442 486l-34 -116l-39 -128q-15 -50 -43 -125t-55.5 -128t-69.5 -111.5t-91 -101.5q-15 -14 -35.5 -13t-34.5 16.5t-13 36t17 34.5
q102 92 173 262q-117 143 -216 336q-9 19 -2.5 38.5t25 29t38 3t29.5 -24.5q78 -155 167 -272l47 156l41 138q6 20 24.5 29.5t38.5 3.5t29.5 -24.5t3.5 -38.5z" />
    <glyph glyph-name="thorn" unicode="&#xfe;" horiz-adv-x="501" 
d="M136 106q43 -56 96 -58q69 -3 123 86q29 46 28 131q-2 83 -28 134q-17 35 -45 50t-59.5 11.5t-59.5 -23.5t-44 -54q-2 -4 -6 -8q1 -86 -4 -241zM31 -176q-2 99 4 313q6 207 3 308q-2 56 -10 161q-7 101 -8 129q-1 21 13 37t35 17t37 -13t17 -35q2 -32 8.5 -125t8.5 -144
q46 42 105 48q50 5 94.5 -18.5t70.5 -74.5q32 -64 33 -161q2 -103 -35 -164q-35 -57 -81 -86.5t-96.5 -27.5t-95.5 36q-3 -115 -1 -198q0 -21 -14.5 -36.5t-35.5 -15.5t-36.5 14.5t-15.5 35.5z" />
    <glyph glyph-name="ydieresis" unicode="&#xff;" horiz-adv-x="503" 
d="M442 486l-34 -116l-39 -128q-15 -50 -43 -125t-55.5 -128t-69.5 -111.5t-91 -101.5q-15 -14 -35.5 -13t-34.5 16.5t-13 36t17 34.5q102 92 173 262q-117 143 -216 336q-9 19 -2.5 38.5t25 29t38 3t29.5 -24.5q78 -155 167 -272l47 156l41 138q6 20 24.5 29.5t38.5 3.5
t29.5 -24.5t3.5 -38.5zM210 660q0 -21 -15 -36t-36 -15t-36 15t-15 36t15 36t36 15t36 -15t15 -36zM350 653q0 -21 -15 -36t-36 -15t-36 15t-15 36t15 36t36 15t36 -15t15 -36z" />
    <glyph glyph-name="Amacron" unicode="&#x100;" horiz-adv-x="669" 
d="M195 309q45 10 181 31q-21 62 -45 147q-21 76 -22 78q-22 -43 -31 -65zM-13 92q149 327 199 446q11 26 28 61q19 39 25 54q1 0 1 1v1q0 1 0.5 5.5t2.5 12.5q4 18 13 30q19 27 52 26q27 -1 47 -24q9 -11 18 -28q12 -23 25 -62q0 -1 29 -102q44 -155 86 -250l48 -104
q31 -68 46 -110q7 -20 -2 -38.5t-28.5 -25.5t-38 2t-25.5 28q-15 43 -43 102l-49 106l-9 21l-62 -10l-66 -10q-22 -3 -55.5 -10t-62.5 -15q-10 -3 -21 -1l-68 -148q-8 -19 -27.5 -26t-38.5 1.5t-26 28t2 38.5zM173 804q90 -2 283 5q11 0 18.5 -7t8 -18t-6.5 -18.5t-18 -8.5
q-195 -7 -287 -5q-10 0 -17.5 8t-7.5 18.5t8 18t19 7.5z" />
    <glyph glyph-name="amacron" unicode="&#x101;" horiz-adv-x="637" 
d="M359 204q0 80 -4 198q-8 4 -22 10t-19 8l-14 5q-9 3 -16 3.5t-14 0.5q-50 -2 -93.5 -46t-60.5 -110t2.5 -113.5t70.5 -62.5q47 -14 81 9q29 19 72 82q6 10 17 16zM121 652q62 -1 86 -0.5t86.5 2t86.5 2.5q13 0 22 -9t9.5 -21.5t-8.5 -21.5t-21 -10q-24 0 -87.5 -2
t-88.5 -2h-87q-12 1 -21 10t-8.5 21.5t9.5 21.5t22 9zM452 472q8 -196 6 -301q-1 -28 -1 -61q6 2 16.5 4.5t11.5 2.5q22 6 37 8q20 2 36.5 -10.5t19 -33t-10 -37t-33.5 -19.5q-9 -1 -24 -5q-31 -7 -32 -8q-49 -11 -85 0q-20 6 -30 25q-3 4 -4 10q-1 1 -1 2q-16 -15 -32 -26
q-74 -49 -165 -22q-42 13 -73 37t-48 54t-25 65.5t-6.5 70.5t10.5 70q15 57 47 107.5t85 86t115 37.5q44 2 101 -23q14 13 33 14q21 1 36 -13t16 -35z" />
    <glyph glyph-name="Abreve" unicode="&#x102;" horiz-adv-x="669" 
d="M195 309q45 10 181 31q-21 62 -45 147q-21 76 -22 78q-22 -43 -31 -65zM-13 92q149 327 199 446q11 26 28 61q19 39 25 54q1 0 1 1v1q0 1 0.5 5.5t2.5 12.5q4 18 13 30q19 27 52 26q27 -1 47 -24q9 -11 18 -28q12 -23 25 -62q0 -1 29 -102q44 -155 86 -250l48 -104
q31 -68 46 -110q7 -20 -2 -38.5t-28.5 -25.5t-38 2t-25.5 28q-15 43 -43 102l-49 106l-9 21l-62 -10l-66 -10q-22 -3 -55.5 -10t-62.5 -15q-10 -3 -21 -1l-68 -148q-8 -19 -27.5 -26t-38.5 1.5t-26 28t2 38.5zM242 878q17 -37 50.5 -50t67.5 1.5t51 52.5q5 12 16.5 16t23 -1
t15.5 -16.5t-1 -22.5q-19 -44 -57 -69t-79 -27t-81 22q-39 23 -60 70q-5 11 -1 22.5t15.5 16.5t23 1t16.5 -16z" />
    <glyph glyph-name="abreve" unicode="&#x103;" horiz-adv-x="637" 
d="M359 204q0 80 -4 198q-8 4 -22 10t-19 8l-14 5q-9 3 -16 3.5t-14 0.5q-50 -2 -93.5 -46t-60.5 -110t2.5 -113.5t70.5 -62.5q47 -14 81 9q29 19 72 82q6 10 17 16zM452 472q8 -196 6 -301q-1 -28 -1 -61q6 2 16.5 4.5t11.5 2.5q22 6 37 8q20 2 36.5 -10.5t19 -33t-10 -37
t-33.5 -19.5q-9 -1 -24 -5q-31 -7 -32 -8q-49 -11 -85 0q-20 6 -30 25q-3 4 -4 10q-1 1 -1 2q-16 -15 -32 -26q-74 -49 -165 -22q-42 13 -73 37t-48 54t-25 65.5t-6.5 70.5t10.5 70q15 57 47 107.5t85 86t115 37.5q44 2 101 -23q14 13 33 14q21 1 36 -13t16 -35zM160 714
q18 -38 51 -51.5t66.5 1.5t51.5 54q5 12 16.5 16t23 -1t15.5 -16.5t-1 -22.5q-19 -44 -57.5 -70t-79 -28t-80 22t-60.5 72q-5 11 -1 22.5t15.5 16.5t23 1t16.5 -16z" />
    <glyph glyph-name="Aogonek" unicode="&#x104;" horiz-adv-x="700" 
d="M195 309q43 9 185 32q-30 78 -49 146q-21 76 -22 78q-22 -43 -31 -65zM582 -11q-47 -43 -58 -79q-5 -16 0 -25q6 -13 32 -23q4 -1 15 1q35 9 36 9q13 1 22.5 -6.5t11 -20t-6 -22t-19.5 -11.5q-4 0 -8 -1t-10 -3t-12 -3q-28 -7 -49 1q-49 17 -66 52q-16 32 -3 71
q12 36 46 75q-7 8 -10 18q-22 70 -85 224q-21 -4 -63.5 -10.5t-66.5 -10.5t-58.5 -11t-63.5 -15q-10 -3 -21 -1l-68 -148q-8 -19 -27.5 -26t-38.5 1.5t-26 28t2 38.5q149 327 199 446q11 26 28 61q19 39 25 54q1 0 1 1v1q0 1 0.5 5.5t2.5 12.5q4 18 13 30q19 27 52 26
q27 -1 47 -24q9 -11 18 -28q12 -23 25 -62q2 -7 29 -102q21 -75 83 -226q66 -161 89 -235q7 -24 -7 -44q-1 -11 -10 -19z" />
    <glyph glyph-name="aogonek" unicode="&#x105;" horiz-adv-x="637" 
d="M359 204q0 80 -4 198q-8 4 -22 10t-19 8l-14 5q-9 3 -16 3.5t-14 0.5q-50 -2 -93.5 -46t-60.5 -110t2.5 -113.5t70.5 -62.5q47 -14 81 9q29 19 72 82q6 10 17 16zM463 -22q-47 -44 -58 -79q-5 -16 0 -25q6 -13 32 -23q4 -1 15 1q35 9 36 9q13 1 22.5 -6.5t11 -20t-6 -22
t-19.5 -11.5q-4 0 -8 -1t-10 -3t-12 -3q-28 -7 -49 1q-49 17 -66 52q-16 32 -3 71q14 43 61 90l-16 4q-20 6 -30 25q-3 4 -4 10q-1 1 -1 2q-16 -15 -32 -26q-74 -49 -165 -22q-42 13 -73 37t-48 54t-25 65.5t-6.5 70.5t10.5 70q15 57 47 107.5t85 86t115 37.5q44 2 101 -23
q14 13 33 14q21 1 36 -13t16 -35q8 -196 6 -301q-1 -28 -1 -61q6 2 16.5 4.5t11.5 2.5q22 6 37 8q20 2 36.5 -10.5t19 -33t-10 -37t-33.5 -19.5q-9 -1 -24 -5q-30 -7 -32 -8q-4 0 -7 -1q7 -19 -8 -33z" />
    <glyph glyph-name="Cacute" unicode="&#x106;" horiz-adv-x="740" 
d="M562 564q-24 47 -56 68q-34 22 -90 25q-60 3 -112.5 -17.5t-89.5 -58.5t-61.5 -88t-32.5 -107q-12 -77 6.5 -142t69.5 -109t128 -51q76 -8 135 19q18 8 31.5 15.5t27.5 19.5l21 20q8 7 27 26l31 32q14 15 35 15t35.5 -14.5t14.5 -35.5t-15 -35l-29 -30q-19 -20 -30 -30
l-28 -26q-17 -15 -37 -26.5t-44 -22.5q-82 -37 -185 -27q-58 6 -106 26.5t-81.5 51t-58.5 70.5t-36 84.5t-15.5 91.5t4.5 92q10 71 41.5 135.5t80.5 116.5t121.5 81t157.5 24q81 -5 138 -40.5t92 -108.5q9 -19 2 -38.5t-25.5 -28.5t-38 -2t-28.5 25z" />
    <glyph glyph-name="cacute" unicode="&#x107;" horiz-adv-x="530" 
d="M371 390q-15 12 -39 34q-14 12 -17 15q-9 5 -51 7q-57 3 -98.5 -40.5t-53.5 -116t13 -128t76 -70.5q34 -10 61.5 -7t56.5 22q8 5 13.5 10.5t11.5 15.5t9 16.5t11 23.5l11 28q9 18 28.5 25.5t38 -1t26 -28t-0.5 -38.5q-2 -3 -10 -22.5t-13.5 -30t-16 -28t-24 -31
t-30.5 -24.5q-91 -59 -200 -27q-41 12 -72.5 37t-50 56.5t-30 69t-11.5 74.5t5 73q7 47 27 89.5t51 78.5t77 56t101 17q67 -4 98 -22q12 -8 31 -26l36 -32q16 -13 18 -33.5t-11.5 -36.5t-34 -18t-36.5 12z" />
    <glyph glyph-name="Ccircumflex" unicode="&#x108;" horiz-adv-x="740" 
d="M562 564q-24 47 -56 68q-34 22 -90 25q-60 3 -112.5 -17.5t-89.5 -58.5t-61.5 -88t-32.5 -107q-12 -77 6.5 -142t69.5 -109t128 -51q76 -8 135 19q18 8 31.5 15.5t27.5 19.5l21 20q8 7 27 26l31 32q14 15 35 15t35.5 -14.5t14.5 -35.5t-15 -35l-29 -30q-19 -20 -30 -30
l-28 -26q-17 -15 -37 -26.5t-44 -22.5q-82 -37 -185 -27q-58 6 -106 26.5t-81.5 51t-58.5 70.5t-36 84.5t-15.5 91.5t4.5 92q10 71 41.5 135.5t80.5 116.5t121.5 81t157.5 24q81 -5 138 -40.5t92 -108.5q9 -19 2 -38.5t-25.5 -28.5t-38 -2t-28.5 25z" />
    <glyph glyph-name="ccircumflex" unicode="&#x109;" horiz-adv-x="530" 
d="M371 390q-15 12 -39 34q-14 12 -17 15q-9 5 -51 7q-57 3 -98.5 -40.5t-53.5 -116t13 -128t76 -70.5q34 -10 61.5 -7t56.5 22q8 5 13.5 10.5t11.5 15.5t9 16.5t11 23.5l11 28q9 18 28.5 25.5t38 -1t26 -28t-0.5 -38.5q-2 -3 -10 -22.5t-13.5 -30t-16 -28t-24 -31
t-30.5 -24.5q-91 -59 -200 -27q-41 12 -72.5 37t-50 56.5t-30 69t-11.5 74.5t5 73q7 47 27 89.5t51 78.5t77 56t101 17q67 -4 98 -22q12 -8 31 -26l36 -32q16 -13 18 -33.5t-11.5 -36.5t-34 -18t-36.5 12z" />
    <glyph glyph-name="Cdotaccent" unicode="&#x10a;" horiz-adv-x="740" 
d="M562 564q-24 47 -56 68q-34 22 -90 25q-60 3 -112.5 -17.5t-89.5 -58.5t-61.5 -88t-32.5 -107q-12 -77 6.5 -142t69.5 -109t128 -51q76 -8 135 19q18 8 31.5 15.5t27.5 19.5l21 20q8 7 27 26l31 32q14 15 35 15t35.5 -14.5t14.5 -35.5t-15 -35l-29 -30q-19 -20 -30 -30
l-28 -26q-17 -15 -37 -26.5t-44 -22.5q-82 -37 -185 -27q-58 6 -106 26.5t-81.5 51t-58.5 70.5t-36 84.5t-15.5 91.5t4.5 92q10 71 41.5 135.5t80.5 116.5t121.5 81t157.5 24q81 -5 138 -40.5t92 -108.5q9 -19 2 -38.5t-25.5 -28.5t-38 -2t-28.5 25z" />
    <glyph glyph-name="cdotaccent" unicode="&#x10b;" horiz-adv-x="530" 
d="M371 390q-15 12 -39 34q-14 12 -17 15q-9 5 -51 7q-57 3 -98.5 -40.5t-53.5 -116t13 -128t76 -70.5q34 -10 61.5 -7t56.5 22q8 5 13.5 10.5t11.5 15.5t9 16.5t11 23.5l11 28q9 18 28.5 25.5t38 -1t26 -28t-0.5 -38.5q-2 -3 -10 -22.5t-13.5 -30t-16 -28t-24 -31
t-30.5 -24.5q-91 -59 -200 -27q-41 12 -72.5 37t-50 56.5t-30 69t-11.5 74.5t5 73q7 47 27 89.5t51 78.5t77 56t101 17q67 -4 98 -22q12 -8 31 -26l36 -32q16 -13 18 -33.5t-11.5 -36.5t-34 -18t-36.5 12z" />
    <glyph glyph-name="Ccaron" unicode="&#x10c;" horiz-adv-x="740" 
d="M562 564q-24 47 -56 68q-34 22 -90 25q-60 3 -112.5 -17.5t-89.5 -58.5t-61.5 -88t-32.5 -107q-12 -77 6.5 -142t69.5 -109t128 -51q76 -8 135 19q18 8 31.5 15.5t27.5 19.5l21 20q8 7 27 26l31 32q14 15 35 15t35.5 -14.5t14.5 -35.5t-15 -35l-29 -30q-19 -20 -30 -30
l-28 -26q-17 -15 -37 -26.5t-44 -22.5q-82 -37 -185 -27q-58 6 -106 26.5t-81.5 51t-58.5 70.5t-36 84.5t-15.5 91.5t4.5 92q10 71 41.5 135.5t80.5 116.5t121.5 81t157.5 24q81 -5 138 -40.5t92 -108.5q9 -19 2 -38.5t-25.5 -28.5t-38 -2t-28.5 25z" />
    <glyph glyph-name="ccaron" unicode="&#x10d;" horiz-adv-x="530" 
d="M371 390q-15 12 -39 34q-14 12 -17 15q-9 5 -51 7q-57 3 -98.5 -40.5t-53.5 -116t13 -128t76 -70.5q34 -10 61.5 -7t56.5 22q8 5 13.5 10.5t11.5 15.5t9 16.5t11 23.5l11 28q9 18 28.5 25.5t38 -1t26 -28t-0.5 -38.5q-2 -3 -10 -22.5t-13.5 -30t-16 -28t-24 -31
t-30.5 -24.5q-91 -59 -200 -27q-41 12 -72.5 37t-50 56.5t-30 69t-11.5 74.5t5 73q7 47 27 89.5t51 78.5t77 56t101 17q67 -4 98 -22q12 -8 31 -26l36 -32q16 -13 18 -33.5t-11.5 -36.5t-34 -18t-36.5 12z" />
    <glyph glyph-name="Dcaron" unicode="&#x10e;" horiz-adv-x="691" 
d="M173 68q70 -8 109 10q52 25 104.5 69t89.5 97q83 119 44 217q-33 85 -182 121q-79 19 -196 24q-3 -93 14 -295q14 -170 17 -243zM71 708q184 -3 291 -29q199 -48 252 -182q22 -53 18 -110t-22 -105q-19 -47 -52 -95q-45 -65 -107 -117q-63 -52 -127 -82q-62 -30 -154 -20
q-14 -28 -45 -28q-19 0 -33.5 13t-16.5 32l-16 5q-20 5 -31 22.5t-5 37.5q4 18 18 28.5t31 9.5q-2 45 -16 215q-17 200 -14 314q-22 15 -22 42q0 21 15 35t36 14z" />
    <glyph glyph-name="dcaron" unicode="&#x10f;" horiz-adv-x="543" 
d="M347 362q-2 1 -39 37q-16 16 -28 21q-21 11 -64 5q-42 -6 -57 -22q-26 -29 -44.5 -78t-19.5 -98q-2 -104 72 -128q47 -16 92 2q14 5 23.5 10t19 13t14.5 14l20 20l25 27q-1 99 -1 169q-7 3 -13 8zM484 731q-6 -41 -10.5 -86.5t-7 -81.5t-4 -89.5t-2 -82t0 -89.5
t0.5 -82.5t1.5 -91t1.5 -85.5q0 -21 -14 -36t-35 -15t-36 14t-15 35v5q-29 -23 -69 -39q-78 -30 -160 -4q-51 17 -84 55t-45 80t-11 90q2 67 26.5 133t63.5 110q39 42 117 53q75 11 124 -14q18 -10 37 -26q5 142 21 261q3 20 19.5 32.5t37 10t33 -19t10.5 -37.5z" />
    <glyph glyph-name="Dcroat" unicode="&#x110;" horiz-adv-x="691" 
d="M173 68q70 -8 109 10q52 25 104.5 69t89.5 97q83 119 44 217q-33 85 -182 121q-79 19 -196 24q-3 -93 14 -295q14 -170 17 -243zM71 708q184 -3 291 -29q199 -48 252 -182q22 -53 18 -110t-22 -105q-19 -47 -52 -95q-45 -65 -107 -117q-63 -52 -127 -82q-62 -30 -154 -20
q-14 -28 -45 -28q-19 0 -33.5 13t-16.5 32l-16 5q-20 5 -31 22.5t-5 37.5q4 18 18 28.5t31 9.5q-2 45 -16 215q-17 200 -14 314q-22 15 -22 42q0 21 15 35t36 14z" />
    <glyph glyph-name="dcroat" unicode="&#x111;" horiz-adv-x="602" 
d="M347 362q-2 1 -39 37q-16 16 -28 21q-21 11 -64 5q-42 -6 -57 -22q-26 -29 -44.5 -78t-19.5 -98q-2 -104 72 -128q47 -16 92 2q14 5 23.5 10t19 13t14.5 14l20 20l25 27q-1 99 -1 169q-7 3 -13 8zM253 637q50 -2 119 0q5 56 12 108q3 20 19.5 32.5t37 10t33 -19
t10.5 -37.5q-7 -44 -11 -91q22 0 39 1q13 0 22 -9t9.5 -21.5t-8.5 -21.5t-21 -10q-20 0 -46 -1q-3 -42 -5 -91t-2.5 -82.5t-0.5 -94.5t0.5 -83.5t2 -96t1.5 -87.5q0 -21 -14 -36t-35 -15t-36 14t-15 35v5q-29 -23 -69 -39q-78 -30 -160 -4q-51 17 -84 55t-45 80t-11 90
q2 67 26.5 133t63.5 110q39 42 117 53q75 11 124 -14q18 -10 37 -26q1 48 4 92q-67 -2 -116 -1q-12 1 -21 10t-8.5 21.5t9.5 21.5t22 9z" />
    <glyph glyph-name="itilde" unicode="&#x129;" horiz-adv-x="398" 
d="M219 476q-1 -72 1.5 -214t1.5 -212q0 -21 -15 -35.5t-35.5 -14.5t-35 15t-14.5 35q1 71 -1.5 213t-1.5 215q0 20 15 34.5t35.5 14.5t35 -15t14.5 -36zM12 694q43 61 93 60q26 -1 75 -30q32 -19 48 -17q26 1 59 45q7 10 19 12t21.5 -5.5t11.5 -19.5t-6 -21
q-49 -66 -101 -70q-34 -2 -82 26q-35 21 -46 22q-19 0 -44 -36q-7 -10 -19 -12t-22 5t-12 19t5 22z" />
    <glyph glyph-name="dotlessi" unicode="&#x131;" horiz-adv-x="219" 
d="M157 472q-1 -72 1.5 -214t1.5 -212q0 -21 -15 -35.5t-35.5 -14.5t-35 15t-14.5 35q1 71 -1.5 213t-1.5 215q0 20 15 34.5t35.5 14.5t35 -15t14.5 -36z" />
    <glyph glyph-name="oe" unicode="&#x153;" horiz-adv-x="906" 
d="M376 287q-2 23 -9 42q-25 66 -56 83q-9 1 -40 7q-35 -2 -100 -30q-12 -6 -24 -4q-48 -49 -43 -132q4 -67 41 -110t94 -42q76 0 115 76q15 28 21 61q-3 6 -5 12q-4 20 6 37zM504 331q50 11 93 24q117 35 138 67l1 2v3q-2 2 -11 5.5t-10.5 4t-9 4t-8.5 3.5t-8 2.5t-7.5 1.5
t-8 1t-8.5 1t-9 0q-45 -2 -85.5 -34.5t-66.5 -84.5zM814 493q14 -8 21.5 -23.5t3.5 -32.5q-1 -2 -2 -8q-2 -15 -2 -16q-4 -28 -16 -47q-42 -62 -194 -107q-57 -17 -149 -37q-3 -54 20.5 -91.5t69.5 -51.5q36 -11 49 -9q8 1 46 18q43 20 51 26q5 4 16 15l36 32q15 14 35.5 13
t34.5 -16.5t13 -36t-17 -34.5l-33 -31q-15 -15 -24 -21q-16 -12 -70 -37q-53 -24 -75 -27q-34 -5 -90 12q-87 26 -129 98q-68 -79 -170 -80q-54 0 -98.5 21.5t-72.5 57.5t-44 79t-19 88q-2 45 9 89.5t35 84t66.5 67t98.5 34.5q27 4 65 -3q20 0 39 -4q74 -17 119 -101
q38 59 93 96t122 40q17 1 33 -1t32.5 -7t26 -8.5t26 -11t20.5 -9.5q15 -6 24 -20z" />
    <glyph glyph-name="endash" unicode="&#x2013;" horiz-adv-x="586" 
d="M10 313q117 -1 162.5 -0.5t162 2t162.5 2.5q12 0 21.5 -9t9.5 -21.5t-9 -22t-22 -9.5q-45 0 -162 -2t-163 -2h-162q-13 0 -22 9.5t-9 22t9.5 21.5t21.5 9z" />
    <glyph glyph-name="emdash" unicode="&#x2014;" horiz-adv-x="890" 
d="M118 310q164 -1 227.5 -0.5t227.5 2t228 2.5q12 0 21.5 -9t9.5 -21.5t-9 -22t-22 -9.5q-63 0 -227.5 -2t-227.5 -2h-228q-13 0 -22 9.5t-9 22t9.5 21.5t21.5 9z" />
    <glyph glyph-name="quoteleft" unicode="&#x2018;" horiz-adv-x="235" 
d="M116 468q-56 11 -82 32q-40 33 -26 83q6 21 29 56q25 36 32 50q10 18 30 24t38 -4t24 -30t-4 -38t-37 -58l-7 -11q10 -3 23 -6q20 -4 31.5 -21t7.5 -37.5t-21 -32t-38 -7.5z" />
    <glyph glyph-name="quoteright" unicode="&#x2019;" horiz-adv-x="265" 
d="M88 716q57 -8 84 -26q43 -29 33 -80q-4 -21 -25 -57q-21 -38 -27 -53q-9 -19 -28 -26.5t-38 1t-26.5 27.5t0.5 38q9 20 32 61l6 12q-10 2 -23 3q-21 3 -33.5 19.5t-10 37t19 33t36.5 10.5z" />
    <glyph glyph-name="quotedblleft" unicode="&#x201c;" horiz-adv-x="393" 
d="M116 468q-56 11 -82 32q-40 33 -26 83q6 21 29 56q25 36 32 50q10 18 30 24t38 -4t24 -30t-4 -38t-37 -58l-7 -11q10 -3 23 -6q17 -3 28 -16q-2 16 2 33q6 21 29 56q25 36 32 50q10 18 30 24t38 -4t24 -30t-4 -38t-37 -58l-7 -11q10 -3 23 -6q20 -4 31.5 -21t7.5 -37.5
t-21 -32t-38 -7.5q-56 11 -82 32q-10 8 -16 18q0 -6 -1 -11q-4 -20 -21 -31.5t-38 -7.5z" />
    <glyph glyph-name="quotedblright" unicode="&#x201d;" horiz-adv-x="391" 
d="M236 611q3 -5 6 -2l-1 1q-3 1 -5 1zM75 610q3 -5 6 -2zM48 715q57 -4 85 -21q16 -10 25 -24v2q2 21 18.5 34t36.5 11q58 -6 85 -25q42 -28 33 -79q-4 -21 -23 -58q-20 -37 -27 -53q-8 -19 -27 -27t-38 0t-27 27t0 38q8 20 31 62l6 12q-10 2 -23 3q-19 2 -32 17
q0 -9 -1 -18q-3 -21 -21 -59q-19 -40 -25 -55q-8 -19 -27 -27.5t-38 -1t-27.5 26.5t-1 38t28.5 63q3 6 5 11q-10 2 -24 3q-20 2 -33.5 17.5t-12 36t17 34t36.5 12.5z" />
    <glyph glyph-name="dagger" unicode="&#x2020;" horiz-adv-x="565" 
d="M176 409q-1 1 -4 1q-6 2 -18 2q-17 1 -54 0q-42 -2 -55 -2q-13 1 -22 2q-12 1 -18 6q-7 6 -9 19q-1 7 -1 17q0 5 1 16v9l-4 14q-4 16 2 27q3 5 10 8q4 2 9 3q9 2 23 3q23 1 63 1q7 0 96 -3q0 5 -9 77t5 112q5 15 24 21q13 4 31 2q17 -2 30 -9q17 -9 21 -23q8 -22 7 -92
q-1 -32 0 -46q1 -20 5 -27q0 -1 3 -2q7 -2 18 -3q18 -2 56 -1q47 2 61 2q15 0 24 -2q14 -3 21 -10q4 -5 7 -14q2 -6 3.5 -14.5t3.5 -23.5q2 -18 -8 -30q-9 -10 -25 -15q-21 -6 -64 -6q-5 0 -29 1t-35 0q-14 0 -22 -2q-3 -1 -4 -1v-1q-1 -4 -1 -11v-34q1 -36 3 -58
q1 -9 10.5 -101t14.5 -154q7 -94 4 -147q-1 -33 -5 -52q-7 -27 -22 -32q-7 -3 -26 -3q-17 0 -37 1q-21 2 -36 4q-8 2 -13 3q-11 4 -14 11q-5 13 -7 38q0 6 -0.5 18t-0.5 16q-2 27 -6 88.5t-6.5 96.5t-4.5 86.5t-2 94.5q0 60 3 99q0 4 2 10q1 6 1 8v2zM211 682q2 4 3 7
q1 2 1 3h1v2v2q0 2 0.5 5.5t0.5 7.5v1v1q-4 -13 -6 -29zM258 674q3 1 6 1q8 -1 12 -7q-1 24 -5 36q-1 3 -8 6q-9 5 -20 6h-1q3 -4 3 -9v-2q6 0 11 -4q9 -6 7 -16q-1 -4 -4 -9q0 -1 -1 -2zM260 569q5 1 9.5 0t7.5 -4q-1 4 -1 8q-1 14 0 47v27q-3 -6 -8 -15q-4 -8 -11 -20
q3 -2 6 -6q6 -6 5 -17q-1 -5 -4 -12zM296 -107q-3 -3 -9 -11q-9 -11 -20 -2q-5 4 -5 10v1l-4 -2q-10 -4 -17 3q-6 6 -7 13q-1 6 2 11q-2 1 -3 2q-4 3 -5 8q-4 0 -8 1q-2 1 -3 2v-3q0 -5 0.5 -16.5t0.5 -17.5q1 -18 3 -24q3 -1 8 -2q13 -3 33 -4q19 -1 34 -1q12 0 17 1
q3 5 4 13q4 16 6 46q2 52 -5 144q-5 62 -14.5 154t-10.5 101q-2 22 -3 59v36q0 8 1 13v1l-12 -17l-9 -12q3 -1 5 -3q8 -5 8 -14q0 -6 -3 -12q-2 -4 -12 -20q-8 -12 -14 -22l2 2q5 5 9 7q3 2 5 3q5 3 10 2q10 -2 12 -12v-4q0 -1 -1 -2q0 -1 -0.5 -2t-0.5 -2q-1 -3 -3 -7
l-13 -22l-2 -3q5 0 8 -2q8 -5 7 -14q0 -2 -1 -6t-4 -10q-3 -7 -10 -20q9 1 13 -7q2 -3 2 -7v-3q0 -1 -1 -2q-5 -16 -11 -30q2 0 4 -1q8 -4 9 -13q1 -4 -0.5 -9t-5.5 -12q1 0 2 -1q6 -1 9 -7q3 -5 2 -11q0 -3 -1 -6q-2 -5 -6 -12q-3 -6 -9 -16q6 1 11 -2q6 -3 8 -10
q1 -9 -1 -18h2q8 1 13 -5q4 -5 3 -11q0 -2 -1 -4q-4 -10 -12 -24q6 1 11 -1q5 -3 7 -10q2 -4 0 -9q0 -1 -1 -2.5t-2 -3.5q-2 -2 -5 -7l-16 -19l-2 -2q5 -5 5 -13q-1 -17 -8 -30q4 -5 2 -12q5 -2 7 -9q1 -4 1 -6.5t-1 -3.5l-1 -2h-1q-1 -1 -1 -2v-1h-1zM219 13q-2 1 -3 2
q-4 2 -6 6l5 -69l2 3q2 2 4 5.5t6 9t6 9.5l3 4q-3 0 -7 1q-13 5 -13 18q0 5 3 11zM211 94q-2 1 -3.5 1.5t-2.5 1.5l1 -16q0 3 2 8q1 2 3 5zM210 138q-3 1 -5 2l-2 2v-11l1 1zM216 314h-1l-2 -2q-3 -2 -8 -2q-4 0 -7 2v-22q0 -56 3 -123l1 1l4 5l1 2l19 36q-7 -1 -12 4
q-6 5 -5 13q0 5 4 11q1 1 4 7q2 3 2 4q2 4 5 9h-2q-5 -2 -10 0q-10 4 -11 15q0 4 2 9q1 2 3 5l1 2q4 12 9 24zM194 447q-4 -3 -8 -5q-6 -2 -11 -4h3q13 -3 19 -9q9 -10 7 -26q0 -3 -2 -10q-1 -4 -1 -6q-2 -22 -2 -47l4 8l20 33q2 4 13 19l6 7q-6 -3 -11 -5q-4 -1 -7 -2
q-7 0 -12 5q-6 5 -6 12q0 4 2 8q0 2 1 4q-5 0 -8 2q-8 6 -6 15zM58 503l7 4q-16 0 -27 -1q-13 -1 -19 -2h-1q1 -2 1 -3t1 -3t1.5 -4.5t1.5 -5.5q3 7 11 11l6 3h2q8 6 16 1zM280 496l3 2q2 1 5 4l8 6q4 4 8 7l3 3q-2 0 -5 1q-13 5 -19 16q-2 5 -4 12v-2q-2 -3 -5 -9
q-3 -5 -9 -14q1 0 3 -1q4 -1 7 -4q2 -1 4 -4q5 -6 2 -14q0 -1 -1 -3zM339 496l8 4l15 9l6 4h-27q0 -2 1 -4q1 -6 -3 -13zM448 490q3 1 8 2.5t6 1.5q2 0 13 4q-1 7 -3 11v3q-2 0 -6 1q-7 2 -20 2h-28q0 -2 -1 -4l-2 -4q6 2 10 3.5t7 1.5q7 0 12 -5t5 -12q0 -3 -1 -5zM414 474
l-14 -8q-10 -6 -17 -9q19 -1 27 -1q38 0 55 5q8 3 11 6l2 2q-6 -2 -10 -3q-11 -3 -21 -5q-11 -1 -18 1q-11 3 -15 12zM331 460l-9 -5q4 1 10 2q-1 1 -1 3zM114 455l-10 -7q-9 -6 -13 -9l8 1q34 1 52 0l-3 3q-5 6 -3 13q1 1 1 2q-10 -5 -18 -7h-5q-5 1 -9 4zM58 470
q-6 -3 -11 -5q-6 -2 -11 -1q-6 1 -10 4q-1 1 -2 3v-3q-1 -10 -1 -15v-12l1 -1q1 0 3 -1q7 0 18 -1q10 0 23 1q-6 6 -4 14q1 2 2 5q2 1 3 3q-2 1 -4 3q-5 3 -7 6zM207 74l3 -42q0 3 2 8q1 2 5 7q2 4 2 5q1 3 5 10h-5q-6 2 -10 7q-2 3 -2 5z" />
    <glyph glyph-name="daggerdbl" unicode="&#x2021;" horiz-adv-x="544" 
d="M13 503h1l10 7q-7 -1 -11 -2v-5zM18 89q1 4 3 6l2 2q4 3 12 8q1 1 3 1q-12 0 -15 -1l-4 -5q-1 -4 -1 -11zM298 -106q-1 -3 -4 -8l-17 -26q10 0 14 1q6 1 7 19q1 6 0 14zM188 672q1 12 3 21q2 16 6 26q6 15 17 18q18 5 44 4q16 0 26 -4q17 -5 22 -16q5 -12 7 -36
q1 -18 1 -46q0 -17 -1 -45.5t-1 -35.5q0 -4 -3 -18q-1 -1 -1 -2q1 0 3 -1q6 -1 18 -1q11 0 57 3q42 3 59 1q15 -1 24 -6q13 -7 15 -22q1 -15 2 -24q1 -19 -3 -28q-4 -11 -18 -17q-9 -3 -24 -5q-18 -2 -57 -1h-54q-10 -1 -15 -3v-3v-25q0 -5 2 -77q3 -120 3 -130q0 -3 -1 -13
q-1 -12 -1 -18q-1 -11 0 -17v-2h2q7 -1 18 -1q3 0 51 4q36 3 54 1q33 -5 39 -28q1 -7 -1 -21q-1 -2 -1.5 -5t-1 -4.5t-0.5 -2.5t2 -12q2 -16 -5 -25q-9 -13 -37 -16q-16 -1 -48 -1h-48q-19 -1 -24 -4q-1 -1 -2 -5q-1 -7 -1 -21q1 -12 7 -64q6 -45 4 -67q-3 -39 -31 -44
q-17 -3 -64 -1q-23 1 -37 3q-9 1 -15 3q-10 4 -14 11q-5 11 -6 36q0 18 1 46q1 17 3 44.5t2 34.5q0 3 0.5 7t1.5 7l1 4v1q-6 1 -16 1q-15 -1 -49 -5q-38 -5 -52 -6q-29 -2 -40 3q-6 3 -10 11q-3 5 -5 12q-5 14 -6 31q-2 19 3 32q6 21 24 25q8 1 38 2h23h33q33 1 51 3
q9 1 14 2q2 11 2 38q0 31 -1 78q-3 95 -7 133q0 2 -0.5 10.5t-0.5 11.5q-1 12 -2 15q0 1 -4 2q-7 2 -18 3q-17 1 -56 -2q-42 -2 -56.5 -1.5t-23.5 2.5q-14 4 -19 14q-4 9 -4 23v16q0 4 -1 18v11v5v2q0 4 2 6q3 5 10 8q4 1 9 3l23 3q24 3 64 5q34 1 73 2l1 1q7 4 12 4
q5 1 9 0q-2 40 -2 72q0 15 1 27q-4 4 -4 9l1 9l2 1v1l1 1zM277 692q2 0 3 -1l4 -2q-1 15 -4 20v-10q0 -2 -1 -4t-2 -3zM270 585q1 1 2 1q4 2 8 2q2 0 5 -1q1 35 1 52v23q-3 -4 -7 -10q-5 -7 -21 -26l-2 -2l2 -4q3 -9 0 -19q3 0 5 -2q6 -4 7 -12v-2zM270 530q3 1 6 1t5 -1
q-2 7 0 17zM239 348l12 12l19 17q1 1 4 3.5t5 3.5q4 4 7 5q1 0 2 1q-1 8 -1 15v26v5q-2 0 -4 1q-7 2 -9 9l-3 -4q5 -1 8 -5q4 -4 3 -10q0 -2 -1 -4q-6 -20 -24 -48zM281 232l7 7l3 3l-2 86v11l-6 -8q1 -7 2 -17t-6 -25q-4 -9 -12 -21q4 1 7 -1q7 -2 9 -9zM285 180q3 -1 5 -4
q1 4 1 12v2zM293 118l11 7q-5 2 -8 5q-4 4 -5 11q-1 4 -1 9q-1 2 -1 4q-2 -2 -4 -5l-2 -2l-6 -10q5 0 10 -3q5 -5 5 -12v-2q0 -1 1 -2zM283 -77q3 1 7 1q3 0 6 -2q0 8 -2 18l-3 30l-6 -6l-6 -8q4 0 7 -3q6 -4 6 -12q0 -4 -2 -8l-2 -4zM196 -106q-3 -1 -6 0q-2 1 -3 1v-9
q1 -14 2 -21q3 -1 9 -2q13 -2 34 -3h19q-1 3 -1 7q-3 -2 -6 -3q-10 -4 -18 0t-8 14q-4 -2 -7 -1q-9 0 -13 7q-3 4 -2 10zM203 -55q-1 -1 -2 -1q-6 -1 -11 1l-1 1q-1 -9 -1 -16v-6q3 4 3 5zM208 31q-3 -2 -5 -3q-4 -2 -7 -3v-1l-2 -8q-1 -4 -1 -6q0 -8 -2 -35q2 3 3 4
q5 9 13 19h-1q-7 5 -6 14q0 4 2 9q1 2 3 5t2 4zM188 58q-4 -2 -8 -3q2 0 4 -2zM222 196q-6 -3 -12 -2q-2 0 -4 1v-9v-9v-5l2 3q6 8 8 11q2 4 6 10zM215 293q-5 -3 -9 -4q-1 -1 -2 -1q0 -16 0.5 -31t1.5 -29l10 15q2 4 7 11q-2 0 -5 1q-13 5 -12 18q0 7 5 15q2 2 4 5zM47 106
l1 1h-2q0 -1 1 -1zM124 102l6 3l6 3q-6 -1 -14 -1q1 -2 2 -5zM186 112q7 4 13 7h1l4 6q-1 0 -2 1q-4 -9 -16 -12v-1v-1zM436 118l2 3q2 2 4 3q-2 1 -3 1q-15 2 -47 -1q-6 0 -15.5 -1t-17 -1.5t-13.5 -1.5q0 -1 -1 -3t-1 -3h5q9 -2 11 -12l5 2l38 15q9 3 15 4h7q7 -1 11 -5z
M441 83q1 -2 1 -4q0 -7 -6 -12q13 2 16 4v4q-2 12 -2 13q-3 -2 -9 -5zM402 89l-26 -10l-30 -13h44h23q-15 5 -13 19zM302 68q-4 -1 -6.5 -1.5t-5.5 -0.5h-1v-3q-1 -1 -1 -3q-2 -4 -5 -8q6 0 11 -3q3 6 8 9l6 2l-1 1q-3 3 -5 7zM162 67l-15 -9h4h17q-2 1 -3 2q-2 3 -3 7z
M39 72q-3 -1 -5 -1h-6q-5 2 -8 6q-2 2 -2 4v-3q1 -13 4 -24q1 -3 2 -5q0 -1 -1 -1h1l1 -1v1q1 0 5 -0.5t8 -0.5h11q13 1 51 6q12 1 20 2q-7 5 -5 13v1l-2 -1q-6 -2 -11 -3q-3 -1 -6 -1q-7 1 -11 6l-3 -2q-17 -11 -25 -14h-4q-6 0 -10 3q-7 6 -4 15zM87 513l4 2h-6zM117 512
l6 5l-11 -1q3 -1 5 -4zM305 498l10 6q4 3 7 4q-9 0 -15 2q1 -4 0 -8zM345 495q11 8 15 10l3 3l3 2q-17 -2 -28 -2q2 -1 3 -2q4 -5 4 -11zM397 470l-8 -4l-2 -2q35 0 51 2q11 1 16 3q2 1 3 2q1 4 1 16q0 9 -2 22h-1q-4 2 -13 3q-15 2 -46 0q2 -3 3 -7v-1q4 3 7 4.5t5 1.5
q11 2 16 -7q1 -2 2 -5q2 1 5.5 2t4.5 1q13 5 17.5 -8.5t-9.5 -17.5q-17 -6 -21 -7q-9 -2 -15 -2q-9 0 -14 4zM161 470l-4 -2q-2 -1 -5 -3q-5 -3 -7 -5l-2 -1h4q15 -1 24 -4q14 -5 20 -15q5 -8 6 -27q0 -4 0.5 -11.5t0.5 -10.5q1 -14 3 -52l5 8q5 9 15 24h-8q-8 1 -11 7
q-4 7 -1 14q2 4 6 8l3 4l2 2q1 0 1 1l4 6q-3 0 -6 2q-9 5 -10 15q-1 7 3 15q3 6 15 18h-3q-9 0 -13 5l-2 4l-8 -4q-9 -4 -15 -5q-11 -1 -17 7zM111 474q-14 -10 -26 -17h3q16 1 26 2q-1 0 -1 1q-5 6 -2 14zM43 464q-10 -6 -20 -6q-4 0 -7 1h-1v-2h2q5 -2 16 -2t29 1
q-2 1 -3 3v1q-9 -2 -16 4zM25 48q0 1 -1 1v-1h1z" />
    <glyph glyph-name="Euro" unicode="&#x20ac;" horiz-adv-x="719" 
d="M547 518q-5 14 -8.5 27.5t-6 21t-6.5 14.5q-22 39 -78 44q-58 5 -107 -23q-15 -9 -45 -43q-25 -29 -39 -51q-17 -25 -27 -60h228q12 0 20.5 -8.5t8.5 -20.5t-8.5 -20.5t-20.5 -8.5h-239q-3 -30 -1 -61h234q12 0 20.5 -8.5t8.5 -20.5t-8.5 -20.5t-20.5 -8.5h-226
q4 -19 10 -36q23 -73 69 -108.5t111 -25.5q27 5 54.5 18t38.5 28q10 14 18 29.5t18.5 39t20 41.5t29.5 24.5t38 -3t24.5 -29.5t-3.5 -38q-4 -8 -15.5 -34t-24 -49.5t-25.5 -40.5q-26 -34 -70.5 -56t-86.5 -28q-56 -10 -105.5 3t-85 43.5t-60.5 69t-40 85.5q-11 33 -17 69
q-32 0 -61 1q-12 0 -20 9t-8 21t9 20t21 8q26 -1 53 -1q-1 31 1 61q-26 0 -50 1q-12 0 -20 9t-8 21t9 20t21 8q27 -1 56 -1q14 65 46 114q18 26 48 60q41 48 70 64q76 44 165 36q109 -9 156 -93q7 -12 13 -28.5t11 -33t5 -17.5q7 -20 -2 -38.5t-28.5 -25.5t-38 2t-25.5 28z
" />
    <glyph glyph-name="Ifraktur" unicode="&#x2111;" horiz-adv-x="804" 
d="M594 339l-499 -2q-8 -113 -7 -168q2 -110 33 -163q14 -24 35 -46t41 -33q37 -20 89 -30.5t105 -8.5q116 5 163 66q12 16 21 63q9 44 14 112q5 72 5 210zM3 336v86l679 4v-86h-2q0 -142 -5 -217q-5 -73 -15 -123q-14 -67 -38 -98q-71 -93 -227 -100q-64 -3 -127 10
q-64 13 -111 39q-33 17 -62 48t-48 63q-42 71 -45 205q-1 58 7 169h-6zM0 699h86v-48l377 4v45h86v-180h-86v49l-377 -4v-46h-86v180zM746 617q0 -31 -22 -53t-53 -22t-53 22q-9 9 -14 19q-12 12 -12 30q0 13 6 23q5 19 20 34q22 22 53 22t53 -22t22 -53z" />
    <glyph glyph-name="Rfraktur" unicode="&#x211c;" horiz-adv-x="828" 
d="M543 444q20 40 34 85t13 90.5t-30 60.5q-7 3 -87.5 -25t-114.5 -43q15 -93 5 -230q121 27 180 62zM141 359q-6 2 -18 4t-21 5t-16 8q-39 25 -56.5 74t-15.5 98t18 91l70 70q79 68 151 56q76 -12 102 -139l17 17q6 4 16 12l18 14q8 6 16 10q17 10 109 42.5t99 28.5
q27 -13 31 -50.5t-8.5 -80.5t-28.5 -80t-29 -55l-70 -70q-7 -7 -15 -13q65 9 84 -9q5 -3 8 -9t5 -14t3.5 -15.5t1.5 -19.5v-20q0 -8 -1 -22t-1 -22l-2 -24q-2 -25 -2.5 -38t-1.5 -34.5t2 -31.5l6 -24q3 -14 11 -17t19 -4.5t27 6.5t37 22l63 48l-70 -70l-63 -48
q-21 -15 -37.5 -23t-27.5 -6.5t-19 4.5t-11.5 17t-5.5 24t-1.5 32t1 34.5t2.5 37.5q2 16 2.5 24t1 22.5t0.5 22.5v20q0 12 -1.5 19t-3.5 15.5t-5 14t-7 9.5q-31 27 -167 -9q-5 -42 -12 -78l-5 -25q-2 -10 -6 -20.5t-6 -15t-10 -18.5l-12 -24l-70 -70l-18 -14q-11 -7 -15 -10
l-11 -6q-8 -5 -15 -6l-17 -4q-10 -2 -24 -3q-28 -3 -48 2.5t-31 15.5t-18.5 30t-10.5 36t-7.5 44t-7.5 45l70 70q4 -16 9 -44l6 -44q3 -16 11 -36t19 -30t30.5 -16t47.5 -3q34 4 49 10q12 25 20 66q12 65 18 147l-18 -4l19 19q5 57 1.5 120t-13 115.5t-35 89t-64.5 43.5
q-45 7 -89 -14q-9 -42 -9 -85t18.5 -85t52.5 -65q7 -4 16.5 -7t21 -5.5t17.5 -4.5z" />
    <glyph glyph-name="trademark" unicode="&#x2122;" horiz-adv-x="876" 
d="M278 651q-13 -160 -11 -271q0 -13 -9 -22t-21.5 -9.5t-21.5 8.5t-10 21q-2 113 11 271q-40 -2 -80 -6q-13 -2 -23 6.5t-11.5 21.5t7 23t21.5 11q113 12 234 7q13 0 22 -9.5t8.5 -22.5t-10 -22t-22.5 -8q-43 1 -84 1zM757 385q-5 38 -9 165l-1 36l-5 -13q-9 -20 -31 -83
q-19 -54 -28 -74v-3q-2 -11 -3 -12q-2 -12 -8 -20q-15 -19 -38 -14q-11 3 -21 12q-5 6 -11 14q-8 12 -20 34q-10 19 -46 94l-26 54q2 -23 2 -38v-64q-2 -49 -3 -63q0 -4 -1 -6v-4v-18q0 -13 -9 -22t-22 -9t-22 9t-9 22v33v2v2q0 2 0.5 4.5t1.5 4.5l1 2q0 5 0.5 19.5
t0.5 25.5v62q0 16 -3 51q-4 37 -4 56v9v16q1 13 6 22q6 12 18 16q13 5 26 -1q14 -6 29 -26l22 -36q15 -29 47 -96q37 -78 43 -89q4 11 19 52q21 59 32 85q19 49 34 71q12 18 25 26q25 14 48 -2q7 -5 10 -12q1 -3 2 -5q0 -2 1 -4v-4q0 -3 1 -8q0 -9 1 -26q0 -12 1 -40t1 -40
q5 -125 8 -161q2 -12 -6 -22t-20.5 -11.5t-22.5 6.5t-11 21z" />
    <glyph glyph-name="aleph" unicode="&#x2135;" horiz-adv-x="679" 
d="M430 730l60 60q-17 -88 -15 -94q6 -17 23 -34t36 -30t39 -29.5t32 -32t15.5 -38t-11.5 -48.5q-5 -9 -13.5 -18.5t-20 -19.5t-17.5 -17l-16 -16q4 5 7 11q9 18 10.5 35t-4.5 31t-15.5 25.5t-23.5 23.5l-55 -82l-43 -43q57 -22 88 -37q31 30 36 36l-36 -36q82 -38 89 -79
q4 -21 -2 -44t-14.5 -37.5t-25.5 -39.5l-23 -34l-60 -60q5 8 22 33t25.5 39.5t15 38t2.5 44.5q-6 27 -44.5 53t-84.5 43l-116 44q-68 26 -110 47q-25 -35 -28 -65.5t8.5 -55.5t26 -48.5t23 -54.5t-0.5 -64q-2 -7 -6.5 -15t-11.5 -16.5t-11 -14.5l-60 -60q3 5 10 13.5
t12 16.5t7 16q8 35 -2 68.5t-26 58.5t-26.5 52.5t1.5 63.5t53 80l27 27q-45 23 -74 47.5t-46.5 57.5t-11.5 75t38 92l60 60l36 26l-49 -49q-20 -38 -23 -71.5t3.5 -58.5t32 -49.5t46.5 -40.5t64 -35.5t67.5 -29.5t72.5 -28q14 -5 21 -8l75 113l18 18q-6 5 -26 20l-30 23
q-9 7 -20 20.5t-15 26.5q-2 5 15 94z" />
    <glyph glyph-name="arrowleft" unicode="&#x2190;" horiz-adv-x="707" 
d="M29 286q47 7 127 72q46 39 115 110q5 6 13.5 6t14.5 -5.5t6 -14t-6 -14.5q-69 -72 -118 -112q-33 -28 -62 -46q81 -1 214 -8q247 -13 295 -13q8 0 14 -6t6 -14t-6 -14t-14 -6q-59 0 -297 13q-128 7 -207 8q56 -36 123 -116q6 -6 5 -14.5t-7 -14t-14.5 -4.5t-13.5 7
q-47 55 -88.5 89t-92.5 51q-7 0 -13 4q-8 2 -11.5 9t-1.5 15q1 7 6 11q5 6 13 7z" />
    <glyph glyph-name="arrowup" unicode="&#x2191;" horiz-adv-x="572" 
d="M347 631q6 -40 62 -102q25 -27 98 -94q6 -6 6 -14t-5.5 -14.5t-13.5 -6.5t-15 5q-73 68 -99 97q-23 26 -39 48q10 -131 10 -252q0 -35 -5 -153q-4 -94 -1 -151q0 -8 -5.5 -14.5t-13.5 -6.5t-14.5 5.5t-6.5 13.5q-3 59 1 154q5 119 5 152q0 116 -9 240q-15 -24 -37 -48.5
t-38.5 -40t-46.5 -41.5q-6 -6 -14.5 -5t-14 7t-4.5 14.5t7 13.5q42 37 63.5 58.5t45.5 56t36 73.5q3 9 11 12q5 8 14 10q8 1 15 -4t8 -13z" />
    <glyph glyph-name="arrowright" unicode="&#x2192;" horiz-adv-x="796" 
d="M720 216q-57 -8 -100 -20.5t-85.5 -36t-73 -45t-87.5 -65.5q-6 -5 -14.5 -4t-13.5 7.5t-4 15t8 13.5q86 66 139 99t120 53q-45 1 -127 0t-109 -1q-15 0 -68 0.5t-76 0t-64.5 -1.5t-75 -3.5t-66.5 -7.5q-9 -1 -15.5 4t-7.5 13.5t4 15t13 7.5q34 4 69 7t77 4t65.5 1.5
t76.5 0t68 -0.5q30 0 100.5 1t108.5 1q-112 51 -188 119q-7 6 -7 14t5.5 14.5t13.5 6.5t14 -5q57 -50 120 -83.5t155 -69.5q8 0 16 -1t13 -6t6 -12q6 -5 7 -12q1 -8 -4 -15t-13 -8z" />
    <glyph glyph-name="arrowdown" unicode="&#x2193;" horiz-adv-x="570" 
d="M346 622q12 -145 12 -278q0 -35 -5 -153q-2 -47 -2 -76q22 35 51 63t76 66q7 6 15 5t13.5 -7.5t4.5 -14.5t-7 -13q-64 -52 -97 -89.5t-54 -93.5q-3 -8 -10.5 -11.5t-15.5 -0.5q-2 1 -3 2q-11 5 -12 17v6q-12 40 -69 96q-35 34 -102 87q-7 5 -8 13.5t4 15t13.5 7.5
t14.5 -4q70 -55 106 -90q23 -23 40 -44q0 20 2 67q5 117 5 152q0 131 -12 274q-1 9 4.5 15t14 7t14.5 -4.5t7 -13.5z" />
    <glyph glyph-name="carriagereturn" unicode="&#x21b5;" horiz-adv-x="655" 
d="M16 329q24 19 63.5 47t66.5 51t57 58q5 6 13.5 7t14.5 -4.5t7 -14t-5 -14.5q-16 -19 -31 -34.5t-34 -30.5l-28 -23q-8 -7 -32.5 -24.5t-30.5 -21.5q211 19 371 0q17 -2 49 -4.5t47 -4.5q-3 7 -5 13q-7 34 -10.5 64t-4 44t0.5 55.5t1 62.5q0 8 6 14t14 6t14 -6t6 -14
q0 -23 -1 -53.5t-1 -44t1 -34t4.5 -40t9.5 -46.5q0 -1 9 -15q13 -23 5 -40q-7 -15 -23 -16q-8 0 -17 4q-3 2 -6 3t-4 1l-2 2h-1q-16 2 -48 4q-30 3 -48 5q-150 18 -353 1q20 -10 43 -30q15 -11 43 -37q24 -23 35 -31q7 -5 8 -13.5t-4 -15t-13.5 -7.5t-14.5 4q-13 10 -38 33
l-41 36q-46 38 -76 37q-9 0 -15 5.5t-6 13.5v4q-5 5 -6 13q-1 6 2 11q-2 12 8 20z" />
    <glyph glyph-name="arrowdblleft" unicode="&#x21d0;" horiz-adv-x="917" 
d="M762 248h-1q-3 -1 -8 -2q-15 -2 -82 -5q-83 -4 -239 -1q-141 3 -180 2q46 -59 76 -130q4 -8 0.5 -15.5t-11 -11t-15 0t-10.5 10.5q-35 81 -91 144h-5q-8 0 -14.5 5.5t-6.5 13.5q0 4 1 7q-26 25 -57 48q-1 1 -3 2l-8 4q-11 7 -18 13q-30 24 -19 54l5 7l2 2l5 5l12 10
l21 17q69 59 120 114.5t93 122.5q5 7 13 8.5t15 -3t8.5 -12.5t-2.5 -15q-51 -80 -119 -150q9 2 87.5 0.5t83.5 -1.5h424q8 0 14 -6t6 -14t-6 -14t-14 -6h-424q-20 0 -65.5 1.5t-78.5 0.5t-62 -5q-5 0 -9 1l-58 -52l-21 -18l-12 -9q2 -3 7 -7q4 -4 13 -9l7 -4q4 -3 7 -5
q41 -30 74 -65q67 2 216 -1q152 -3 236 1l63 3l7 4h2h2h1h1h5h84q8 0 14 -6t6 -14t-6 -14t-14 -6h-72z" />
    <glyph glyph-name="arrowdblup" unicode="&#x21d1;" horiz-adv-x="658" 
d="M334 595q-24 -261 6 -558q1 -8 -4.5 -14.5t-13.5 -7.5t-14.5 4.5t-7.5 13.5q-27 271 -10 515l-45 -49q-7 -9 -19 -10t-21.5 6.5t-10.5 19.5t7 22q12 15 84 91l53 56l18 18l6 6q2 2 4 3l4 2q6 4 13 4q9 0 19 -5q5 -2 11 -6l24 -19q22 -19 60 -54q77 -72 95 -96q8 -9 7 -21
t-10.5 -19.5t-21.5 -6.5t-19 11q-10 12 -55 55q0 -78 -2.5 -256t-2.5 -273q0 -8 -6 -14t-14 -6t-14 6t-6 14q0 96 2.5 285.5t2.5 282.5q-32 30 -54 48l-11 9l-9 -9z" />
    <glyph glyph-name="arrowdblright" unicode="&#x21d2;" 
d="M626 476q10 -79 132 -167l25 -18q8 -6 12 -10q4 -2 5.5 -4.5t3.5 -4.5q4 -6 3 -14q-2 -17 -23 -22l-5 -1q-48 -33 -94.5 -85.5t-78.5 -107.5q-4 -7 -12 -9t-15 2t-9 12t2 15q30 52 71 101h-358q-14 0 -58 1.5t-71.5 0t-53.5 -7.5q-8 -1 -15 3.5t-8.5 12.5t3 15t12.5 9
q28 6 58.5 7.5t77 0t55.5 -1.5h358q8 0 13.5 -5t6.5 -12q44 48 88 79l-17 12q-31 22 -57 46q-292 12 -420 12q-14 0 -42.5 0.5t-45 0.5t-39.5 -1.5t-42 -4.5q-8 -1 -14.5 4t-8 13t3.5 14.5t13 8.5q20 3 45 4.5t42.5 1.5t46.5 -0.5t41 -0.5q130 0 380 -10q-44 54 -51 107
q-1 8 4 14.5t13.5 7.5t15 -4t7.5 -14z" />
    <glyph glyph-name="arrowdbldown" unicode="&#x21d3;" horiz-adv-x="644" 
d="M332 694q-24 -261 6 -558q1 -7 -3 -13q20 -21 35 -35l10 -11l9 8l51 45q0 94 2.5 283t2.5 285q0 8 6 14t14 6t14 -6t6 -14q0 -95 -2.5 -273t-2.5 -258q49 44 55 51q9 8 21 8t20.5 -8.5t8.5 -20.5t-8 -21l-92 -83l-57 -51l-19 -17l-7 -5q-1 -1 -2.5 -2t-3.5 -2
q-1 -1 -3 -2q-6 -2 -13 -2q-9 1 -18 6q-4 3 -10 8q-9 7 -23 20q-22 22 -56 59q-71 78 -87 103q-7 10 -4.5 22t12.5 18.5t22 4t18 -12.5q10 -15 61 -72q-25 282 -3 530q1 8 7.5 13.5t14.5 4.5t13.5 -7.5t4.5 -14.5z" />
    <glyph glyph-name="arrowdblboth" unicode="&#x21d4;" 
d="M180 204q26 7 53.5 8.5t69.5 0t50 -1.5h322q5 0 10 -3q33 34 66 57l-17 12q-31 22 -57 46q-13 1 -85.5 4.5t-85 3.5t-84.5 2.5t-85 1.5t-85 -1h-42q-31 0 -38 -1q-43 -48 -76 -71l17 -13q34 -23 61 -47q3 2 6 2zM626 476q10 -79 132 -167l25 -18q8 -6 12 -10
q4 -2 5.5 -4.5t3.5 -4.5q4 -6 3 -14q-2 -17 -23 -22l-5 -1q-48 -33 -94.5 -85.5t-78.5 -107.5q-4 -7 -12 -9t-15 2t-9 12t2 15q32 56 78 109h-297q-15 0 -47.5 1t-55.5 0.5t-43 -3.5q48 -55 58 -111q1 -8 -4 -14.5t-13 -8t-14.5 3.5t-8.5 13q-13 81 -134 165l-27 18l-12 10
q-3 2 -5 3l-2 2l-2 2q-1 2 -2 3q-2 6 -2 12q2 19 24 23q5 1 6 1q25 17 62 56q-1 8 3.5 14.5t12.5 8.5q3 0 5 1q61 69 83 116q3 7 11 10t15.5 -0.5t10.5 -11.5t-1 -16q-18 -38 -64 -95h43q123 4 387 -9q-44 54 -51 107q-1 8 4 14.5t13.5 7.5t15 -4t7.5 -14z" />
    <glyph glyph-name="product" unicode="&#x220f;" horiz-adv-x="729" 
d="M-2 710q384 11 619 29q21 1 36 -12t16.5 -33.5t-11.5 -35.5t-33 -17l-46 -3q2 -71 1.5 -221t5 -260t22.5 -213q4 -20 -8 -36.5t-32 -20t-36.5 8.5t-19.5 32q-18 105 -23.5 219.5t-5.5 269.5t-2 215q-134 -8 -303 -14q-7 -33 -8 -68.5t0.5 -86.5t1.5 -81
q-3 -93 -0.5 -204.5t16.5 -198.5q4 -20 -8 -36.5t-32 -20t-36.5 8.5t-19.5 32q-15 97 -18 213q-3 118 0 208q0 20 -1.5 67t-0.5 87t6 76l-78 -2q-20 -1 -34.5 13t-15.5 34.5t13 35t35 15.5z" />
    <glyph glyph-name="summation" unicode="&#x2211;" horiz-adv-x="728" 
d="M522 639q-38 1 -168 5.5t-201 5.5q-33 0 -48 1l2 -3q9 -12 25 -31q21 -24 21 -25q25 -34 69 -100t65 -94q3 -4 25 -28q23 -23 31 -45q13 -34 -3 -65q-10 -22 -60 -83l-97 -115l-90 -108l-8 -11q6 1 13 1q12 2 26 4t23 3.5t17 2.5t9 2q224 32 457 59q14 1 25.5 -8t13 -23
t-7.5 -25.5t-23 -13.5q-232 -26 -455 -59q-1 0 -9.5 -1.5t-18 -3t-24 -3.5t-26.5 -3q-34 -4 -55 -2q-16 2 -28 6q-23 10 -28 32q-4 14 5 31q3 6 9 16q11 15 31 40l91 109l96 114q44 55 52 69q2 5 -1 11q-3 8 -16 21q-25 27 -30 34l-65 94q-44 66 -69 100q-2 2 -18 22
q-18 20 -29 35q-17 24 -24 43q-14 36 8 61q18 21 51 14q10 -3 12 -4q18 -1 56 -1q71 -1 202 -5.5t169 -5.5q14 0 24 -10.5t10 -25t-10.5 -24.5t-25.5 -10z" />
    <glyph glyph-name="minus" unicode="&#x2212;" horiz-adv-x="548" 
d="M6 279q52 8 116 11.5t107 3t120 -3.5l106 -3q14 0 24 -10.5t10 -25t-10.5 -24.5t-25.5 -10l-107 3q-76 3 -117 3.5t-101.5 -2.5t-109.5 -12q-15 -2 -26.5 6.5t-14 23t6 26t22.5 14.5z" />
    <glyph glyph-name="asteriskmath" unicode="&#x2217;" horiz-adv-x="480" 
d="M224 460q4 -49 4 -141q0 -9 -6 -15t-15 -6t-15 6t-6 15q0 90 -4 137q-1 9 5 15.5t14.5 7.5t15 -5t7.5 -14zM35 321q37 0 133 -12q8 -1 13.5 -8t4.5 -15.5t-8 -14t-16 -4.5q-92 12 -127 12q-9 0 -15 6t-6 15t6 15t15 6zM89 118q10 19 35 56q22 35 33 54q4 8 12 10.5t16 -2
t10.5 -12.5t-2.5 -16q-11 -21 -34.5 -57t-33.5 -53q-4 -8 -12.5 -10.5t-16 2t-10 13t2.5 15.5zM249 235q13 -19 29 -57q17 -39 24 -53q5 -7 2.5 -15.5t-10 -13t-16 -2t-12.5 10.5q-9 16 -27 57q-14 33 -26 51q-4 7 -2.5 15.5t9 13t16 3t13.5 -9.5zM257 303q65 25 138 42
q8 2 15.5 -2.5t9.5 -12.5t-2.5 -15.5t-12.5 -9.5q-70 -18 -134 -42q-8 -3 -16 0.5t-11 12t0.5 16.5t12.5 11z" />
    <glyph glyph-name="radical" unicode="&#x221a;" horiz-adv-x="616" 
d="M-15 416q4 2 58 44l35 27q8 6 13 9q4 2 6 4q8 3 15 3q13 -1 23 -15q4 -6 8 -16q6 -15 13 -40q5 -15 12 -41q6 -20 7 -23q7 -20 27 -70l32 -88q13 -36 23 -72l8 -25l6 16q19 47 24 62l50 173q10 33 70 215l97 283q4 9 12.5 13t17.5 0.5t13 -12t1 -17.5l-97 -281
q-60 -182 -70 -215l-50 -171q-5 -19 -25 -67q-16 -40 -20 -62v-1q1 -1 2 -6q1 -8 0 -15q-2 -16 -16 -22q-13 -6 -25 3q-3 2 -5 6q-2 2 -3 6q-2 4 -5 11l-11 33l-18 61q-12 40 -23 71l-32 85l-27 70q-1 4 -7 27q-7 27 -12 40q-5 17 -9 29l-32 -25q-54 -42 -64 -47
q-9 -5 -18 -2t-13.5 11.5t-1.5 17.5t11 13z" />
    <glyph glyph-name="proportional" unicode="&#x221d;" horiz-adv-x="631" 
d="M312 252l-4 14q-13 40 -19 55q-21 55 -47 67q-39 18 -77 -7t-59 -78q-21 -52 -10 -95q10 -42 51 -53q40 -10 73 7q33 18 68 59q12 14 24 31zM530 366q-6 10 -14 12q-8 3 -21 -2q-25 -8 -57 -34q-21 -18 -55 -65l-24 -32q4 -12 8 -22q24 -58 56 -75q43 -22 120 9
q8 4 16 0.5t11.5 -11.5t0 -16t-11.5 -11q-95 -40 -155 -8q-46 24 -75 94l-8 -11q-40 -47 -84.5 -70.5t-99.5 -8.5q-66 16 -82 83q-14 56 12 120q15 40 42.5 70.5t67 45t83.5 -7.5q41 -19 68 -90q6 -15 15 -42l6 8q37 51 63 72q38 32 69 42q25 8 45 3q26 -6 40 -31
q5 -8 2.5 -16.5t-10 -13t-16 -2t-12.5 9.5z" />
    <glyph glyph-name="infinity" unicode="&#x221e;" horiz-adv-x="703" 
d="M301 383l14 20q25 37 38 54q54 67 117 82q53 12 93 -12t61 -68q19 -39 20 -85t-18 -85q-16 -31 -32 -46.5t-47 -34.5q-110 -67 -230 51l-13 14q-15 -18 -29 -31q-63 -60 -128 -58q-47 2 -83 36q-35 33 -53 79q-12 30 -15 61q-3 30 6 62.5t32.5 55t65.5 35.5q47 14 80 2
q15 -6 29 -21q1 -2 7 -9l5 -5q20 -20 70 -83zM348 328q9 -10 18 -19q41 -41 74.5 -51t70.5 10q24 15 33 23.5t20 29.5t10 51q0 31 -13 57q-26 53 -75 42q-40 -9 -78 -58q-12 -15 -35 -49q-15 -23 -25 -36zM154 449q-10 4 -34 -3q-25 -8 -37 -19q-15 -15 -17 -42t10 -60
q12 -32 33 -51t40 -20q24 -1 49 16q3 10 11 17q44 37 47 41l-20 25q-47 60 -65 77q-3 4 -8 10t-6 7q-2 2 -3 2z" />
    <glyph glyph-name="angle" unicode="&#x2220;" horiz-adv-x="719" 
d="M399 626q-12 -38 -31.5 -82t-36 -75.5t-48.5 -82.5l-45 -72l-52 -76q-39 -55 -45 -65l-51 -73l-8 -11q7 -1 16 -1q18 0 46 1t31 1q24 0 108.5 -0.5t121.5 0t100 4.5q62 3 115 10q15 2 26.5 -7t13.5 -23.5t-7 -26t-23 -13.5q-54 -7 -120 -10.5t-104 -4t-123.5 0
t-107.5 0.5q-3 0 -31.5 -1t-46.5 -1q-30 1 -50 5q-35 7 -48 27q-7 12 -4 26q0 4 2 8q1 3 3 7l8 13l24 36l51 73l45 66l52 75l44 68q31 50 45.5 79t33 69.5t28.5 75.5q5 14 17.5 21t26.5 2.5t21 -17t3 -26.5z" />
    <glyph glyph-name="integral" unicode="&#x222b;" horiz-adv-x="278" 
d="M180 664q-1 0 -7.5 1t-14.5 2t-15 2q-13 1 -22 2h-7q-31 -10 -54 -77q-20 -55 -25 -123q-3 -58 -3.5 -126.5t0.5 -127t-8.5 -130.5t-30.5 -137q-1 -4 -5.5 -19.5t-7.5 -23.5q-12 -35 -31 -53q-12 -10 -51 -29l-44 -19q-13 -6 -26.5 -0.5t-19.5 18.5t-0.5 26.5t18.5 19.5
l42 19q30 14 33 17q7 6 13 24q3 9 7 23t6 19q20 62 28 127t7 119.5t-1 122.5t4 136q6 76 28 141q37 103 105 121q9 2 26 2q11 -1 26 -3q7 0 15.5 -1t15 -2t7.5 -1q15 -2 23.5 -13.5t7 -26t-13 -23t-25.5 -7.5z" />
    <glyph glyph-name="therefore" unicode="&#x2234;" horiz-adv-x="585" 
d="M354 472q0 -21 -15 -36t-36 -15t-36 15t-15 36t15 36t36 15t36 -15t15 -36zM165 72q0 -21 -15 -36t-36 -15t-36 15t-15 36t15 36t36 15t36 -15t15 -36zM526 75q0 -21 -15 -36t-36 -15t-36 15t-15 36t15 36t36 15t36 -15t15 -36z" />
    <glyph glyph-name="similar" unicode="&#x223c;" horiz-adv-x="595" 
d="M32 208q9 60 59 102q57 48 120 22q24 -9 60 -40q53 -46 56 -48q20 -14 37.5 -21.5t38.5 -6t42 14.5q25 15 36.5 33t12.5 44q0 9 6.5 14.5t15.5 5.5t14.5 -6.5t5.5 -15.5q-3 -72 -69 -111q-79 -47 -165 16q-10 7 -59 49q-31 26 -48 34q-39 15 -77 -17q-38 -31 -44 -75
q-2 -9 -8.5 -14t-15.5 -3.5t-14 8t-4 15.5z" />
    <glyph glyph-name="congruent" unicode="&#x2245;" horiz-adv-x="684" 
d="M13 398q41 76 100 96q30 10 57.5 11t46 -2.5t41 -15t34 -19t31.5 -23.5q46 -35 72 -43q41 -14 93 6q28 10 42.5 23t26.5 39q4 8 12 11t16 -1t11 -12t-1 -16q-16 -34 -36.5 -52t-56.5 -32q-65 -25 -121 -6q-32 10 -84 50q-25 19 -37 26q-13 9 -35 18t-45.5 8.5
t-52.5 -10.5q-44 -14 -76 -76q-4 -7 -12.5 -10t-16 1t-10.5 12.5t1 16.5zM43 278q65 9 143.5 10t137 -2.5t146 -10t135.5 -8.5q9 0 14.5 -6.5t5.5 -15.5t-6.5 -14.5t-15.5 -5.5q-50 2 -137.5 8.5t-144.5 10t-133 2.5t-139 -10q-9 -1 -16 4t-8 14t4 16t14 8zM28 115
q71 0 256.5 -5t286.5 -3q8 0 14.5 -6t6.5 -14.5t-6 -15t-15 -6.5q-100 -2 -286 3t-257 5q-9 0 -15 6t-6 15t6 15t15 6z" />
    <glyph glyph-name="approxequal" unicode="&#x2248;" horiz-adv-x="633" 
d="M-14 302q26 80 96 106q27 10 54 11.5t46.5 -2t43.5 -14.5t36.5 -18.5t35 -22.5t29.5 -19q45 -29 74 -22q42 12 93 95q5 7 13.5 9t15.5 -2.5t9 -13t-2 -15.5q-60 -98 -119 -113q-46 -12 -107 26l-31 21l-33 20q-10 7 -30 16.5t-35 12t-36 1.5q-21 -2 -43 -10
q-51 -18 -70 -78q-3 -9 -10.5 -13t-16 -1t-12.5 10.5t-1 15.5zM-1 108q81 95 166 99q24 1 51 -6t43.5 -14t43.5 -20l42 -21q14 -6 34.5 -12t37.5 -6q60 0 120 75q5 7 13.5 8t15.5 -4.5t8 -14t-5 -15.5q-71 -91 -152 -91q-22 0 -49 8t-40 14t-43 21q-77 37 -119 36
q-66 -3 -135 -85q-6 -6 -14.5 -7t-15 5t-7.5 14.5t5 15.5z" />
    <glyph glyph-name="notequal" unicode="&#x2260;" horiz-adv-x="603" 
d="M4 399q36 0 77 1t90.5 2.5t77.5 2.5h25l54 121q5 11 17 16t23.5 -0.5t16.5 -17.5t-1 -24l-42 -94q87 0 158 -7q20 -2 33 -17.5t11 -36t-17.5 -33.5t-36.5 -11q-84 8 -192 7l-49 -109q106 4 219 4q20 0 34.5 -14.5t14.5 -34.5t-14.5 -34.5t-34.5 -14.5q-141 0 -267 -6
l-33 -67q-6 -12 -18.5 -15.5t-24 2t-15 18t1.5 23.5l18 35q-62 -3 -123 -9q-20 -2 -35.5 11t-17.5 33.5t11 36t34 17.5q87 7 180 12l51 110q-196 -5 -226 -5q-20 0 -34.5 14.5t-14.5 34.5t14.5 34.5t34.5 14.5z" />
    <glyph glyph-name="uni2701" unicode="&#x2701;" horiz-adv-x="809" 
d="M446 206l-35 30l4 -4q20 -22 28 -25q1 0 3 -1zM165 475q0 1 1 2q20 15 30 33t9.5 32.5t-5.5 27.5q-8 20 -24.5 26.5t-32.5 -3.5q-21 -14 -29 -35.5t3 -42.5q9 -16 48 -40zM172 323q-9 1 -21 3l18 -8q1 2 2 3q0 1 1 2zM425 343q7 1 29 1q-6 0 -15.5 1t-13.5 1q1 -1 0 -3z
M474 343q3 0 6 1h-8q1 0 2 -1zM537 337q10 1 17 2q5 0 10 1h-11q-9 0 -18 1q2 -2 2 -4zM679 291h29q-13 26 -60 38q-26 7 -61 9q2 -1 3 -3q3 -4 2 -9v-3h1q9 1 14 1h4h3q3 0 5 -2q4 -4 4 -9h17h17h10h3h2q3 -1 5 -3q6 -5 3 -12q0 -1 -1 -3v-2v-2zM663 310l1 1q-1 0 -1 -1z
M301 299q-10 -1 -18 -2h20q-2 1 -2 2zM209 305h-7q4 -1 7 -2v2zM472 229q1 -2 2 -3q1 -5 0 -9q0 -3 -2 -5l6 -5q1 -1 2 -1h8q5 1 8 1zM218 595q-6 4 -12 6q4 -4 8 -10q1 3 4 4zM215 472q2 -3 6 -6l7 -7v1l-2 5q0 8 7 23q10 22 11 25q13 32 2 53q0 -7 -2 -18q2 -11 1 -19
q-2 -20 -17 -37l-4 -5q-2 -4 -5 -9q-2 -3 -3 -4zM195 461q-1 0 -1 1q-4 1 -6 4l-3 -3l5 -3l11 -6l-2 3q-3 2 -4 4zM23 326q8 7 19 11q-10 0 -17 -4q0 -4 -2 -7zM150 298q27 -29 9 -59q-13 -20 -40 -29q-13 -8 -30 -9q-35 -2 -71 23q-37 25 -44 58q-7 30 17 54q-1 1 -1 2
q-4 10 6 14q43 16 109 5q5 -1 26.5 -5t25 -4.5t24.5 -2.5t25 0q16 1 44 9q22 5 30 7l-3 2q-8 8 0 16q1 1 3 2q-6 5 -12 9q-8 7 -20 14l-36 20l-33 17q-67 37 -82 64q-14 32 -3.5 60.5t37.5 45.5q2 1 3 2q-2 11 8 14q35 8 71 -5.5t53 -45.5q15 -30 -1 -71q-2 -4 -12 -26
q-3 -6 -4 -10l7 -7l29 -28l70 -66q46 2 133 -3q2 1 4 1q38 4 90 0.5t89 -20.5q35 -15 46 -21q16 -10 22 -20q6 -7 5 -15q5 -3 6 -9q1 -11 -10 -12q-74 -7 -191 1q-87 1 -90 1q59 -54 69 -64q8 -8 0 -16q-7 -7 -15 -1q-3 -5 -9 -5q-5 0 -15 -1q-13 -1 -17 -1q-25 -1 -37.5 4
t-35.5 30q-17 18 -44 52l-5 6q-87 -1 -136 5q-19 2 -50 16l-26 12q-18 8 -28 13l-8 3q-3 -3 -7 -3q-32 0 -41 -3q-24 -7 -23 -27q1 -17 7 -30q2 -1 4 -1q11 -4 8 -14q-1 -1 -1 -2q4 -4 8 -7q20 -13 47 -8q3 1 5 1q10 8 14 23q5 16 2 22.5t-17 15.5q-9 5 -3.5 14.5t15.5 3.5
q9 -5 14 -10h1q8 8 15 -1zM20 323q-20 -13 -12 -34q1 -1 1 -2v2q-1 20 12 34h-1z" />
    <glyph glyph-name="uni2703" unicode="&#x2703;" horiz-adv-x="824" 
d="M143 174q3 -8 12 -16q11 -8 24.5 -6t25.5 13q11 10 13 21q1 7 -6 12q-15 9 -42 8q-9 0 -16 -2l-1 -1l-2 -6q-2 -6 -6 -16zM39 362q1 -1 1 -2q0 -2 -1 -4q8 -1 18 0q17 2 43 10q-3 3 -4 6q-17 -10 -35 -12q-10 -1 -17 1q-2 0 -5 1zM46 492q6 8 12 15q-22 -9 -38 -28
q10 8 26 13zM43 391q1 -3 3 -6t4 -3q2 -1 9 0q11 1 24 8q-16 -1 -39 1h-1zM13 444q-2 1 -3 2q-4 5 -4 11q-5 -15 -4 -53v1q3 12 8 27q1 6 3 12zM152 419h6q-4 4 -6 8q-4 9 -4 28q-1 14 -4 20q-12 24 -33 33q-2 -4 -6 -7h3q6 -1 9 -6q2 -2 3 -4q15 -7 22 -20q6 -11 4 -25
q1 -4 2 -7v-5q3 -9 4 -15zM290 378h-5h-6q6 -3 10 -6q0 3 1 6zM489 409q3 1 5 1h2q2 1 4 1q1 1 2 1q-38 1 -66 -4h8h5h2q2 0 4 -2l7 2q8 2 13 3q4 1 6 1l4 -2q2 0 4 -1zM514 408l10 2q1 0 3 1q-11 0 -21 1q1 -1 2 -1q3 -1 6 -3zM550 408l2 1h-2v-1zM592 401l13 4
q-10 1 -22 2v-2q2 0 4 -1q3 -1 5 -3zM673 403l7 1h-8zM548 362l-12 -4l-1 -1q19 0 36 1l3 1q0 1 -1 1q-8 -1 -15 -2h-2q-5 0 -8 4zM434 378l-2 -1q-23 -6 -36 -9q13 -1 33 -3q38 -4 49 -5q1 2 1 3l1 1q-2 0 -3 1q-3 1 -5 4v-1l-6 -2q-1 -1 -3 -1q-2 -1 -4 -1h-3q-5 1 -7 5
q-1 1 -1 2h-1q-1 -1 -3 -1t-5 2t-5 6zM43 414l3 -1q23 -2 38 -1q18 1 22 7q4 7 -9 27q-9 13 -19 11q-11 -1 -21 -14q-11 -13 -14 -29zM319 408l8 8l2 2q-18 -7 -41 -10q17 -1 29 0h2zM302 363h-1h-4q2 -3 3 -8v-1l3 3v2q-1 2 -1 4zM438 504l8 7q10 8 16 12q-9 -1 -15 -3
q-14 -6 -33 -29q8 6 14 9t10 4zM489 520h1q5 1 9 -2q2 -1 3 -4q6 5 11 8q-2 1 -11.5 1.5t-14.5 0.5q1 -1 2 -3v-1zM223 231l5 -3l4 -2q-3 11 -4 16q-3 12 2 19l1 2l-11 -8l-14 -10q4 0 8 -1q11 -2 9 -13zM151 135l-4 2q1 -2 2 -3q1 0 2 1zM138 114l-1 -1l-2 -4q18 -13 43 -6
q20 7 34 16q-11 -6 -23 -10q-27 -8 -44 0q-4 2 -7 5zM143 224q14 10 31 16v1q0 3 2 6q0 1 1 2q-14 -8 -24 -13q-30 -17 -37 -30q-3 -4 -4 -9q2 5 5 9q9 12 26 18zM542 514q-38 -21 -90 -80l-2 -2q32 3 78 1q14 -1 37 -3t42 -3t35 -1q11 0 64 1h33h11h3h1h1h2q1 -1 2 -1
q6 -3 6 -10q0 -3 -2 -6q0 -1 -1 -1.5t-2 -0.5l-1 -2q-1 -1 -3 -2l-11 -7q-15 -10 -16 -10q-7 -5 -16 -10q-1 -4 -4 -6q-1 -1 -3 -2h-2l-6 -2h-1q-53 -27 -121 -31l-7 -3q-6 -3 -12 2h-28q-30 1 -102 8q-35 4 -55 5l-8 -6q0 -1 -63 -45q-38 -28 -52 -47v-3q1 -5 5 -16
q10 -30 12 -47q4 -32 -12 -56q-20 -29 -70 -45q-28 -10 -50.5 1.5t-35.5 35.5q-12 22 -13 48t11 48q11 19 46 39q5 3 64 33q39 20 55 33q19 17 17 32q0 2 -11 6q-12 4 -34 6q-42 3 -66 -2q-10 -2 -49 -14q-37 -12 -58 -15q-35 -4 -54 10q-24 17 -26 60q0 14 -0.5 27t4 27.5
t13.5 27.5q35 46 85 49q54 3 82 -50q5 -10 6 -30q0 -14 2 -18t17 -7q5 0 29 -1q59 -2 96 6.5t62 43.5q1 0 5.5 6.5t6.5 8.5l7 9q5 6 8 9t8 8.5t9 8.5t9 6t10 5q16 7 45 6q7 0 21 -1t21 -1q9 0 11 -9q6 0 10 -6q5 -9 -5 -15z" />
    <glyph glyph-name="uni2706" unicode="&#x2706;" horiz-adv-x="823" 
d="M367 446l-5 -6l6 6h-1zM437 566q0 -1 1 -2q-1 4 -2 7q-1 7 -5 8q4 -4 5 -10q1 -1 1 -3zM249 200l-1 -2l7 2q19 6 27 14q6 7 7 20l-3 -5q-2 -6 -6 -10h-1q-2 -3 -5 -6q-5 -6 -11 -9q-7 -4 -14 -4zM101 126q-68 73 -85 207q-4 33 -5.5 48.5t-1 45t7.5 52.5q27 99 105.5 163
t181.5 84q101 21 201.5 -4t169.5 -94q52 -53 75 -142l4 -20q10 -50 10 -100q0 -175 -92 -276q-39 -43 -94 -68q-128 -89 -275 -34q-39 15 -73 41t-47 61q-11 28 2 98q10 58 35 137q24 75 50 137q26 63 45 87q9 12 29.5 28t40.5 26q28 14 48 12q31 -3 39 -36
q8 -36 -10.5 -69.5t-54.5 -73.5q-4 -5 -19 -22l-20 -22q-5 -5 -15.5 -18t-15 -20.5t-9.5 -17.5t-7 -19q-3 -9 3 -56q6 -48 -16 -71q-14 -16 -43 -24q-23 -7 -29 -12q-16 -11 -6 -44q11 -35 32 -52q45 -36 138 -36q92 0 161 31q63 45 106 121q37 65 51 138q15 72 1.5 144
t-55.5 126q-26 33 -104 71q-67 32 -141 37.5t-139.5 -15.5t-118 -71t-76.5 -122q-13 -42 -13 -93t13 -94q4 -11 31 -73q21 -48 23 -86q0 -8 -5 -13.5t-12 -5.5q-6 0 -11 3q-6 1 -10 6zM539 591q8 -48 -12.5 -84.5t-60.5 -75.5q-6 -5 -13.5 -5t-12.5 5.5t-5 13t5 12.5
q37 36 53.5 64.5t9.5 63.5q-1 7 3 13t11.5 7.5t13.5 -2.5t8 -12zM278 133q26 9 39 28q9 14 20 51q2 7 8.5 10.5t13.5 1.5t10.5 -8.5t1.5 -13.5q-12 -42 -24 -61q-19 -29 -57 -42q-7 -2 -13.5 1t-9 10t0.5 13.5t10 9.5z" />
    <glyph glyph-name="uni270D" unicode="&#x270d;" horiz-adv-x="831" 
d="M726 153q1 4 1 8.5t0.5 13t0.5 10.5q10 89 8 127q-4 77 -38 97q-3 2 -6 3t-6.5 1.5t-6 1t-8 0t-8 -0.5t-9 -1t-9.5 -1h-2q2 -10 6.5 -37.5t6 -37.5t5 -38t3 -39t-0.5 -40q0 -6 -5 -21q-2 -9 -8 -27l-5 -18q14 -2 36 -2t38 1h7zM108 326q-12 -37 -18 -80q22 19 25 32
q3 11 -7 48zM378 418q2 -4 2 -8q0 -47 -29 -96q38 2 61 10q7 2 14 -1t9 -10t-1 -14t-10 -9q-30 -10 -99 -13q-9 -11 -19 -21q-5 -6 -12.5 -6t-12.5 5q-8 7 -5 18q-10 -2 -18 -4q16 -21 17 -47q0 -18 -7 -41q1 0 33 9q22 5 36 7q34 4 107 -2q65 -6 98 0q6 1 40 10q25 6 43 7
q2 8 2 10q0 19 1 24.5t-1 24t-2 24t-3 24t-4 24t-4 24.5l-4 25q-93 24 -150 65l-22 18l-13 -13zM284 310q10 1 23 2q25 35 33 67l-4 -4q-40 -42 -52 -65zM206 252q-20 -23 -29 -52q2 -1 4 -3q22 -17 27 -19q9 -2 20 -2q11 28 11 45q-1 18 -14 32q-9 -6 -19 -1zM106 162
q-2 1 -2 2l-10 13q0 1 -0.5 1t-0.5 1q-3 1 -6 3q-17 -27 -30 -52l18 12zM145 144l-50 -32q-39 -25 -55 -34q0 -1 -2 -2q-4 -4 -6 -5q-6 -4 -11 -5q-14 -3 -22 9q-9 14 2 30q3 4 4 5.5t2 2.5q21 42 51 91q-6 6 -6 15q5 81 32 145q12 26 39 65.5t59 74.5q38 41 71 62
q44 27 77 17q21 -6 44 -18q24 29 45 50q8 8 28 22t39 22q28 13 46 8q14 -4 20 -19q5 -11 3 -29q-4 -25 -45 -71l-46 -48l18 -13q47 -36 124 -57q4 10 14 12q5 0 9 -1q5 6 12 7q11 3 34.5 2.5t40.5 -9.5q51 -30 56 -127q2 -41 -8 -133v-8q-1 -9 -1 -14q-1 -10 -2 -16
q-2 -12 -8 -17q-4 -5 -10 -6q-3 -1 -7 -2q-6 -1 -15 -1q-17 -1 -40 -1q-24 0 -41 2q-10 1 -15 2q-4 1 -7 2q-8 3 -11 10l-2 11q0 2 1 5t2 9l5 18q-9 -1 -22 -5l-43 -11q-38 -6 -108 0q-69 6 -99 2q-11 -1 -31 -6q-32 -9 -35 -9q-46 -11 -77 -2q-12 3 -29 17v-2
q-1 -7 -6.5 -12t-13.5 -4q-2 0 -4 1zM518 632q1 -2 2 -5v5h-2zM138 354q15 -57 14 -75q24 30 41 60q-9 12 0 23l20 21l1 3q3 9 13 12l27 27q38 38 57 61l40 50q-16 8 -31 13q-18 5 -48 -14q-29 -18 -63 -56q-52 -55 -83 -113q10 -2 12 -12z" />
    <glyph glyph-name="uni270E" unicode="&#x270e;" horiz-adv-x="768" 
d="M140 665v1q1 1 2 3q5 12 13.5 16.5t20.5 3.5q4 0 6 -1h2q6 0 40 5q33 5 49 0q11 -3 31 -17q17 -11 43 -31q47 -38 108 -92q60 -54 103 -97q23 -22 37 -38q16 -19 20 -28q10 -23 32 -110q7 -28 28 -97q20 -62 28 -99l3 -6q3 -6 4 -12q1 -12 -9 -20q-14 -11 -32 1
q-5 3 -6 4q-128 50 -204 55h-7h-13q-21 0 -29 3q-29 12 -75 52q-30 26 -64 61q-30 31 -96 113q-58 72 -91 104q-7 -7 -17 -6q-8 1 -12.5 7.5t-3.5 14.5q1 6 3 22q-3 5 -3 11q0 8 6 14l5 37q5 30 10 49q6 26 13 38q9 12 32 25q19 10 23 14zM586 142q2 6 6 9q4 2 11.5 8.5
t16 12t17.5 8.5q-19 61 -26 90l-7 29q-6 -8 -16 -14q-5 -4 -12 -7.5t-11 -6.5q-1 -3 -3 -5t-5 -4q-3 -4 -8 -21q-6 -25 -23 -38t-32 -12q-11 1 -15 0q-3 0 -5 -1v-2q-3 -9 -12 -18q-11 -13 -35 -20q-4 -1 -9 -3l6 -2l2 -1h4h9h12h10q48 -3 110 -21v5q3 12 15 14zM255 584
q1 6 1 15q3 36 7 50q1 4 3 6q-2 1 -3 2q-10 2 -34 -1q-36 -6 -45 -6q-3 0 -9 1q-3 -8 -8 -12q-7 -8 -32 -21q-15 -9 -18 -14q-4 -5 -8 -24q-5 -18 -9 -46q-2 -14 -4 -30q3 -1 32 -8.5t40 -5.5l1 1l11 8l30 26l29 27l9 9q2 1 2 2q1 3 2 7q-1 7 3 14zM293 580q44 -42 131 -141
q81 -92 124 -134q5 4 12 7.5t8 3.5q9 7 14 39q1 4 3 8q-2 6 -4 11t-15 19q-13 15 -34 36q-43 43 -102 96q-60 53 -107 90l-25 19q-2 -9 -4 -37q-1 -11 -1 -17zM211 476q49 -25 124 -112q4 -4 21 -24l22 -26q5 -6 19 -21l21 -23q8 -7 19.5 -16.5t21.5 -16.5q5 -4 7 -10
q2 1 5 2q6 1 12.5 0.5t9 -1t4.5 0.5t5 4q7 5 10 18q6 19 10 27q-45 43 -127 136q-81 92 -115 125q-2 -1 -4 -4l-11 -11l-30 -27zM180 557l-1 -1h1q-18 -11 -28 3q-8 10 1 24v1l1 1v-1l1 1h-1l1 1l10 15q7 10 19 8q10 1 16 -6q6 -5 6 -13q0 -5 -24 -32v-1h-1l-1 -1v1z
M387 179q3 1 15 4q9 2 14 3q14 4 18 8q3 4 3 6l1 1v4h-1q-11 8 -23 19l-22 20q-9 8 -23 24l-20 22l-23 26q-16 19 -20 23q-37 44 -66 70.5t-57 37.5q-4 2 -7 6q-19 -4 -57 6h-2q35 -34 87 -100q65 -80 95 -111q32 -33 61 -58l18 -16q4 4 9 5zM182 557l-1 -1q0 1 1 1z" />
    <glyph glyph-name="uni2710" unicode="&#x2710;" horiz-adv-x="773" 
d="M66 312q1 6 3 12q2 7 8.5 11t13.5 2l80 83q66 68 106 104q9 8 25.5 24t23.5 22q34 32 58 43q11 6 31 9q18 4 24 6l54 18l63 22q20 7 54 16.5t63 14.5h2q5 2 6 3q22 6 31 -11q8 -16 -6 -31l-6 -5q-12 -20 -24 -59q-19 -56 -23 -67q-3 -7 -27 -82q-18 -56 -38 -84
q-10 -15 -31 -34l-29 -29l-169 -181q-2 -2 -7 -9l-11 -14l-12 -14q-8 -8 -15 -11t-20 -3q-8 0 -19 1q-6 0 -16.5 1.5t-13.5 1.5q-43 2 -66 13q-20 9 -53 39q-1 1 -22 16q-20 14 -28 28q-26 47 -13 130q-1 8 3 14zM446 546q4 11 -1 15q-10 7 -33 1q-16 -5 -23 11
q-15 -10 -37 -30l-24 -23q-17 -17 -25 -24q-35 -30 -104 -102q-66 -69 -91 -93q46 0 66 -5q26 28 74 70l78 71q7 8 25.5 27.5t30 30.5t29.5 26t35 25zM289 183q1 -20 1 -62q0 -9 -7 -15h12h4l3 3q3 4 9 11l11 14q6 8 9 11l169 181q6 7 31 30q18 17 27 29q12 17 23 46
q-7 3 -9 11q-2 7 -5 8.5t-9 0.5q-14 -4 -40 -21q-6 -4 -13 -3l-79 -93l-86 -99l-29 -33l-9 -10l-3 -3l-1 -1q-1 -1 -2 -1q-3 -2 -6 -3q-1 0 -1 -1zM254 193q-12 7 -30 23l-28 25q-13 11 -18 13q-17 9 -71 9q-5 0 -9 2q-3 -52 12 -79q3 -6 15 -15q24 -16 27 -19
q29 -26 43 -33q16 -7 52 -9q2 0 9 -1q-4 5 -4 12q0 42 -1 61q0 6 3 11zM461 511q-18 -11 -34 -25t-42.5 -42t-32.5 -33q-21 -22 -78 -73q-46 -41 -64 -60q4 -3 11 -9l27 -24q17 -14 26 -20q2 -1 4 -3l5 5l28 33l86 99l86 101l28 34l7 10q-1 8 -8 13q-16 10 -36 1
q-5 -6 -13 -7zM209 198q10 -7 13 -14q2 -3 2 -5q2 -8 -2 -15q-7 -10 -19 -9q-4 1 -7 3q-3 1 -5 3q-6 -3 -13 -2l-4 2q-3 1 -6 4q-5 3 -11 6q-7 3 -10 10.5t1 14.5q2 4 5 7q1 8 4 17q3 7 10 10.5t15 0.5l6 -4q5 -3 7 -7q8 -14 14 -22zM580 635q-18 -5 -119 -40q4 -2 7 -4
q16 -12 17 -31q25 2 45 -11q30 -19 26 -52q-1 -5 -3 -9q18 3 32 -4q6 -3 10 -8q15 50 22 67q6 13 12 32q-7 3 -11 10l-5 10l-2 2l-3 3q-7 4 -12 8q-9 6 -9 16q-1 1 -3 2q-3 4 -4 9z" />
    <glyph glyph-name="uni2711" unicode="&#x2711;" horiz-adv-x="787" 
d="M618 394l-7 3l-44 22q-10 5 -31 16.5t-28 14.5q-35 18 -56 22q-13 3 -51 -2q-32 -3 -85 -13q-143 -25 -157 -26q-21 -2 -69 -1h-28q30 -66 16 -143q-1 -1 -1 -3l-2 -5q-2 -8 -3 -14l-1 -2q5 0 11 1q6 0 21 1q12 1 15 1q76 -2 192 -23q3 -1 48 -15q25 -8 39 -5q35 6 96 33
q85 38 101 44l11 4q-8 0 -33 2q-23 3 -38 4q-30 2 -43 3q-18 0 -22 -2q-1 0 -6 -7q-11 -15 -22 -20q-28 -12 -65 -2q-42 11 -52 45q-6 20 -1.5 42t16.5 38q28 39 85 19q6 -2 37 -16q18 -8 26 -9q24 -4 61 -5q4 0 28.5 -0.5t36.5 -1.5h5zM20 465q26 4 70 3q47 -1 65 1
q13 1 154 26q55 9 87 13q45 5 64 2q26 -5 65 -26l27 -15l31 -16l45 -22q25 -12 44 -19l27 -11l12 -4q3 -1 4 -2q1 0 2 -1q1 0 2 -1q2 -1 3 -2q6 -5 6 -14q0 -15 -16 -21q-5 -3 -14 -4q-13 -1 -34 0l-33 2l-20 2q-12 1 -36 1.5t-28 0.5q-40 1 -66 5q-13 2 -36 12
q-27 13 -34 15q-30 11 -42 -5q-16 -23 -9 -48q4 -12 26 -18q24 -7 41 1q1 0 6 7q11 15 22 20q11 4 36 4q18 -1 47 -3l30 -2q17 -2 29.5 -3.5t18.5 -1.5h50h24q5 0 8 -1h4q2 0 4 -1q7 -2 11 -10q6 -12 -3 -22q-2 -3 -6 -5q-4 -3 -12 -6q-10 -5 -30 -12l-34 -11q-21 -7 -26 -9
q-14 -5 -97 -42q-66 -29 -106 -37q-22 -4 -56 7q-43 13 -45 13q-112 22 -184 23q-2 0 -12 -1q-15 -1 -22 -1q-14 -1 -23 -1q-6 1 -10 2q-10 2 -15 8q-4 6 -5 14q0 4 1 9q1 6 3 16q1 6 4 15l1 5v1q13 68 -17 129q-1 1 -1 3q-16 1 -18 16q-1 8 3.5 14.5t12.5 7.5z" />
    <glyph glyph-name="uni2713" unicode="&#x2713;" horiz-adv-x="853" 
d="M465 106q-3 -3 -7 -6q-17 -12 -37.5 -8.5t-32.5 20.5q-107 153 -158 260q-9 19 -2 38.5t25.5 28.5t38 2t28.5 -25q44 -91 128 -214q15 41 40 92l42 87q18 35 56 99l50 84l55 90l44 71q7 11 20 14t24 -4t14 -20t-4 -24q-2 -3 -43 -69l-51 -83l-47 -78q-35 -60 -51 -91
l-41 -80q-25 -48 -40 -87t-25 -74q-6 -19 -26 -23z" />
    <glyph glyph-name="uni2715" unicode="&#x2715;" horiz-adv-x="692" 
d="M369 336q-102 -111 -213 -255q-8 -11 -21 -12.5t-23.5 6.5t-12 21t6.5 23q114 150 220 264q-119 125 -226 199q-11 7 -13.5 20t5 24t20.5 13.5t24 -5.5q112 -76 234 -204q98 102 200 185q10 8 23 7t21.5 -11.5t7.5 -23.5t-12 -22q-99 -81 -197 -182l96 -107l59 -63
q39 -41 59 -69q8 -11 6 -24t-13 -21t-24 -6t-21 13q-19 27 -54 63l-60 65z" />
    <glyph glyph-name="uni2717" unicode="&#x2717;" horiz-adv-x="731" 
d="M527 593l2 -2l20 23zM295 672q6 6 15 8q13 3 24 -4t14 -20q12 -52 40 -119q61 71 127 132q10 9 23 8.5t22 -9.5q15 -16 6 -36q30 34 47 62q7 11 19.5 14t24 -4t14.5 -19.5t-4 -24.5q-19 -32 -69 -88t-52 -59q-39 -48 -90 -121q45 -82 90 -144q8 -11 6 -24t-13 -21
q-2 -1 -3 -2l2 -3q8 -11 5.5 -24t-13 -21t-23.5 -5.5t-21 12.5q-61 86 -95 138l-6 -8q-28 -40 -106 -144q-73 -98 -102 -142q-8 -11 -20.5 -13.5t-24.5 4.5q-9 7 -12.5 18t0.5 21q-7 0 -14 3q-12 6 -16.5 18.5t1.5 24.5q102 204 219 360q-54 108 -73 209q-3 13 4.5 24
t20.5 13q21 5 33 -14z" />
    <glyph glyph-name="uni2718" unicode="&#x2718;" horiz-adv-x="766" 
d="M201 644v-1v1zM94 157q13 18 28 36t32 37l30 32l34 34l30 31l22 23q-38 67 -74 140l-35 76q-13 30 -19 48q-4 12 -5 20t0 14q3 19 19 27t33 -1q6 -4 12 -10q7 -7 16 -20l4 -5v1q0 15 11 24q16 14 36 6q7 -3 14 -9.5t16 -19.5q13 -18 34 -56l58 -101l28 31
q113 125 181 186q9 9 22.5 8t22.5 -11q2 -2 3 -4l6 6q9 9 22.5 9t22.5 -9.5t9 -23t-10 -22.5l-6 -6q14 -19 -1 -38l-203 -258l77 -85l72 -80q9 -10 8 -23t-11 -22t-23 -8t-22 11l-96 105q20 -34 38 -57l14 -13q38 -36 45 -59q3 -8 2 -16q-2 -13 -12.5 -21t-23.5 -6
q-8 1 -15 5l-4 4q-2 1 -4 3q1 -15 -10 -25q-10 -9 -23 -8.5t-22 9.5q-58 62 -110 135q-100 -122 -139 -197q-6 -11 -18.5 -15.5t-24.5 2.5q-21 10 -16 34q-12 5 -17 17q-9 -6 -20.5 -5t-19.5 10q-9 9 -9 22.5t10 22.5l15 15q-15 -4 -27 5q-11 8 -13 21t6 24z" />
    <glyph glyph-name="uni2719" unicode="&#x2719;" horiz-adv-x="829" 
d="M250 202q-7 0 -16 1q-25 1 -73 0q-9 -1 -25 -1.5t-28 -1t-21 -0.5h-28q-7 1 -12 2q-14 3 -22 13q-3 3 -4.5 6.5t-1.5 5.5l-1 2v3v5q0 3 -1 9v28q0 36 1 85q0 50 1 85q1 19 1 29q0 6 1 9v4q0 2 1 4q1 6 6 13q9 12 27 17q11 3 27 5q23 2 59 0q22 0 59 -3q31 -2 37 -2
q-2 39 -1 75q1 45 6 71q4 19 9 31q8 20 24 28q22 13 57 12q5 0 24 -1h18q16 1 60 2h39h15q4 0 6 -1q3 0 5 -1q7 -1 12 -5q24 -18 28 -62q3 -22 1 -68q-2 -45 0 -62q1 -16 4 -24q7 -1 19 -2q16 -1 67 -1q49 0 72 -3q19 -2 32 -7q22 -7 31 -23q11 -21 -1 -46l-3 -6
q-1 -2 -1 -3q-2 -13 -2 -36q0 -6 4 -29q4 -32 6 -46q3 -31 1 -50q-4 -35 -27 -50q-18 -12 -55 -13q-18 -1 -59 1q-38 2 -52 1q-11 -1 -16 -2q-1 -6 0 -16q1 0 12 -64q8 -48 3 -76q-8 -51 -54 -64q-24 -6 -104 -3q-15 0 -37.5 1.5t-37.5 2t-24 0.5h-2q-1 0 -4 -0.5t-8 -1.5
q-22 -3 -37 7q-23 15 -28 53q-1 12 2 44q0 9 2 29t3 29q3 35 4 53v8zM310 671q-3 -6 -5 -16q-4 -22 -5 -61q-2 -63 3 -111q1 -13 -7.5 -23.5t-21.5 -11.5q-15 -1 -26 10q-5 -2 -11 -2q-8 0 -41 2q-36 3 -57 4q-33 1 -51 -1h-4q0 -8 -1 -18q-1 -35 -1 -85q-1 -49 -1 -84v-10
h5q12 0 40 1t33 2q51 1 78 0q20 -1 33 -4q22 -5 33 -18q8 -10 10 -28q1 -9 1 -24q-1 -21 -4 -58q-1 -9 -3 -29l-3 -29q-2 -25 -1 -30v-3q10 1 15 1q9 0 24.5 -0.5t38.5 -2t38 -1.5q70 -3 84 1q7 2 9 13q3 17 -4 54q-11 66 -11 69q-5 50 20 71q18 15 56 17q18 1 58 -1
q39 -2 53 -1q13 0 21 2v4q2 13 -1 36q-1 13 -6 44q-4 27 -4 38q0 27 2 46q1 5 3 11h-4q-19 3 -65 3q-53 0 -71 1q-19 1 -31 4q-21 5 -31 17q-18 21 -21 64q-2 21 0 69q1 42 0 59q-1 7 -2 12h-1h-38q-42 -1 -57 -2h-26q-17 1 -21 1q-14 0 -21 -2zM163 390q81 4 202 2
q-1 129 -1 204q0 13 9.5 22.5t22.5 9.5t22.5 -9.5t9.5 -22.5q0 -75 1 -205q110 -2 158 -2q13 0 22.5 -9.5t9.5 -22.5t-9.5 -22.5t-22.5 -9.5q-48 0 -158 2q1 -118 1 -191q0 -13 -9.5 -22.5t-22.5 -9.5t-22.5 9.5t-9.5 22.5q0 73 -1 192q-118 2 -198 -2q-14 -1 -23.5 8
t-10.5 22.5t8 23t22 10.5z" />
    <glyph glyph-name="uni271B" unicode="&#x271b;" horiz-adv-x="800" 
d="M414 690q-4 -42 2 -124t6 -100q0 -13 -9 -23t-22 -10t-23 9t-10 22q0 6 -6 96.5t-2 135.5q1 13 11.5 21.5t23.5 7.5t21.5 -11.5t7.5 -23.5zM427 293q-3 -25 -4.5 -54.5t-1.5 -51t0.5 -57.5t0.5 -55q0 -13 -9.5 -22.5t-22.5 -9.5t-22.5 9.5t-9.5 22.5q0 17 -0.5 53.5
t-0.5 59t1.5 55t4.5 58.5q2 13 12.5 21t23.5 6.5t21 -12t7 -23.5zM481 398q76 6 228 6q13 0 22.5 -9.5t9.5 -22.5t-9.5 -22.5t-22.5 -9.5q-152 0 -222 -6q-14 -1 -24 7.5t-11 22t7.5 23.5t21.5 11zM296 331q-33 5 -66 7q-34 1 -82 1t-71 1q-13 0 -22 10t-9 23t10 22t23 9
q18 -1 68 -1t87 -1.5t72 -6.5q13 -2 21 -13t6 -24t-13 -21t-24 -6z" />
    <glyph glyph-name="uni271D" unicode="&#x271d;" horiz-adv-x="673" 
d="M358 415q-12 0 -81.5 3.5t-106.5 4.5q-13 0 -22 10t-9 23t10 22t23 9q37 -1 107 -4.5t80 -3.5q1 150 1 220q0 13 9.5 22.5t22.5 9.5t22.5 -9.5t9.5 -22.5q0 -70 -1 -222q88 -3 157 1q14 1 23.5 -8t10.5 -22.5t-8 -23t-22 -10.5q-71 -4 -162 -1q-2 -237 3 -383
q0 -13 -9 -23t-22 -10t-23 9t-10 22q-5 146 -3 387z" />
    <glyph glyph-name="uni271E" unicode="&#x271e;" horiz-adv-x="734" 
d="M235 294h-13q-21 0 -36 2q-24 4 -37 12q-17 11 -44 39q-32 33 -39 52q-8 22 -7 69q0 6 1 27t1 29v2l-0.5 0.5t-1 3.5t-1.5 7q-4 27 13 43q3 3 6.5 5t5.5 2l2 1q1 0 3 1h2h2h2h5q6 0 19 1h57q41 1 61 2q-1 8 -2 14q-4 42 6 65q13 34 52 46q30 10 87 8q4 0 8.5 0.5t11.5 1
t14 1.5q31 2 52 -9q12 -6 25 -23q9 -12 18 -28q22 -39 24 -60v-8h31q30 0 49 -4q35 -8 48 -32q12 -21 5 -53q-4 -23 -4 -26q0 -4 1.5 -15t3.5 -28l5 -29q3 -28 4 -45q1 -12 1 -20q-1 -14 -7 -23q-18 -32 -60 -35q-14 -1 -53 5q-23 3 -30 0q-3 -1 -5 -9t2 -49l10 -92
q7 -65 8 -89q2 -22 1 -35q-1 -9 -2 -15q-4 -13 -12 -21q-3 -3 -7 -5.5t-7 -2.5l-2 -1q-3 0 -7 -1q-5 -1 -13 -1q-13 -1 -35 -2q-10 -1 -23 -1t-21 -0.5t-10 -0.5h-7q-6 -1 -15 -1.5t-17 -1.5q-17 -1 -28 -1q-18 0 -26 3q-19 6 -40 29q-4 4 -24 28l-2 2l-6 6q-3 3 -6.5 7.5
t-7 9.5t-5.5 9q-10 22 -6 71q2 29 11 83q9 60 11 75v5zM484 347v-3l3 3h-3zM433 83v1l-1 -1h1zM574 403v3q-1 -1 -2 -3h2zM272 490q-24 7 -66 11q-23 2 -37 1h-5v-4q-2 -15 -0.5 -36t5.5 -37v-3q3 -1 8 -1q15 -2 44 -2q5 -1 21 -1.5t23 -0.5q10 0 16 -1q4 0 7 -1t6 -1
q9 -4 15 -11q17 -21 3 -49l-4 -7q-4 -34 -1 -130q1 -49 4 -79q1 -7 2 -13q8 1 13 1h42q4 0 10 -1q1 8 1 20q1 25 -3 90q-5 81 -5 101q1 58 16 82q15 25 48 31q18 3 47 0q32 -2 37 -2q2 12 3 29q1 6 1 10q-51 -4 -76 -1q-37 4 -54 28q-14 18 -14 54q-1 2 1 66q0 10 1 28h-4
q-46 1 -66 -5q-10 -3 -12 -8q-3 -9 -1 -36q1 -12 4 -38q2 -5 3 -10v-9l1 -14q10 -13 6 -29q-4 -13 -15.5 -19t-24.5 -3z" />
    <glyph glyph-name="uni271F" unicode="&#x271f;" horiz-adv-x="734" 
d="M534 316q-2 -5 -2 -13q0 -10 2 -59l3 -95q1 -58 -2 -91q-1 -22 -4 -36q-7 -26 -24 -35q-22 -12 -56 -4q-27 6 -29 6q-4 0 -11 -0.5t-20 -2t-23 -2.5q-22 -2 -36 -1q-23 0 -37 6q-33 16 -44 73q-7 33 -9 95q0 11 -0.5 30.5t-1.5 34.5q0 15 -1 28q-3 40 -8 49l-3 4
q-4 1 -14 0l-7 -1q-7 -1 -11.5 -1.5t-13 -0.5t-15.5 1.5t-15 5t-15 8.5q-11 9 -16 28q-3 11 -5 27q-4 26 -6 67q-2 39 -1 68q0 16 2 26q1 16 6 25q20 38 75 41q14 1 35 -1q20 -1 24 -1t8 -1q-2 34 -2 41q-1 44 15 62q17 18 59 19q1 0 30 0.5t51 1.5q3 0 45 4h1q1 0 1.5 0.5
t3 1t6.5 1.5q23 6 40 -5q23 -15 28 -51q3 -17 1 -49q-1 -28 -1 -32q26 6 35 7q32 5 54 -4q33 -13 44 -50l1 -9q0 -3 1 -7v-20q1 -23 2 -57q0 -32 1 -56v-19v-6v-3v-1q0 -4 -2 -10q-12 -30 -46 -40q-22 -6 -52 -2q-5 0 -21 3q-10 1 -15 2h-5zM321 652v-15q0 -9 1.5 -39
t2.5 -53q0 -13 -9 -23t-22 -10q-23 -1 -31 21q-6 -2 -12 -2t-29 2q-17 1 -27 0q-16 -1 -20 -5q-1 -2 -1 -3q-1 -9 -1 -22q-1 -27 1 -63q2 -38 5 -62l2 -12q-1 1 -4 -1q1 1 5 0q0 1 -1 1l1 -1q9 0 24 1q24 3 40 -1q26 -8 41 -34q12 -22 16 -77q1 -14 1 -28q1 -16 1.5 -36
t0.5 -31q2 -57 8 -84q4 -19 9 -28q4 0 10 -1q11 0 30 2q58 5 61 5q8 0 42 -8q2 -1 4 -1q1 8 2 18q2 31 1 86l-3 94q-2 51 -2 63q2 41 24 60q19 17 51 15q8 -1 21 -3q15 -2 19 -3q17 -2 26 1h2v16q-1 24 -1 56q-1 34 -2 56v19v1q-2 0 -3.5 4t-1.5 5q-7 2 -22 0q-3 0 -35 -7
q-12 -3 -20 -3q-16 -1 -27 5q-16 8 -22 27q-3 9 -4 23q0 11 1 46q2 26 0 37q-7 -2 -11 -2q-43 -4 -47 -4q-23 -1 -53 -2h-30h-12zM431 601q-4 -19 -4.5 -37t2 -47.5t3.5 -42.5q61 -1 110 4q13 1 23.5 -7.5t11.5 -21.5t-7.5 -23.5t-21.5 -11.5q-51 -5 -116 -4
q0 -38 -2 -136.5t-2 -151.5q0 -13 -9.5 -22.5t-22.5 -9.5t-22.5 9.5t-9.5 22.5q0 54 2 152t2 137q-20 0 -59.5 1.5t-58.5 2.5q-13 0 -22 10t-9 23t10 22t23 9q20 -1 58.5 -2t56.5 -2q0 5 -1.5 25t-2 30t-0.5 27t1.5 31t4.5 27t14 20t24 4t20 -14t4 -24zM182 365q0 -3 1 -5
q1 -4 1 -1q0 4 -2 6z" />
    <glyph glyph-name="uni2720" unicode="&#x2720;" horiz-adv-x="815" 
d="M741 71l-2 -2q-2 -3 -5 -3t-5 2q3 -6 5 -9q3 -5 5 -6h1v1v10q0 3 1 7zM148 298l5 3l1 2l17 21zM73 366q1 -6 0 -11q-1 -7 -1 -18l30 42q28 39 30 44q1 1 2 4q-13 -7 -30 -25q-7 -7 -17.5 -20t-13.5 -16zM62 351v-26v-3l1 2q1 14 2 26l1 6h-1l-3 -4v-1zM61 450v-2
q2 3 6 10q4 5 5 8q1 2 2.5 4t1.5 3l1 2q-1 0 -2 -1q-2 -3 -5 -10q-5 -9 -7 -12zM62 486v7v-7zM61 395l2 3l1 2q6 11 12 20l10 16q4 7 5 9l4 8v1h-1q-1 1 -4.5 -1.5t-9.5 -8.5l-9 -9l-3 -3l-2 -2h-3q-1 1 -2 1v-36zM61 383q1 -15 1 -21l5 8l1 12q3 0 4 -5q37 54 51 79l4 4v1
l-2 -2l-14 -12q-14 -13 -22 -22q-7 -8 -21 -30zM62 293q0 9 1 17h-1v-17zM68 261v-1q2 7 5 12l-4 -4q-1 -4 -1 -7zM69 239q0 -1 -0.5 -3t-0.5 -3v-2q9 19 10 22q2 9 2 14v4q-2 -8 -11 -32zM71 290q3 5 5 8q1 1 1.5 2t1.5 1q1 1 2 1h1q10 16 73 99l16 22q0 1 1 2q-3 -2 -7 -5
q-11 -9 -29 -27q-23 -24 -63 -70l-1 -1v-23q0 -5 -1 -9zM62 200v5l-3 -11zM74 212l-2 -5q-2 -11 -4 -18v-1q0 -5 1 -18q33 70 99 110q2 3 7 9l24 30l48 57q-22 -19 -54 -52q1 0 2 -2t-2 -4l-12 -7l-34 -34q-1 -1 -7 -8q-2 -3 -3 -4q0 -1 -1 -1q-2 -1 -4 1v3v1q2 6 9 16
l-21 -18l-4 -4q-17 -16 -32 -36q-7 -10 -10 -15zM47 150q0 3 0.5 5.5t0.5 4.5v1q1 7 2 15q-1 2 -1 4q-2 -12 -2 -20v-10zM86 262q15 24 42 53l49 72q1 2 5 6q5 6 6 7l1 1q-20 -5 -47 -38q-9 -11 -22 -29q-14 -21 -18 -25l-18 -23q-1 -4 -2 -9h2q2 -2 2 -5q1 -2 0 -5v-5z
M84 251l-6 -22l2 2q13 18 29 34v1q3 11 22 35q13 15 40 45l39 42l5 7l-28 -28l-25 -25l-30 -31l-4 -6q-10 -15 -31 -41l-7 -9l-3 -3h-1q0 -1 -1 -1h-1zM63 162q0 -2 -1 -4v-3l1 2v5zM62 245l-1 -1q-4 -15 -7 -30l8 22v9zM51 296v-1h-1v-1h-1q-1 -1 -2 -1q-2 1 -2 3v1v1l1 1
l10 15v11v48q-8 -14 -11 -18l-1 -1v-1h-1q-1 -1 -2.5 -0.5t-1.5 2.5v1v1l1 1q1 3 5 9l10 18v63q-1 1 -3 2q-4 3 -4 8q1 4 4 9l3 6q1 10 1 20v72v3v4v3q-5 10 -8 18q0 1 -1 7q-2 7 -3 11q-1 1 -1 3q2 -23 2 -78q0 -31 -3.5 -93t-3.5 -93v-37v-17q0 -28 -1.5 -83.5t-1.5 -83.5
q0 -25 -1 -42q4 12 21 52q0 8 1 20q1 3 2 10.5t1 8.5q-1 -3 -3 -4q-1 -7 -2 -13v-3q0 -2 -0.5 -5.5t-0.5 -5.5q-1 -6 -1 -9q-1 -2 -1 -3v-1q0 -1 -1 -1q-1 -1 -2 -1t-2 1q-3 3 -4 11q-1 6 -1 16q1 17 5 43q4 21 9 42v5l1 6v4v43q-2 -2 -4 -6zM55 455v5q-1 -1 -1 -2
q0 -2 1 -3zM153 292l7 6l-3 -2zM347 351q1 3 2 7q-1 -1 -9 -8q-7 -6 -11 -11q4 1 15 9zM370 420q-3 -14 -10 -44l1 1h1l1 1h2q2 0 3 -1t0 -4l-1 -1q-1 -1 -5 -4l-5 -4l-2 -8l9 6l15 11l3 3q7 8 22 29q-5 0 -15 -5q-1 -1 -3 -1q-2 -1 -3 2v2q1 2 3 7q-1 -2 -2 -2.5t-2 -1.5
h-2q-2 0 -3 2v2l1 1q0 1 1 2q2 6 13 25l2 2l-4 -3q-1 -1 -7 -6.5t-9 -7.5q-2 -2 -4 -3zM379 482q1 -5 0 -11q1 1 19 28l2 4l-14 -14zM420 564h1h-1zM372 513q1 -1 1 -3q1 -3 2 -7l7 9q4 6 12 16l11 15q1 2 5 7q5 6 7 8q1 2 2 3q-8 -3 -22 -18l-12 -15q-7 -9 -10 -12z
M462 622v-1l7 6zM444 609l-5 -4l-7 -6l5 3zM352 573q-6 -6 -9 -10q-2 -4 -0.5 -6.5t5.5 -0.5q5 2 13 8q4 3 8 7l15 21l-26 -20h-1h-1q0 -1 -1 -1q-2 0 -3 2zM406 635l4 1l1 1q-3 -1 -5 -2zM356 627l8 10q-4 -1 -6 -2t-9 -2q-6 -1 -9 -2q-4 -2 -5 -3l-1 -1h1q0 -1 2 -1h9
q4 0 10 1zM265 674l11 -1q-2 3 -11 1zM237 662q-11 -6 -18 -8q42 -25 70 -60l8 11l7 13q4 6 11 15q10 13 12 15q0 1 2 3l2 1q-1 0 -3 1q-3 1 -5 1q-6 -2 -14 -6q-6 -4 -14 -10q-9 -6 -11 -8q-2 0 -7 -4q-2 -1 -3 -2h-1q-2 -1 -3 0q-1 2 0 3v2h1q7 7 21 18.5t17 13.5h-18
l-6 -4q-14 -8 -16 -8q-1 -1 -2 -1q-2 0 -2 2q-1 2 0 3v1l3 3l3 4q-18 0 -34 1zM381 665q3 0 5 -1l1 2zM377 656l-5 1q-1 1 -3 1q-6 -4 -31 -22l10 2q6 2 8 3q5 1 14 3l8 10v1zM317 674h6l1 1q-3 0 -7 -1zM384 674q-29 1 -51 1l-1 -1q5 -1 12 -1q13 0 40 1zM386 632
q15 9 24 11l-4 2h-1q-25 -5 -32 -6l-9 -11q4 1 9 1q6 1 13 3zM421 638q2 1 5 2q8 8 17 13q-9 -2 -20 -5l-5 -1v-3q-1 0 -2 -1h1q2 0 3 -1.5t1 -3.5zM391 580l8 6l33 22l28 26l19 18l15 14q-6 1 -12 1q0 -1 -1 -1q-2 -3 -8 -5q0 -1 1 -1q0 -2 -1 -3t-2 -1q-1 -1 -2 -1h-3
q-5 -1 -10 -3l-6 -2l-5 -5q1 0 1 -1q2 -1 2 -4q0 -2 -2 -4l-4 -4l-14 -8l-25 -16l-13 -17q1 0 1 1q2 1 4 -2v-2v-1q-1 -2 -4 -7zM363 502q0 1 0.5 2t0.5 2l-1 1q-1 1 -1 2v1q0 1 1 2l2 2q0 2 1 2l1 2l19 23l-12 -12q-3 -2 -4 -4q-1 0 -1 -1h-2q-2 0 -3 2v2q8 19 43 55l-4 -3
l-20 -12q-9 -13 -13 -20q-9 -14 -12 -23q-4 -11 -2 -15q4 -6 7 -8zM351 343l2 1l8 9l-8 -6q-1 -1 -1 -3zM385 203v1l-2 -1l-23 -23q12 12 21 20zM390 208zM210 42l12 7l2 1l-14 -7v-1zM397 164q-5 11 -8 21l-1 -1l-4 -4q-20 -23 -64 -59l-5 -5l-25 -24l29 20q24 16 33 21
l4 2l6 3q3 2 5 2h1q15 14 29 24zM419 180q-5 7 -9 12q-2 1 -7 7l-9 -9q2 -11 8 -22l11 8q2 2 6 4zM415 135l-7 9l-25 -25l-25 -24l-23 -23l-12 -11l-21 -23q14 10 35 31q33 33 46 43l28 21zM443 144l-10 16l-4 6q-4 -5 -12 -13l-4 -5q3 -5 7 -10q1 1 3 2t4 1q1 1 3 0
q2 0 2 -3q0 -1 -1 -3q-1 -1 -2 -3zM448 149l-12 25q-9 20 -16 40h-1v-1h-1v-1l-11 -9l7 -7q5 -6 10 -13h1q0 1 1 1l2 -2q1 -1 1 -2q2 0 3.5 -1.5t1.5 -3.5t-1 -4l5 -8l10 -15v1zM433 113l-4 4l-11 -10l-46 -40q-3 -3 -18 -16q9 6 18 13l22 18l16 13zM438 117l16 11l-1 1
l-4 7l-15 -15zM460 89q-6 4 -12 10l-17 -19l-31 -35l26 18l1 1h1l30 23zM465 92l15 11q7 4 10 6q2 1 4 1q0 1 1 1q-7 7 -13 14l-5 5l-3 -4l-4 -4q1 -2 1 -4q1 -2 -0.5 -3.5t-3.5 -1.5t-4 2l-11 -12l12 -10zM481 74l-5 3l-4 -3q-4 -3 -11 -9.5t-12 -10.5t-8 -7q-1 -1 -14 -17
l-3 -3q4 2 9 5q9 6 22 18zM485 78q5 4 8 6l17 12q-6 6 -12 11v-1q-2 -7 -9 -16l-9 -9zM505 57l-8 6l-16 -14l-20 -15l-3 -3q7 0 17 5q11 5 27 18zM510 61l18 16l3 3l-10 8q-8 -10 -20 -21zM526 45l-10 6q-11 -8 -18 -15l-6 -6l-2 -4q15 6 32 17zM552 30h-1q-17 -3 -32 -8
l-3 -3h2q7 0 18 1q5 0 16 1q5 1 9 2l2 1zM565 30v2h-3zM543 35l-6 3l-8 -7zM462 132l1 1q5 2 8 3l1 1q-5 7 -9 14l-1 -1l-4 -5l1 -3q2 -4 2 -6l1 -1v-1v-1v-1zM429 333l3 6l-9 -8l-6 -6zM425 323l-6 -4l-1 -1q0 -2 1 -4v-9q2 9 6 18zM440 341q35 27 54 37q1 0 6 4l-23 -2
l-23 -22l-8 -6q0 -2 -2 -5l-2 -3q-2 -1 -2 -2v-1zM706 295q0 14 1 26q-9 -10 -26 -25q-32 -28 -33 -29l-18 -18l-1 -1q9 2 21 9t33 22zM706 267v7q-14 -13 -23 -23q8 4 23 16zM717 275l-1 8l-4 -4v-8l4 3zM723 279l-1 10l-1 -1zM709 234l-1 12q-24 -20 -31 -30l-3 -5
q7 3 18 11q7 4 17 12zM723 245l-3 12l-7 -6l1 -13h1l2 2l3 2l2 3h1zM711 199q0 7 -1 17l-1 -1q-8 -11 -12 -17l-3 -6v-1q1 0 3 1q4 1 11 5zM714 155q-1 9 -2 17q-5 -8 -6 -12q-1 -5 0 -7q0 -1 1 -1q2 1 7 3zM730 207l-5 27l-2 -3l-7 -9q0 -11 1 -20l2 1l4 2h2h1q2 -1 2 -3
q1 -4 -3 -10q-2 -4 -7 -11l-1 -1l2 -21h1q5 4 6 5q2 1 3 1q2 1 3 1q0 17 -2 41zM738 161v-11q0 -17 -2 -27q-3 -13 -8 -17q-1 -2 -3 -1.5t-3 2.5q-1 1 -1 4l-1 4v3l-2 8q-1 -3 -1 -5q-2 -8 0 -24q0 -1 2 -6q3 -6 6 -10q4 -6 7 -8q1 -1 1.5 -1t1.5 1q4 5 6 16v11q0 15 1 33
q-1 10 -3 21zM712 309v-10l1 1q0 5 -1 9zM712 292v-5l3 3l-1 4zM713 264v-6l6 6l-1 4zM727 114q1 4 3 10q2 10 2 26v2q-1 -3 -3 -6l-6 -11q1 -7 3 -15v-4zM720 305v-1v1zM712 412v10q-8 -21 -15 -36q-5 -11 -8 -19l14 11l9 6v28zM725 456l-7 -17v-27q1 -8 2 -25q1 13 3 26
q3 22 11 56l5 20l-1 2l-11 -30l-1 -1q1 -2 0 -3h-1v-1zM690 423l3 3q2 1 4 -1l1 -1l5 10q4 8 8 14q-8 -6 -18 -20l-1 -1zM688 412q-5 -4 -7 -7l-2 -3q6 6 9 10zM666 388q1 0 1.5 -1.5t-0.5 -2.5q0 -1 -1 -1q-11 -12 -51 -41q-12 -12 -24 -28q-10 -13 -11 -14l-2 -3
q9 3 18 6.5t20 10.5t16 11t18.5 14t16.5 12v4q2 6 8 20l12 27l-7 -8q-1 -1 -3 -4q-1 -1 -1 -2l-3 -3h-1q-2 -2 -3 0q-1 1 -1 3v1l1 2zM655 386q0 1 0.5 1t0.5 1q1 0 3 3q5 6 6 7q3 5 10 15l12 18l24 36v6v6v7v1v1l2 1q2 1 3 -1h1v-2v-1v-8l7 10q8 13 14 24q-2 57 1 97v11
q0 3 -1 4q-1 -4 -2 -10l-2 -8q-1 -4 -1.5 -6.5t-0.5 -3.5q-2 -10 -6 -32q-5 -25 -7 -34q-9 -41 -27 -63q-57 -69 -180 -83v-2q-3 -10 -16 -20q-1 -1 -10 -8q-6 -5 -9 -8q-7 -7 -13 -12q11 3 30 11q6 2 32 20l16 10q4 2 7 2q3 2 5 1t2.5 -3t-0.5 -3t-4 -2l-5 -3l-48 -41
q17 11 38 27q25 19 34 29l1 2l1 1h2q2 0 2 -2v-2v-1q-1 -2 -1 -4q0 -1 -1 -3l-2 -2q-1 -1 -5 -4q-5 -5 -15 -14q-27 -22 -30 -25l-2 -2q28 11 79 45l39 28l12 9l3 3h1v1h1q2 0 3 -1q2 -1 2 -3t-1.5 -3.5t-3.5 -2.5q-1 -1 -3 -2q-1 0 -2 -1q-2 -1 -3 -1q-24 -19 -70 -64
q-9 -9 -14 -15q-1 -2 -2 -3q1 0 3 1l12 7q14 9 33 23l1 1q21 22 41 37q1 1 3 2zM720 460l1 3l8 21l-11 -17v-8l1 1h1zM692 389l17 43q-18 -35 -29 -60q-4 -9 -6 -15l4 2v2q6 9 14 28zM723 333q1 -8 3 -26q1 0 2 1q3 0 5 -2t1 -5q0 -1 -2 -3q-1 -1 -3 -2l-2 -2l2 -11l3 2
q1 1 5 6q2 1 3 2l1 1h1v60v34q0 27 -2 78q-8 -32 -11 -53q-3 -23 -5 -44v-7q0 -4 -0.5 -11t-0.5 -13v-5zM712 344v13v15q-13 -15 -40 -38q-36 -29 -47 -40q-2 -3 -8 -9q-6 -5 -9 -8l-3 -3l-3 -3q17 2 39 17q7 6 20 16q13 11 18 14q20 14 28 17q1 1 2 1q1 3 1 4v2q1 0 1 1z
M736 208q4 -17 6 -31v31v75q-4 -8 -11 -16q2 -24 4 -42q1 -9 1 -17zM721 296v2l-1 -1v-2zM728 158q-1 -1 -5 -4l-3 -2q1 -3 1 -7l2 3q4 6 5 10zM721 198l-4 -3v-4v-1q2 3 3 5q1 1 1 3zM732 278l-2 -2v-1q1 1 2 3zM521 333q-21 -15 -36 -24q57 -15 107.5 -55t84.5 -92
q13 -20 33 -59q-1 12 1 20q1 4 6 13q-2 7 -3 13q-4 -2 -7 -3q-5 0 -7 4q-1 4 0 12q1 6 11 20v9v1l-12 -6q-2 -1 -4 -1q-4 -1 -5 1q-3 3 -1 7q0 4 3 8q4 7 13 17l4 6v2q-8 -5 -13 -9q-17 -11 -25 -13q-3 0 -4 1t-1 3t2 5q0 1 1 2t2 2.5t1 2.5q8 10 35 33v7q-23 -17 -35 -22
h-1h-3q-1 2 -1 4l1 1l3 3l6 6q9 12 29 30v6l-19 -14q-21 -15 -34 -22q-19 -11 -30 -11q-2 0 -3 2v2q0 1 1 3q2 1 5 5l18 18q2 2 33 30q19 16 27 27q-7 -5 -21 -14q-6 -4 -18 -15l-21 -15q-26 -19 -46 -19q-2 0 -3.5 1.5t-0.5 3.5t3 4l4 4l3 3l8 9l9 8q11 11 47 41
q24 20 35 31q-3 -2 -10.5 -7.5t-9.5 -6.5l-1 -1q-2 -4 -4 -6q-3 -4 -6 -5q-2 0 -4 1q-2 -2 -11.5 -9.5t-13.5 -10t-12.5 -9t-14 -9.5t-13.5 -7t-15 -6.5t-14 -3.5q-3 0 -4 1t-1 4q1 1 2 3l3 3q1 2 1.5 2.5t11.5 14.5l7 9l-13 -9q-8 -4 -13 -7q-6 -3 -9 -3t-4 2t0 4q1 3 4 7
q5 7 15 16l29 28q-61 -42 -90 -49h-2q-1 0 -2 1t-1 3l1 1q0 1 3 4q1 1 3.5 3t3.5 3zM525 356q-22 -15 -29 -18q-26 -11 -42 -14h-2q-7 -5 -10 -6q2 -1 5 -1t5 -1h1q11 -1 22 -4l1 1l6 5zM434 329q-3 -5 -4 -11q0 1 3 1q1 -1 2 -1q-1 2 -1 3t2 3l1 1q5 3 13 4q10 8 23 20
q3 4 10 9q9 6 10 7q7 6 10 12q-5 -4 -7 -5q-15 -7 -62 -43zM489 404l-2 -2q-2 -2 -3 -2l-21 -15q6 1 12 1l4 4q6 7 8 11q1 1 2 3zM429 357q4 1 7 2q5 2 8 -1l6 5l18 16h-13q-15 -12 -26 -22zM414 254q8 -34 26 -74h1q1 0 1.5 -1t1 -1t0.5 -1l2 -5l7 -15l1 -3q3 2 5 3h1
q-22 43 -29 115q0 1 -1 4t-2 8.5t-2 9.5t-1 7q-3 -14 -5 -36q0 -5 -1 -7v-1v-1v-1q0 -1 -1 -1q-2 -1 -4 0zM413 258q0 1 0.5 3t0.5 3v26v10q-1 8 -1 14q-2 -1 -3 -2v-35q1 -9 3 -19zM409 331v-3v-3l1 2q0 2 -1 4zM407 158l2 -4l4 4q7 7 11 12l1 1v1q-1 -1 -4 -3l-4 -3z
M442 112l6 -5l11 12h1l-3 4q-6 -4 -15 -11zM490 74l6 -3q12 11 20 21h-1q-7 -4 -18 -12q-3 -2 -7 -6zM515 58h1l13 10l9 7l-2 1l-4 -4zM553 36q11 2 19 2q11 0 15 -4l1 -1l12 -2l-57 40l-10 -8l-12 -8l10 -6l6 4l5 3q1 0 1 0.5t1 0.5h1q1 0 2.5 -1.5t0.5 -3.5q0 -1 -1 -3
l-5 -5l-1 -1zM580 23l6 -2zM651 16q-2 1 -3 1l-24 5l9 -6h18zM591 26l12 -3l5 -2h1h1h1v-1q1 0 1 -2v-1h4q3 -1 6 -1l-11 8q-11 1 -20 2zM554 88l-2 -1q-4 -2 -11 -7l2 -1zM490 102l-6 -4l-14 -9l5 -4l9 9q4 4 6 8zM468 129l-3 -2l1 -1zM216 33l13 13q-3 -2 -5 -4
q-5 -5 -8 -9zM414 217v1h1h1q1 1 2 1q-11 32 -14 58v36q0 2 -1 7v8v7q1 3 3.5 3.5t4.5 -1.5q2 -1 4 -5l4 4q6 6 20 18q-1 0 -2 -1q-3 -1 -9 -4q-3 -2 -8 -6q-2 -1 -3 -2h-1h-2q-1 0 -2 2v2l1 1q10 15 32 33h-3q-2 0 -8 -4q-7 -4 -12 -3q-4 1 -6 8q-1 5 -2 14q0 6 -1 13
l-8 -12q0 -1 -8 -10l-14 -19l-14 -19q-3 -5 -4 -7q0 1 -1 0h1q1 0 3 1q3 3 9 10t9 9q2 2 5 2t4 -4q2 -11 -9 -29l-9 -13q-5 -7 -6 -10q-1 -1 -1 -2l8 7q6 6 9 8t5 3q3 1 5 -1t1 -4q0 -2 -1 -4q-2 -3 -5 -8q-2 -2 -5 -5.5t-6 -7.5t-5 -6q-4 -5 -6 -8q-2 -2 -2 -3l6 3q1 0 4 3
q1 1 2.5 3.5t2.5 2.5q3 4 5 5t4 0.5t3 -3.5t-2 -8q-2 -4 -6 -10q-5 -8 -19 -24l-15 -19l17 13q11 8 17 12l6 3h4q2 -1 2 -4q0 -6 -6 -15q-5 -6 -14 -15q-4 -4 -10 -9.5t-10 -9.5l-6 -6l-12 -15l-2 -3q11 4 28 24q11 14 16 18q10 9 20 9q2 0 3 -2v-2l-1 -1q-1 -1 -1 -2l-5 -5
l-6 -6q1 0 2 -1q6 4 10 5q3 0 4 -1t1 -2l2 2zM393 221l-6 -4l-8 -10zM392 249q-1 0 -2 -1q-6 -3 -16 -12l-17 -13l-6 -4l-2 -2l-2 -1h-3q-6 -21 -14 -39l2 2l4 6l13 16l6 6l10 10q6 6 10 9l13 15q3 5 4 8zM360 343l-3 -3q-3 -3 -5 -4l-3 -3q-2 -1 -3.5 0t-2.5 4q0 1 1 4
q-9 -6 -11 -8q-7 -3 -7 -4q-3 -1 -4 -1q-3 0 -4 2q-1 1 0 3q4 8 25 27l-14 -7l-5 -3l-1 -1h-1h-1h-1l-2 2q-2 -3 -4 -4q-2 -2 -7 -6t-7 -6q-4 -3 -5 -4h-2q-1 -1 -1 0q-2 0 -3 2v1q-14 -9 -26 -15l-2 -1q-2 -1 -3.5 -1.5t-2.5 -1.5q-3 -1 -4 -1q-3 0 -4 2q-1 1 0 2
q-2 0 -3 1t-1 3v1q3 8 11 18l-6 -6l-9 -8l-8 -8q-6 -6 -9 -8l-7 -7q-2 -2 -3 -2l-1 -1h-2q-2 1 -2 2q-1 1 0 3v1l3 4l-13 -13l-5 -5q57 26 123 26h8q7 1 11 1q6 0 11 -1q6 -1 8 -4q4 -4 4 -14q0 -8 -1 -20q-1 -5 -5 -32q-1 -9 -3 -17l15 19q14 16 19 23l6 9q0 1 1 2l-2 -2
l-2 -3l-3 -3q-3 -3 -6 -5q-7 -3 -10 -3q-3 -1 -4.5 1t-1 4.5t4.5 6.5q2 4 6 9q2 2 5 6l6 7q3 3 5 6t3 5q-3 -2 -8 -7q-8 -7 -10 -9q-3 -2 -4 -3q-3 -1 -5 -1q-2 1 -2.5 2t-0.5 3t2 4q0 1 2 3l1 2q2 4 8 12q6 9 8 13q9 14 8 22q-1 -1 -7 -8q-7 -8 -10 -10q-7 -6 -12 -1
q-2 1 -1 4q0 1 1 3zM369 502q0 -4 -3 -5q-3 -3 -7 0q-3 3 -7 9q-5 7 0 21q4 9 13 24l5 9h-2h-2l-2 -1q-8 -7 -14 -9q-9 -3 -13 3q-3 6 1 13q3 5 11 12q9 8 25 19l29 32l-14 -3q-5 -3 -10 -7l-19 -16q-12 -9 -16 -13q-1 0 -7 -5q-2 -2 -3 -2q-1 -1 -2 -1q-2 0 -3 2v2v1
q8 16 21 33h-4h-10q-5 1 -6.5 3.5t-1.5 4.5q0 1 1 3l-1 -1q-10 -7 -26 -29l-8 -13q45 -60 52 -145q0 -1 6 -23l3 -15q1 -3 1 -5v-2q0 -2 -1 -3t-3 -2h-5h-10q-4 1 -7.5 1.5t-6.5 1.5h-3q-61 8 -119.5 37t-96.5 73q-24 27 -42 58q1 -26 5 -52q3 -21 0 -30q-1 -3 -5 -9l-1 -2
v-11l3 6q4 9 6.5 11.5t4.5 3.5q3 1 6 -2q4 -3 0 -9q0 -1 -2 -3q-1 -2 -1 -3q-2 -3 -5 -9q-5 -7 -6 -10q-3 -4 -3 -7v-1q1 0 3 2l9 10q6 6 10 9q7 4 12 2q2 -2 2.5 -3.5t0.5 -4.5q-1 -3 -5 -10l-2 -3l13 12q8 8 14 13q8 6 12 7q3 1 4 -1q2 -1 1 -4q0 -2 -3 -5l-3 -5
q-3 -3 -3 -4l-34 -51l5 5q21 23 38 29q2 1 4 0q1 -2 1 -4q0 -1 -1 -4q-1 -1 -3 -4l-1 -2q-3 -6 -32 -46l-18 -26l44 48q18 18 29 27q6 6 11 8q5 3 9 0q1 0 1.5 -1.5t0 -3t-2.5 -3.5q0 -1 -3 -3l-2 -2l-16 -22l-28 -39q4 5 7 9q30 37 54 41q2 0 4 -1q2 -2 1 -5q-1 -2 -5 -6
q-1 -1 -6 -7q-3 -4 -5 -6l-29 -43l31 31l33 33l3 3q3 4 4 5l3 3q3 1 4.5 -0.5t1.5 -3.5t-2 -5q-1 -3 -3 -6q-4 -6 -13 -16l-38 -42q-27 -29 -40 -45q-10 -13 -15 -21l23 26q12 14 61 66q1 1 11.5 12.5t16.5 17.5q1 1 3 3.5t3 3.5q2 2 4 3t3.5 -0.5t1.5 -3.5q0 -1 -1 -2
q0 -1 -1 -2t-3 -4q-4 -5 -11 -13l-36 -40l-27 -32l8 5q45 47 71 69l3 3l3 3q3 2 5 3q3 1 5.5 -2t0.5 -6q-1 -2 -3 -4q-1 0 -4 -3q-2 -1 -3 -2l-51 -62l-9 -11q51 51 87 80l1 1h1h1q2 1 2 -2q1 -1 0 -2v-1h-1l-2 -2q-5 -5 -7 -6l-43 -41h1l9 9l17 15q10 10 17 15q5 3 8 5
q4 2 6 2t3 -2q2 -1 0 -4q-1 -1 -3 -2l-3 -3q-2 -2 -3 -2q-1 -1 -9 -8l-13 -12l-7 -8l11 8l20 17q9 8 19 15l6 5l2 1l1 1q2 0 3 -1q1 0 1.5 -2t0 -3.5t-3.5 -2.5q0 -1 -3 -2q-1 -2 -2 -2q-10 -9 -28 -22l-12 -9q-9 -9 -15 -16l4 2q15 7 41 24q4 4 9 8q8 7 14 10l2 1q7 7 15 7
h2q3 -1 3 -4q0 -1 -2 -2v-1l7 4q9 33 11 44h-2q-2 1 -2 2v2l1 1l1 3q1 3 4 8l3 4l2 12v1v1v1q2 7 2.5 13t0.5 12l-3 -3q-1 -1 -2 -1q-2 0 -3 1t-1 3v2q2 8 7 18zM441 640q-1 0 -3 -1l-9 -8l9 6zM413 631l-1 -1l-19 -21l4 3l3 2q8 10 16 17h-3zM379 646l15 3l-10 3zM468 666
h1h-1zM403 678q3 0 30 -2l16 -1h13h41l7 6l2 3h1v1h1h1q1 0 2 -1t1 -2v-2h-1l-1 -1l-3 -3l-1 -1h17l20 15q4 3 6 5q2 0 3 1h1q2 0 3 -2l-1 -3v-1l-2 -2l-7 -7l-3 -2q2 0 4 -2v-2h1h1l2 -2v-1q28 16 55 25h-127q-230 0 -344 -9q24 -7 46 -17q1 0 3 1h5q19 1 53 2l15 6
q13 3 18 -3q2 -2 2 -4h16q-2 3 -1 5q1 3 4 3q2 1 4 0l6 -1h2l2 1q7 4 12 5q6 3 10 2q2 -1 2.5 -2.5t0.5 -2.5q-1 -1 -1 -2q23 0 56 -2q2 0 3 1q2 1 3 -1zM396 666h-1l-2 -3q7 -2 12 -4q6 -3 10 -6l7 1q20 4 32 7l5 4l2 2q-3 0 -5 1h-1h-5h-19h-1q-15 -1 -34 -2zM202 666v-2
l10 -5q2 0 5 1t7 2q-2 1 -3 1q-3 2 -3 4q-9 0 -16 -1zM324 634q1 1 14.5 11t21.5 15q-9 1 -21 3q-11 -1 -21 -1l-6 -6q5 3 10 4q9 2 15 -3q1 0 1.5 -1.5t0 -3t-2.5 -3.5q0 -1 -3 -3l-2 -2zM341 596q4 3 15 12q13 10 18 15q-9 -1 -15 -2q-11 -14 -18 -25zM468 634l42 27l7 5
h-14l-23 -21zM382 546l5 5l31 32l-2 -1h-1h-1q-21 -21 -32 -36zM372 482l1 2v2q-1 -2 -1 -4zM392 408q6 3 12 3q2 0 3 -2l6 9q0 8 1 17q2 51 6 71q10 45 46.5 89t85.5 74h-2q-1 -1 -3 -2q-1 0 -2.5 -0.5t-2.5 -1.5q-2 -1 -3 -1q-8 -6 -49 -39l-21 -17l-10 -10q0 -1 -1 -2
q-3 -2 -5 -4q-2 -1 -3 -2q-2 0 -3.5 1t-1.5 3v1l1 1l1 1l2 2l9 7v3h1v1l1 1l5 4l1 1l22 18l16 14l-22 -18q-23 -19 -36 -28l-31 -36q3 2 5 2q4 1 5.5 -1t0.5 -5q-1 -2 -4 -7q-2 -3 -7 -9q-4 -5 -6 -7l-11 -15q-8 -10 -11 -15q-6 -8 -9 -14q1 -2 1 -5l3 3l14 15q12 11 18 14
h1h2q2 -1 2 -4l-1 -1q0 -1 -2 -2q-4 -5 -5 -6q-1 -2 -4 -7t-5 -7l-17 -26q1 1 3 1q1 1 2 0q1 0 1.5 -1.5t0.5 -2.5l-3 -6q-2 -4 -6 -10l-10 -16l-1 -5l14 12q4 4 7 6q2 1 3 2t2.5 1t2.5 -1q1 0 1.5 -1.5t-0.5 -3.5q-1 -3 -4 -10l-7 -11q3 2 5 2t3.5 -1.5t0.5 -3.5
q0 -2 -2 -4l-5 -6zM123 693q120 10 362 10h149l12 2q4 1 23 -1h6h1l2 -1l2 -2q0 -2 -2 -3q0 -1 -1 -1h-2h-7h-33q-67 -14 -131 -72t-78 -121q-4 -19 -6 -69q0 -4 -1 -8l1 1l138 206l10 13q0 1 1 2l1 1q3 0 4 -1v-2v-1v-1q-1 0 -1 -1q-4 -7 -21 -33l-127 -186l-6 -9
q0 -13 1 -21q1 -9 2 -13l2 -4q2 -1 7 2q7 5 11 5h11l27 19q1 1 3 2l3 3q2 2 3.5 2t3 -0.5t2.5 -2.5q1 -4 -2 -10q-3 -5 -9 -12q142 10 204 84q17 21 26 60l6 34l6 33v3q1 2 2 6l2 8q1 7 2 11q1 2 1 4q1 1 1 1.5t1 0.5q1 1 2 1q4 0 6 -5q1 -3 2 -7v-12q-3 -36 -2 -84
q13 34 4 66q-1 3 2 4t4 -2q10 -38 -8 -78q1 -1 2 -1.5t1 -1.5q0 -2 -0.5 -7.5t-2.5 -15.5q3 -76 3 -100v-180v-74q1 -17 1 -29q-1 -10 -2 -17q0 -15 -1 -24v-10q0 -2 -1 -3v-1q0 -2 -1 -2q-2 -2 -4 -2t-4 2q-3 2 -7 7q-5 8 -15 28q-30 58 -42 75q-34 53 -85.5 93t-109.5 54
h-1q-1 -1 -2 0q-1 0 -1 1q-10 3 -20 4h-1q-6 1 -11 1.5t-8 0.5q-2 1 -3 0v-4q0 -5 2 -13q1 -3 2 -8.5t2 -9t1 -5.5q9 -95 49 -143q12 -15 30 -29l1 1q5 3 7 3h3q1 -1 2 -3q0 -2 -1 -4l-4 -4l12 -9q8 6 14 9q5 2 9 4q3 1 5 1h1q2 -1 2 -2q1 -2 0 -3l-1 -1q-7 -8 -18 -17
l61 -43l4 -2q4 -1 9 -2q16 -2 27 -5q6 -1 9 -2q2 -1 3 -2h1q1 -2 1 -3q0 -2 -2 -3q-1 -1 -3 -2q-2 0 -7 -1h-8q17 -11 33 -18q39 -8 54 -19h1q1 -1 0 -3q0 -2 -1 -2q-1 -1 -2 -1h-3l-8 2q-20 6 -42 17q-13 2 -29 4q-51 7 -131 9q-42 1 -88 1t-89 -0.5t-51 -0.5q-65 0 -131 3
q-29 1 -57 0q-7 -1 -14 -1h-1h-1q-2 1 -2 3t2 3h1h3q5 1 8 1h3q9 2 19.5 6t17.5 8l19 10q13 6 18 9q76 39 118.5 86t54.5 122q4 27 5 33q1 11 1 19t-2 10q-1 1 -5 2t-10 1q-4 0 -11 -0.5t-8 -0.5q-74 0 -135 -33q-1 -1 -2 -3q-3 -3 -3 -4q-3 -2 -4 -3h-4q0 1 -1 2
q-66 -42 -97 -116q0 -13 -1 -21q0 -1 -0.5 -3.5t-0.5 -4.5q-1 -3 -1 -4q-1 -2 -4 -2q-1 1 -3 2q-1 2 -2 5q-17 -39 -22 -58q-1 -2 0 -6v-4v-4v-7q-2 -5 -7 -5q-4 0 -5 3v5q1 1 1 4l1 2q4 28 4 71q0 28 1.5 83.5t1.5 83.5v17v37q0 31 3.5 93t3.5 93q0 57 -2 79q0 1 -1 3
q0 3 -1 4v4q1 3 4 4q3 0 5 -2l2 -4q2 -4 4 -11q1 -5 2 -12q2 -5 2 -6q15 -40 54 -85q38 -43 95.5 -71.5t116.5 -36.5l6 -1q7 -1 11 -2h10h3q0 2 -1 5q-1 5 -3 14q-6 23 -6 25q-6 81 -49 139l-29 -47l-4 -4q0 -1 -0.5 -1t-1.5 -1q-1 0 -3 1v2l-1 1q1 0 1 1q1 3 6 12
q12 21 27 43q-30 38 -75 63q-7 -1 -12 3q-2 1 -2 4v1l-11 5l-2 1q-25 11 -54 19q-2 1 -2 2h-5q-3 0 -3 3t3 3zM329 175q-17 -36 -44 -63q-42 -41 -111 -77q-49 -25 -52 -26q17 0 34 -1q66 -3 131 -3q8 0 51 0.5t89.5 0.5t87.5 -1q81 -2 132 -9q5 -1 10 -1l-25 15h-2h-7h-1
q0 -1 -1 -1q-2 -1 -9 -1q-4 0 -9 1q-4 0 -10 1q-3 1 -8 2.5t-6 1.5q-8 2 -12 2q-3 0 -13 -1h-1q-19 -5 -27 -5h-5q-3 -1 -6 -1q-7 0 -11 4q-1 1 -1 3l1 1l-2 2q0 2 2 3q1 2 3 3q1 0 4 1h1l2 1h1l9 8l7 6l-6 -4q-26 -15 -48 -21h-1q-2 0 -3 1v4l1 1l2 1q5 3 6 4l6 6q4 5 6 7
l1 2q-9 -8 -17 -12q-15 -7 -26 -4q-2 1 -2 2q-1 1 -0.5 2.5t2.5 2.5q1 2 5 5l20 16l14 13l-5 3l-27 -24q-13 -12 -22 -19q-12 -8 -20 -8q-2 0 -3 1q-2 2 -1 4t3 4q1 1 2.5 2t2.5 2l2 2q13 16 14 17q3 3 8 7l12 11q7 6 11 10l3 2l-6 4l-3 -2l-24 -18v-1h-1l-2 -2l-1 -1l-3 -2
h-1l-32 -23l-3 -3q-1 -2 -2 -3q-4 -4 -9 -3l-2 2v2q0 1 1 2q0 1 2 4q3 4 10 11l31 36l18 19l-7 6l-23 -18q-3 -2 -20 -16.5t-29 -23.5t-24 -14q-1 0 -2 -1q-2 0 -3 1q-2 0 -2 2q0 1 0.5 2t1.5 2q2 2 9 8v1q0 -1 -1 -1l-2 2q-1 0 -1 2l1 1v1l3 3l7 7l41 38q16 14 24 23l2 2
h-1l-4 -2l-27 -20q-13 -10 -45 -43q-29 -28 -48 -41q-2 -1 -3 -1q-3 0 -4 2v3q1 1 4 6l28 31l11 11l24 24l25 23l26 26l-3 5l-2 -1l-16 -14q-23 -19 -59 -52q-42 -40 -58 -53q0 -1 -1 -1l-1 -1q-2 0 -3 1q-1 2 -1 3v1q-2 -1 -4 1q-1 1 -1 2v1l1 1v1l2 2l7 6l20 20
q30 29 32 30q4 4 26 18l3 1l7 7q-9 -5 -32 -20l-28 -19l-30 -19q-44 -42 -50 -47q-1 0 -1 -1h-1q-1 0 -1 -1q-2 -1 -4 1q-1 1 -1 3q1 6 4 10l-28 -15q-10 -5 -16 -7q-3 -2 -5 -2q-3 -1 -5 0t-2.5 3t0.5 3l3 3q1 0 4 1l2 1l9 5q5 4 7 6l24 14q19 13 27 17q1 1 4 2l17 9
q15 14 22 19q6 5 7 6q3 1 4 2h1h1l7 6l1 1v2q0 1 1 2q1 2 5 7l19 23l32 37q-9 -7 -19 -7q-2 0 -3 2v1z" />
    <glyph glyph-name="uni2721" unicode="&#x2721;" horiz-adv-x="749" 
d="M575 333l-60 -111q4 0 34 -2t47 -3q24 -1 37 1l-2 4q-7 16 -20 43zM338 564q57 0 104 -1q-11 18 -17 26q-31 44 -41 63l-6 -11l-19 -37l-14 -27zM239 368q55 -84 90 -149q18 0 64.5 1t71.5 2l85 156l-7 11l-74 129q-66 2 -154 2l-28 -56q-32 -66 -48 -96zM215 325
l-16 -24l-32 -45l-22 -35q58 -3 134 -3q-27 48 -64 107zM137 518l74 -108l36 73l18 37q-14 -1 -58.5 -1.5t-69.5 -0.5zM397 87l7 15q3 8 5.5 13t2.5 6l29 56q-17 0 -48 -0.5t-42 -1.5l8 -16q5 -10 19 -36q13 -22 19 -36zM628 508q-14 0 -30 1t-33.5 2.5t-26.5 2.5
q-8 1 -16 1l53 -93l4 7q7 13 44 70zM83 519q-16 4 -16 21q0 9 6.5 15.5t15.5 6.5q38 0 110.5 1t88.5 1l19 35l13 27q12 22 20 36q12 23 21 36q5 9 10 14q3 4 7 6q10 6 20 3q20 -6 21 -29v-8q7 -21 42 -69q9 -13 34 -54q24 -1 47 -3l32 -3q22 -2 37.5 -3t30.5 0q0 1 8 3
q23 8 35 -9q4 -4 5 -8.5t0 -6.5v-3q-1 -2 -2 -5l-2 -4q-2 -4 -6 -11l-20 -32q-41 -66 -43 -69l-17 -29q31 -55 50 -93q14 -28 22 -46q4 -10 6 -17q3 -10 3 -17q-1 -16 -18 -24q-8 -4 -21 -6q-17 -3 -47 -2q-18 1 -49 3q-26 2 -31 2h-24l-39 -77q-1 -1 -4 -7l-8 -16l-8 -18
q-8 -17 -13 -26q-3 -7 -6 -10q-2 -3 -4 -5q-7 -8 -17 -8q-18 0 -27 16q-4 8 -5 20q-1 5 -1 10t-0.5 6.5t-0.5 3.5l-18 35q-15 27 -21 39q-7 16 -16 34q-105 -2 -179 3q-1 -4 -3 -9q-2 -9 -10 -13.5t-17 -2t-13.5 10.5t-1.5 17q2 8 5 17v6q1 11 11 17q12 25 36 60l31 45
q17 23 26 40z" />
    <glyph glyph-name="uni2722" unicode="&#x2722;" horiz-adv-x="832" 
d="M381 648q-4 -2 -7 -10q-2 -6 2 -25q6 20 6 27q0 5 -1 8zM402 63q1 5 0 13q-2 19 -10 52q-1 0 -3 1q-9 -25 -8 -42q1 -18 14 -23q4 -2 7 -1zM673 359q-4 0 -12 1q-16 2 -51 -10l5 -1q31 -5 41 -1q13 4 17 11zM492 410q9 3 35.5 14.5t41.5 17.5q62 22 104 18
q44 -5 72.5 -33t27.5 -69q-1 -36 -25 -65t-62 -41q-33 -10 -87 -1q-14 2 -39 7l-24 6q-18 4 -29.5 18.5t-10.5 32.5q-11 3 -20 11h-44h-12h-11v-8q19 0 33.5 -13t16.5 -32q1 -10 5 -26t12 -43l12 -46q11 -44 14 -73q4 -50 -17 -78q-23 -32 -59.5 -41t-67.5 4q-33 13 -54 43
t-23 70q-2 42 21 98q1 2 16 38q8 20 12 32q8 24 31 32q2 6 5 11q0 17 -1 32q-35 0 -63 -2q-6 0 -23 -2q-6 -6 -15 -10q-8 -11 -20 -15q-93 -37 -158 -17q-33 10 -55 35.5t-18 60.5t31.5 55t63.5 22q69 4 161 -54q18 -11 23 -32l8 1q27 2 63 2v31q-28 9 -34 38q-2 10 -7 23
l-14 36l-14 39q-32 90 -12 139q15 37 46.5 57.5t67.5 15.5q39 -5 62.5 -35.5t23.5 -73.5q0 -30 -26 -100l-17 -46q-9 -23 -12 -33v-1v-1q7 -32 -21 -51q1 -18 1 -38h15h11h28q4 29 31 40z" />
    <glyph glyph-name="uni2723" unicode="&#x2723;" horiz-adv-x="796" 
d="M472 99q0 -33 -23.5 -56.5t-56.5 -23.5t-56.5 23.5t-23.5 56.5t24 57q11 11 26 17q-2 23 -4 51l-4 73q-12 4 -20 13q-7 6 -11 13q-87 6 -141 7q-6 -11 -16 -20q-23 -24 -56 -24t-56.5 23.5t-23.5 56.5t23.5 56.5t56.5 23.5t56 -24q16 -15 21 -34q57 -1 143 -7q2 2 4 3
q7 8 16 12q0 82 11 147q-12 6 -23 17q-23 23 -23 56t23.5 56.5t56.5 23.5t56.5 -23.5t23.5 -56.5t-23 -56q-15 -15 -32 -20q-11 -59 -12 -134q11 -4 19.5 -12.5t12.5 -19.5q24 -1 49 -2h88q2 29 23 50q24 24 57 24t56.5 -23.5t23.5 -56.5t-23.5 -56.5t-56.5 -23.5t-57 24
q-2 2 -4 5l-12 -1h-98q-33 1 -66 3q-4 -3 -9 -5l5 -81q3 -32 4 -57q16 -6 28 -18q24 -24 24 -57z" />
    <glyph glyph-name="uni2725" unicode="&#x2725;" horiz-adv-x="787" 
d="M507 564q0 -25 -17.5 -42.5t-42.5 -17.5q-18 0 -32 9v-140h136q-7 4 -13 11q-18 17 -18 42t17.5 42.5t42.5 17.5t42.5 -17.5t17.5 -42.5q0 -8 -2 -15q14 8 30 8q25 0 42.5 -17.5t17.5 -42.5t-17.5 -42.5t-42.5 -17.5q-20 0 -35 11q9 -14 9 -32q0 -25 -17.5 -42.5
t-42.5 -17.5t-42.5 17.5t-17.5 42.5t18 42q3 4 7 7h-132v-121q14 10 33 10q25 0 42.5 -17.5t17.5 -42.5t-17.5 -42.5t-42.5 -17.5q-7 0 -13 1q17 -17 17 -42t-17.5 -42.5t-42.5 -17.5t-42.5 17.5t-17.5 42.5t18 43q8 8 19 13v8l-5 -5q-17 -17 -42 -17t-42.5 17.5t-17.5 42.5
t17.5 42.5t42.5 17.5t42 -17l5 -5v132h-178q17 -3 31 -17q17 -17 17 -42t-17.5 -42.5t-42.5 -17.5t-42.5 17.5t-17.5 42.5q0 14 5 25q-7 -2 -16 -2q-25 0 -42.5 17.5t-17.5 42.5t17.5 42.5t42.5 17.5q10 0 20 -3q-3 8 -3 18q0 25 17.5 42.5t42.5 17.5t42.5 -17.5t17.5 -42.5
t-17 -42q-7 -7 -14 -11h155v151q-2 -2 -5 -4q-17 -18 -42 -18t-42.5 17.5t-17.5 42.5t17.5 42.5t42.5 17.5q9 0 16 -2q-13 16 -13 38q0 25 17.5 42.5t42.5 17.5t42.5 -17.5t17.5 -42.5q0 -20 -11 -35q6 1 13 1q25 0 42.5 -17.5t17.5 -42.5zM369 600zM163 327v-1q2 1 4 1h-4z
M617 327zM609 373h1v1z" />
    <glyph glyph-name="uni2726" unicode="&#x2726;" horiz-adv-x="781" 
d="M375 239q5 -10 7 -18l3 4q0 1 1 1l1 1l7 8l-3 3q-5 -2 -11 -1q-2 1 -5 2zM381 307l-10 -9l7 -7l6 8zM328 338l4 -4l7 8l16 17v1l-5 -4zM407 366h-1l-3 -3zM450 391l-17 21q1 -4 0 -8q-1 -5 -7 -13l9 -7l3 2q6 3 12 5zM464 326l-8 5l-19 -20l-2 -3l12 8zM298 365l1 -1l6 8
zM375 486q-5 -14 -12 -28h4q16 0 21 -15q1 -3 1 -5.5t-1 -4.5v-1q-1 -2 -2 -3q0 -1 -1 -3l5 -4q15 6 26 5q4 0 7 -2l-11 14q-3 5 -14 18q-11 12 -16 20q-1 1 -3.5 4.5t-3.5 4.5zM385 528q0 -5 -1 -9q3 0 6 -2q2 0 4 -2q4 -2 7 -5l-7 8q-1 1 -9 10zM531 418q26 -11 60 -27h1
h1l7 -3q12 -5 20 -9q13 -7 21 -13q13 -12 10 -25q19 9 37 16q1 0 7 1q6 2 10 2q5 2 9 3q0 1 1 1q-3 1 -7 3q-9 3 -26 8l-63 21q-69 23 -151 97q-8 7 -15 15l12 -14q17 -20 25 -28q4 -4 4 -10zM504 373l14 -20l11 -19q8 3 15 6q5 2 10 1q-4 3 -5 3q-22 12 -45 29zM364 261
l1 -1v1h-1zM386 199l1 3v1h-1v-4zM261 328l10 -12l4 -5q13 -10 25 -21q2 5 5 10l-7 12q-4 -2 -8 -1q-6 1 -10 7q-3 4 -3 9q0 4 1 7l2 2l-5 6zM232 344l2 2l10 10q-2 1 -3 2q-7 7 -3 17q-16 -11 -26 -22q9 -5 17 -10q2 0 3 1zM612 347q-3 2 -6 3q-8 4 -18 8l1 -1q0 -1 1 -2
q2 -4 1 -9q-1 -2 -2 -5q7 3 23 6zM396 139q5 -2 7 -6q2 -3 3 -7q25 49 81 102q29 28 61 51q-26 -16 -45 -30q-28 -21 -35 -28q-9 -10 -21 -27q-16 -25 -23 -32q-4 -5 -9 -10q-3 -4 -6 -6l-5 -2h-7q-1 -2 -1 -5zM110 377q16 2 34 -1q114 38 167 135q45 82 58 155l2 12
q1 5 2 8q0 2 1 3v1v1q1 1 2 1q2 1 4 -1l2 -2q1 -3 2 -7q1 -6 2 -19q4 -34 6 -39q28 -80 80 -127q80 -72 149 -95l63 -21q18 -6 26 -9q5 -2 7 -3q2 0 3 -1l1 -1q1 -1 1 -2q0 -4 -6 -7q-3 -2 -10 -3q-4 -1 -10 -3q-5 -1 -6 -1q-21 -7 -42 -18q-7 -12 -28 -17q-3 -1 -8 -2
q-65 -38 -121 -90q-69 -66 -94 -132q-9 -25 -14 -54q-1 -4 -2 -10t-1 -7q-1 -4 -1 -5t-1 -2q-1 -2 -3 -2t-3 1v1v1v1v4v11v17q-2 42 -54 115q-127 176 -273 176q-3 0 -3 3t3 3q149 0 277 -178q54 -75 56 -119q4 22 13 46q3 8 7 16q-2 -1 -9 -6q-2 -2 -4 -3q-8 -4 -15 -1
q-10 4 -11 15q0 3 1 7q0 1 2 14q2 7 4 15q-21 14 -45 49l-21 31l-12 11q-21 22 -38 43l-11 13q-9 7 -17 12q-63 40 -108 35q-14 -1 -17 12q-23 -6 -52 -11q-3 0 -3.5 2.5t1.5 3.5q30 5 53 11q2 12 14 14zM184 368q5 7 12.5 14t12.5 11t16 11.5t14.5 9.5t16.5 10.5t14 8.5
q29 18 44 31q1 3 4 5q2 3 6 5q10 10 16 21q5 10 7 46q1 11 1 25v4v2q-12 -28 -31 -63q-52 -96 -161 -135q13 -3 26 -8zM447 514q-38 44 -61 108q-2 6 -6 40q-1 13 -2 19l-1 -4l-2 -13q-7 -38 -20 -74q1 1 2 1q6 3 13 2q6 -2 10 -7q3 -4 4 -11q1 -3 1 -8l1 -5v-2q3 1 5 1
q4 0 8 -2q1 0 2 -1t2 -1q14 -12 29 -27z" />
    <glyph glyph-name="uni2727" unicode="&#x2727;" horiz-adv-x="789" 
d="M-2 328q-4 5 -3.5 11.5t5.5 10.5t11 4q3 0 6 -1q102 33 159 68.5t111 112.5q40 58 60 115q1 4 7 20q3 8 5 17v1v3v3q1 6 3 11q5 11 17 11q8 0 13 -7q1 -1 2 -3q0 -1 0.5 -2.5t0.5 -3.5q1 -3 2 -8q1 -7 4 -24l4 -25l2 -12q26 -75 89 -135q18 -18 46 -34t50 -25l56 -21
q2 -1 15 -4q17 -5 25 -7q16 -5 24 -8q7 -3 10 -5q4 -3 6 -7q5 -9 -1 -18q-7 -11 -23 -11q-4 0 -7 1h-1q-14 -4 -47 -21q-119 -63 -181 -131q-40 -44 -57 -121l-10 -46v-1v-3v-4q1 -6 -1 -11q-5 -12 -18 -12q-16 0 -21 15q-2 6 -1 16v5q1 4 1 6v3q-21 42 -78 125
q-88 127 -262 145l-4 -1q-13 -4 -19 8zM374 631q-21 -58 -61 -115q-50 -71 -101.5 -108.5t-126.5 -65.5q145 -34 224 -148q52 -75 70 -108v3q19 86 65 137q63 70 191 137l29 15l-9 2q-14 4 -17 5q-37 13 -58.5 22t-53 27t-52.5 37q-68 66 -97 149q-1 3 -3 11z" />
    <glyph glyph-name="uni2729" unicode="&#x2729;" horiz-adv-x="830" 
d="M484 458h1q4 -1 10 -1q10 -1 31 -2q32 -2 93 -3q45 -1 72 -1l-56 13q-95 23 -110 29q-5 3 -11 11q-4 5 -6 11q-1 2 -3 5q-1 4 -2 5q-9 19 -49 85l-31 50q-15 22 -19 26l-2 2l3 -9l17 -41l30 -71q1 -4 6 -22l11 -38l11 -35l3 -12zM227 267q-1 0 -3 2.5t-7 6.5l-26 21
l-75 58l-63 47l45 -52l49 -57l16 -20l5 -6l2 -2q0 -2 1 -2q4 -13 1 -38q0 -1 -2 -19q-2 -10 -2 -16q0 -9 -9 -80q-7 -55 -4 -73q0 -1 0.5 -3t0.5 -3q1 4 3 11l11 42q2 13 6.5 31t7 30t3.5 16q19 71 30 90q1 2 4 6l4 4q3 3 2 6zM604 8l-1 1q-5 6 -21 16q-12 7 -28 16l-11 5
q-5 3 -6 4q-94 60 -117 77q-2 1 -4 3.5t-5 5.5l-5 5q-3 4 -6 5.5t-4 1.5t-4 -1q-3 -2 -8 -5l-27 -17l-75 -53l-64 -47l69 31q41 18 68 27q15 5 25 7q12 3 17 2q9 -3 112 -46l64 -27q16 -7 22 -9q4 -1 7 -2h1h1zM741 425l-30 -25q-42 -36 -48 -43q-57 -56 -100 -77
q-2 -2 -7 -3h-1h-1h-3q-2 -1 -3 -5v-4q1 -4 2 -10q3 -12 9 -31q10 -37 27 -89l23 -69q-4 33 -7 72q-4 43 -5 73q0 16 1 26q0 6 1 9q0 4 2 7q21 34 73 92t64 73q1 1 3 4zM43 443q15 1 38 3q54 4 64 5q82 11 126 3q3 -1 7 -3t5 -2q3 -1 5 2q1 0 3 3q1 3 4 9q5 11 12 30l31 88
l23 70l-38 -62q-24 -38 -41 -62q-10 -14 -16 -21q-3 -4 -6 -7t-5 -4q-30 -10 -65.5 -19t-78 -17.5t-65.5 -14.5q-2 0 -3 -1zM158 -10q15 16 118 90l76 53q16 11 27 17q5 4 9 6t6 2q5 1 11 -3q4 -2 9 -7q2 -2 4.5 -5t4.5 -5l3 -3q22 -17 117 -77l5 -3l11 -6q17 -9 28 -16
q17 -10 23 -17q5 -6 4 -10q-1 -6 -9 -8q-2 0 -6 1q-3 0 -7 2l-23 9l-64 27q-103 43 -110 45q-3 1 -12.5 -1t-24.5 -8q-26 -9 -67 -26q-78 -33 -109 -50q-1 -1 -2 -1q-11 -9 -14 -12q-4 -4 -7.5 -0.5t-0.5 6.5zM626 -3q-3 3 -8 17q-5 12 -12 31l-30 90q-17 52 -27 89
q-6 20 -8 32q-2 6 -3 11v7q2 10 11 12q1 1 3 1h1h2q2 1 4 1q39 20 96 77q7 7 50 42l29 25l10 8l1 1h-31q-41 0 -95 1t-93 3q-21 1 -32 2q-6 0 -10 1q-5 1 -6 2q-2 0 -2 1l-1 1v2q-1 1 -1 3q-2 4 -4 12l-10 35l-11 38q-5 18 -7 21q0 1 -30 72l-16 41q-4 9 -5 14l-2 4v2
q0 3 1 4q3 4 8 3q2 -1 5 -3q2 -1 4 -3l2 -2l1 -1q6 -5 21 -29l32 -50q40 -66 50 -86q0 -2 2 -5q1 -3 1 -5l6 -10q5 -5 7 -6q15 -7 108 -29q40 -10 69 -16q31 -7 37 -7h1q17 0 21 1q5 1 6 -4t-4 -6q-3 0 -11 -1q1 -3 0 -8q-1 -3 -3 -8q-3 -5 -7 -10q-13 -17 -64 -74t-73 -91
l-1 -3v-7q-1 -10 -1 -26q1 -29 5 -73q7 -97 14 -119v-1l1 -3q5 -13 7 -15q3 -4 -1 -7t-7 1zM390 718q0 -4 -4 -18q-3 -12 -9 -32l-29 -90q-18 -52 -32 -88q-7 -19 -12 -31l-5 -10l-3 -6q-8 -7 -17 -3q-1 0 -6 2q-2 2 -4 2q-42 8 -122 -3q-11 -1 -66 -5q-24 -2 -39 -3h-12h-3
l19 -13l76 -57l76 -59l25 -21q5 -4 8 -7t4 -5q5 -8 -2 -17l-5 -5q-2 -2 -3 -2q-9 -19 -28 -88q-1 -5 -4 -16.5t-7 -30t-7 -30.5q-6 -28 -10 -42q-3 -9 -4 -14q-1 -3 -2 -5l-2 -2q-1 -2 -3 -2q-8 -1 -11 8q-1 2 -2 10q-3 20 4 77q9 73 9 78q0 7 2 18q2 17 2 19q3 21 -1 32
q0 1 -1 2l-5 6l-16 19l-49 58l-49 56l-17 19l-5 5v2q-2 1 -3 2l-3 3q-5 3 -9 5l-3 2q-5 2 -3.5 6.5t5.5 3.5l6 -3q4 -2 10 -6l1 -1q0 5 5 8q2 2 6.5 4t12.5 4q24 6 66 14.5t77 17t64 19.5l2 1q2 2 5 6q6 7 16 21q17 24 41 61l39 65q18 31 20 38q1 2 2 3l1 3q3 12 3 15
q0 5 5 5t5 -5z" />
    <glyph glyph-name="uni2731" unicode="&#x2731;" horiz-adv-x="795" 
d="M320 700h150v-216l187 109l76 -130l-187 -109l191 -107l-74 -132l-193 109v-222h-150v221l-191 -111l-76 130l189 110l-188 105l74 132l192 -108v219z" />
    <glyph glyph-name="uni2745" unicode="&#x2745;" horiz-adv-x="787" 
d="M157 361l26 -15q37 -21 53 -32q9 -6 16 -12l93 52l-86 47q-2 0 -3 -1q-25 -7 -99 -39zM275 136l37 36q34 34 49 47v81l-83 -48v-19q0 -15 -2 -62q-1 -23 -1 -35zM512 158l-1 9q-5 45 -6 55q-2 28 1 42l-89 50v-67q1 -1 2 -1q22 -6 28 -32l2 -7q9 -10 32 -26
q25 -18 31 -23zM627 352l-25 9l-18 6l-20 7q-8 3 -15 5q-13 5 -20 9l-2 1l-66 -36l83 -46l3 2q20 13 54 30zM503 562l-20 -16l-42 -30q-13 -10 -22 -15q0 -51 -1 -107l84 45v13q0 3 1 64v46zM269 548q1 -7 1 -14v-62q0 -6 -3 -12l95 -51q1 45 1 87q-18 6 -42 19
q-14 8 -35 22zM113 403l38 17l42 17q-6 4 -27 17l-29 16l-24 14q-16 8 -29 12t-27 6q-11 2 -18 11.5t-5 21t11.5 18.5t21.5 5q25 -5 54.5 -18t45 -21.5t47.5 -28.5v42q0 8 -3 26q-2 20 -1 30q3 14 13 23q12 8 27 7q15 -2 40 -17q6 -3 27 -18l31 -19q9 -5 16 -8l4 145
q0 11 8.5 19t20 8t19.5 -8.5t8 -20.5q-2 -62 -3 -129l28 21q27 21 40 29l16 11q6 2 10 4q11 3 21 -1q7 -3 11.5 -8t5.5 -8l1 -4q2 -5 3 -11q1 -9 1 -24q1 -21 1 -64q0 -7 -0.5 -22.5t-0.5 -23.5l128 68q10 6 21.5 3t17 -13t2.5 -21.5t-13 -16.5l-122 -65l29 -10
q35 -13 53 -21q14 -7 21 -13q19 -14 17 -33q-1 -10 -9 -18q-2 -2 -5 -3l-7 -5q-5 -3 -17 -9l-48 -23q-16 -9 -27 -14l96 -57q10 -6 13 -17t-3 -21t-17 -13t-21 3l-107 62q0 -2 1 -5q0 -9 6 -53q4 -35 4 -52q0 -15 -3 -24q-8 -25 -31 -26t-40 21q-3 3 -4.5 6t-2.5 4l-2 1
l-1 2q-8 7 -39 29q-20 15 -31 25v-138q0 -12 -8 -20t-20 -8t-20 8t-8 20v120l-10 -10q-35 -35 -51 -48q-13 -12 -22 -18q-19 -12 -36 -7q-14 5 -19 20q-2 5 -3 11q-1 9 -1 23q0 19 1 60q2 38 2 47q-76 -43 -133 -67q-11 -4 -21.5 0t-15 15t-0.5 21.5t15 15.5q56 23 132 66
q-16 10 -44 26l-50 30q-12 7 -18 10q-4 3 -6 5q-3 2 -4 4q-7 6 -8 14q-5 22 13 34q7 5 18 7q1 0 11 2h1h1z" />
    <glyph glyph-name="uni2746" unicode="&#x2746;" horiz-adv-x="783" 
d="M92 366q20 -10 54 -23.5t49 -25.5q19 -15 30 -36l122 67l-5 2q-17 11 -63 38l-71 41l-14 -8q-21 -11 -69 -25q-24 -6 -45.5 6t-28 36t5.5 45.5t36 28.5h2l-27 27q-8 9 -7 20.5t9.5 19.5t20 7t19.5 -9q8 -9 17 -18q2 22 6 47t24.5 39t44.5 10q5 -1 9 -2q1 14 8 27
q13 22 37 28t45 -6q28 -16 56 -35v30q0 12 8 20t20 8t20 -8t8 -20v-5l23 18q20 14 44.5 10t39 -24t10.5 -44.5t-24 -39.5q-28 -21 -62 -50q-15 -13 -22 -18q-5 -4 -10 -7q-1 -56 -2 -153l131 76q-5 9 -9 19q-4 11 -6 23t-1 28.5t1.5 24t3.5 28t4 22.5q3 25 22.5 40
t44.5 11.5t40 -23t11 -44.5q-8 -62 -7 -67l1 -1l13 7q10 6 21.5 3t16.5 -13q7 -12 2 -25q17 -12 23 -33t-3 -41q-10 -22 -33.5 -31t-46.5 1q-38 17 -57 30l-126 -73l113 -72q16 16 52 42q20 15 44.5 11t39 -24t10.5 -44.5t-24 -38.5q-12 -10 -22 -17l23 -18q9 -7 10.5 -18.5
t-5.5 -20.5t-18.5 -10.5t-20.5 5.5l-2 1q3 -21 4 -39q2 -24 -14.5 -43t-41 -21t-43.5 14.5t-21 41.5q-1 18 -6 58q-5 35 -1 57q2 9 5 17l-129 83q-2 -87 -2 -145q24 -3 60 -13q24 -7 36 -29t5 -46t-29 -36t-46 -5q-16 5 -27 7v-14q0 -12 -8 -20t-20 -8q-10 0 -17.5 6
t-9.5 15l-39 -30q-20 -15 -45 -11.5t-39.5 23.5t-11 45t23.5 39q7 6 46 36q26 21 46 30q9 4 19 7q0 53 1 126l-110 -61q2 -15 5 -41q2 -24 -14 -43.5t-41 -21.5q-23 -2 -41.5 12t-22.5 36l-35 -16q-11 -5 -21.5 -1t-15.5 14.5t-1 21t14 15.5l47 23l-15 6q-39 16 -63 29
q-22 11 -30 34.5t3.5 45.5t35 30t45.5 -4zM251 586q-5 -27 -5 -55q0 -38 -4 -51q0 -3 -1 -5l113 -67q1 73 2 122q-18 4 -45 23q-35 24 -59 39q0 -3 -1 -6z" />
    <glyph glyph-name="uni274D" unicode="&#x274d;" horiz-adv-x="849" 
d="M529 671q-92 35 -182.5 12.5t-166.5 -90.5q-81 -73 -115 -171t0 -191q32 -89 111 -130q70 -36 144.5 -50.5t151.5 -0.5t135 61q51 43 71 119q20 74 7 162q-12 86 -52 156t-96 102q-13 8 -8 21zM719 247q9 44 7 93q1 -49 -7 -93zM569 721q95 -49 153 -151q59 -101 67 -216
q6 -79 -13 -147q-19 -69 -70 -127t-128 -86l-18 -6q-10 -3 -20 -4.5t-18 -3t-20 -2.5l-17 -2h-19h-16h-18h-17q-13 0 -22.5 9t-9.5 23q-114 5 -223 61q-92 47 -129 150q-38 105 -0.5 213.5t125.5 187.5q51 46 112 74q60 28 127.5 34t131.5 -17q7 10 19 13t23 -3z" />
    <glyph glyph-name="uni274F" unicode="&#x274f;" horiz-adv-x="859" 
d="M711 670q-11 0 -24 -1h-39q-22 0 -36.5 -0.5t-18.5 -0.5q-88 0 -260.5 1t-257.5 1q-1 -15 0 -35q1 -13 4 -42t3 -42q2 -75 -1 -211.5t-3 -178.5q0 -20 1 -58.5t1 -58.5q0 -6 -4 -25q16 6 24 7q20 1 50 1q5 0 15 -0.5t18 -0.5h15q18 0 37.5 1.5t43 3.5t37.5 3q59 4 149 2
q16 0 46 -0.5t54.5 -1t46.5 -0.5q17 0 50 1.5t50 1.5q7 0 20 -3q0 15 -1 36q-5 45 -5 101q-3 51 -5.5 147t-4.5 140q-1 15 -3 50t-3 55.5t-1 50.5t2 56zM58 -17q-4 2 -8 5q-14 12 -10 36q1 5 2 9t1.5 6.5t0.5 4.5q0 20 -1 58.5t-1 58.5q0 42 3 178t1 210q0 14 -3 42.5
t-4 41.5q-3 55 9 89q3 7 9.5 10t13.5 0.5t10 -9t1 -13.5q-1 -2 -1 -4q83 0 253.5 -1t258.5 -1q4 0 18.5 0.5t36.5 0.5h38q33 1 53 0q4 1 9 1q2 0 5 -1q6 0 9 -1h7q3 -1 5 -2q6 -2 9 -7q3 -4 3 -9q1 -3 1 -6v-14q0 -15 -1 -43q-2 -36 -6 -96q3 -55 4 -65q2 -45 4.5 -142.5
t5.5 -148.5q4 -76 5 -91q1 -36 1 -58v-22l-2 -10q-1 -11 -10 -20q-7 -7 -18 -10q-4 -1 -10 -2q-8 -1 -20 -2q-19 -1 -52 0h-34q-19 0 -31.5 0.5t-16.5 0.5q-31 0 -147.5 -2.5t-179.5 -2.5q-14 0 -44.5 2t-37.5 2q-45 2 -69 -4q-2 0 -7 -3l-16 -10q-13 -7 -26.5 -2.5
t-19.5 16.5q-8 15 -1 30z" />
    <glyph glyph-name="uni2750" unicode="&#x2750;" horiz-adv-x="884" 
d="M703 669h-3q-8 1 -21 2q-25 1 -70 3q-77 2 -209 3q-141 1 -330 1q-2 -29 1.5 -87t3.5 -72q2 -100 2 -345q0 -48 3 -90q3 -31 6 -48q1 -3 2 -5q3 2 7 3q12 2 81 2t208 0.5t208 0.5q11 0 30 -2q2 0 13.5 -1t17.5 -2q35 -3 50 1q1 3 2 9q3 14 2 39q0 18 -2 46q-3 28 -3 33
q-1 69 2 196t4 158q-1 34 -1 65q0 5 0.5 22t0.5 28q0 19 -3 31q-1 5 -2 9zM103 785q76 -4 150 -5q76 0 189.5 2.5t150.5 2.5h80h50h17q5 -1 8 -1t6 -1q3 0 6 -1q9 -3 17 -10q21 -18 26 -58q3 -21 4 -53q0 -20 -1 -49.5t-1 -32.5q0 -91 9.5 -259t10.5 -239q0 -20 -14 -35
t-34 -15t-35 13q0 -5 -1 -9q-6 -30 -26 -36q-21 -6 -65 -3q-6 1 -17.5 2t-14.5 1q-17 2 -26 2q-69 0 -208 -0.5t-208 -0.5q-64 0 -73 -1l-3 -2q-11 -9 -22 -7q-13 3 -20 17q-4 8 -7 21q-4 20 -7 54q-3 42 -3 92q0 245 -2 345q0 16 -2.5 54.5t-3 60t1.5 60.5v2q0 3 1 6
q2 16 6 29q2 9 10 12q2 19 17 31t34 11z" />
    <glyph glyph-name="uni2751" unicode="&#x2751;" horiz-adv-x="868" 
d="M79 662v-14q1 -20 2 -54q1 -17 2 -38t1.5 -34.5t0.5 -16.5q2 -106 2 -159.5t-2 -159.5t-2 -159q9 6 20 8q70 9 146.5 11t183 -0.5t140.5 -2.5q4 0 41 -2q30 -1 51 0q27 0 42 4h1q1 4 1 9q2 24 3 67q1 71 -3 201q-1 50 -3 136l-4 138q-2 50 -1 71q-72 0 -228 -3t-238 -3
q-3 0 -36 1t-56 2q-34 0 -53 -1q-6 0 -11 -1zM47 5q0 35 3 249.5t-1 248.5q0 4 -0.5 17.5t-1.5 34t-2 38.5q-2 36 -2 55v19q0 4 1 7q0 6 2 10q4 6 12 10q4 1 9 2q8 2 21 3q21 1 56 1q23 -1 55.5 -2t35.5 -1q83 0 243 3t238 3q15 15 36 14q20 -1 34 -16t13 -35t1 -68l4 -135
q2 -86 3 -139q4 -131 3 -204q-1 -47 -3 -74q-2 -17 -4 -28q-4 -19 -11 -31q-19 -27 -63 -37q-25 -6 -62 -7q-24 -1 -57 1q-35 1 -37 1q-41 0 -144.5 2.5t-174.5 1t-137 -11.5q-20 -2 -36.5 10t-19.5 32v8q-14 4 -14 18z" />
    </font>
</defs>
</svg>
