<?xml version="1.0" standalone="no"?>
<!DOCTYPE svg PUBLIC "-//W3C//DTD SVG 1.1//EN" "http://www.w3.org/Graphics/SVG/1.1/DTD/svg11.dtd" >
<svg xmlns="http://www.w3.org/2000/svg">
<metadata></metadata>
<defs>
<font id="robotomedium" horiz-adv-x="1164" >
<font-face units-per-em="2048" ascent="1536" descent="-512" />
<missing-glyph horiz-adv-x="510" />
<glyph unicode="&#xfb01;" horiz-adv-x="1192" d="M24 902v180h165v68q0 99 30 174.5t86 127.5t137.5 78.5t183.5 26.5q80 0 153.5 -17t152.5 -43l-37 -201q-49 17 -111.5 32.5t-140.5 15.5q-111 0 -161 -48.5t-50 -145.5v-68h213v-180h-213v-902h-243v902h-165zM804 0v1082h243v-1082h-243z" />
<glyph horiz-adv-x="0" />
<glyph unicode="&#xd;" horiz-adv-x="510" />
<glyph horiz-adv-x="0" />
<glyph unicode="&#x9;" horiz-adv-x="0" />
<glyph unicode=" "  horiz-adv-x="510" />
<glyph unicode="&#x09;" horiz-adv-x="510" />
<glyph unicode="&#xa0;" horiz-adv-x="510" />
<glyph unicode="!" horiz-adv-x="549" d="M143 115q0 28 9.5 52t27 42t43 28t58.5 10t58.5 -10t43 -28t27 -42t9.5 -52q0 -55 -36 -92t-102 -37t-102 37t-36 92zM150 1456h256l-24 -1027h-209z" />
<glyph unicode="&#x22;" horiz-adv-x="664" d="M101 1012v524h174v-137l-35 -387h-139zM402 1012v524h174v-137l-35 -387h-139z" />
<glyph unicode="#" horiz-adv-x="1250" d="M60 410v158h261l58 313h-243v159h273l78 416h167l-78 -416h224l78 416h168l-78 -416h208v-159h-238l-58 -313h221v-158h-251l-76 -410h-167l76 410h-225l-76 -410h-167l76 410h-231zM488 568h225l58 313h-225z" />
<glyph unicode="$" d="M100 443h243q0 -77 21.5 -128t56 -81t78 -42.5t87.5 -12.5q114 0 173.5 55t59.5 146q0 42 -13 77t-41.5 64t-74.5 54t-112 48q-96 33 -174 72.5t-133 92.5t-85 122.5t-30 162.5q0 84 26.5 153.5t75.5 121t118 83.5t155 42v218h160v-220q85 -12 152.5 -48.5t114.5 -96 t72 -140t25 -181.5h-242q0 63 -14.5 113t-41.5 85t-66 54t-88 19q-53 0 -91 -15t-63.5 -41.5t-37.5 -63.5t-12 -81q0 -42 12 -76t40.5 -62.5t76 -54t117.5 -50.5q97 -35 174 -74.5t131 -92t83 -121.5t29 -162q0 -88 -28 -157.5t-79 -120t-123.5 -81t-161.5 -39.5v-195h-159 v194q-80 9 -154 38t-131 83.5t-91.5 138t-34.5 200.5z" />
<glyph unicode="%" horiz-adv-x="1504" d="M99 1099v77q0 62 20.5 116.5t60 95.5t97 65t130.5 24q75 0 132.5 -24t96.5 -65t59.5 -95.5t20.5 -116.5v-77q0 -61 -20.5 -115.5t-59.5 -95t-96 -64.5t-131 -24t-131.5 24t-97.5 64.5t-60.5 95t-20.5 115.5zM269 1099q0 -30 8.5 -58t26 -49t43.5 -34t62 -13q35 0 61 13 t43 34t25.5 49t8.5 58v77q0 30 -8.5 58t-26 49.5t-43.5 34.5t-62 13q-35 0 -61 -13t-43 -34.5t-25.5 -49.5t-8.5 -58v-77zM334 181l711 1138l125 -72l-711 -1138zM799 279v78q0 61 20.5 116t60.5 95.5t97 64.5t131 24t131.5 -24t97 -64.5t60 -95.5t20.5 -116v-78 q0 -62 -20.5 -116t-59.5 -95t-96.5 -64.5t-130.5 -23.5q-74 0 -132 23.5t-98 64.5t-60.5 95t-20.5 116zM969 279q0 -30 9 -58t27 -49.5t44 -34.5t61 -13q37 0 63 13t42.5 34.5t24 49.5t7.5 58v78q0 30 -8.5 58t-26 49t-43.5 34t-61 13t-61.5 -13t-43.5 -34t-25.5 -49 t-8.5 -58v-78z" />
<glyph unicode="&#x26;" horiz-adv-x="1309" d="M86 393q0 64 20 116.5t56 98t86 87t110 84.5q-35 44 -63 85t-47.5 80.5t-30.5 79.5t-11 82q0 87 27.5 155.5t77.5 116t121 73t158 25.5q83 0 150 -26t114 -70.5t72.5 -103.5t25.5 -125q0 -52 -14 -96.5t-40 -83.5t-62.5 -73.5t-80.5 -66.5l-99 -72l281 -332q29 57 45 124 t16 143h211q0 -129 -30 -240t-96 -201l214 -253h-282l-82 97q-80 -60 -175 -88.5t-197 -28.5q-110 0 -198 30.5t-149.5 85.5t-94.5 131t-33 166zM329 401q0 -48 15.5 -89t46 -72t75 -48.5t102.5 -17.5q61 0 119.5 21t110.5 61l-318 375l-31 -22q-41 -31 -64.5 -61t-36 -56.5 t-16 -49.5t-3.5 -41zM434 1112q0 -50 28 -101.5t75 -109.5l88 60q31 21 53 40.5t36 40.5t20.5 45.5t6.5 55.5q0 25 -10 50t-29.5 44.5t-48 31.5t-64.5 12q-38 0 -67 -13.5t-48.5 -37t-29.5 -54t-10 -64.5z" />
<glyph unicode="'" horiz-adv-x="346" d="M82 1020v516h185v-125l-26 -391h-159z" />
<glyph unicode="(" horiz-adv-x="714" d="M128 576v16q0 144 22.5 270.5t61 233.5t88.5 194.5t105.5 154.5t112.5 114t108 72l48 -142q-57 -43 -114.5 -118t-104.5 -185t-76.5 -257t-29.5 -335v-20q0 -188 29.5 -335t76.5 -258t104.5 -187t114.5 -122l-48 -135q-51 25 -108 72t-112.5 114.5t-105.5 154.5 t-88.5 194t-61 233t-22.5 271z" />
<glyph unicode=")" horiz-adv-x="722" d="M40 -328q56 43 114 119t105 187.5t76.5 259.5t29.5 336v20q0 188 -31 336.5t-79 259.5t-105.5 187t-109.5 118l48 136q52 -25 109.5 -72.5t113.5 -115.5t107.5 -156.5t90 -195.5t61.5 -232t23 -267v-16q0 -142 -23 -267.5t-61.5 -232.5t-90 -195t-107.5 -156 t-113.5 -115.5t-109.5 -72.5z" />
<glyph unicode="*" horiz-adv-x="905" d="M27 1060l55 169l302 -117l-15 344h179l-15 -350l297 115l54 -172l-310 -88l200 -266l-145 -106l-180 288l-178 -279l-146 102l207 272z" />
<glyph unicode="+" horiz-adv-x="1141" d="M68 579v222h382v405h236v-405h380v-222h-380v-433h-236v433h-382z" />
<glyph unicode="," horiz-adv-x="450" d="M28 -250q21 33 40 67.5t32.5 71t21.5 77.5t8 88v181h219l-1 -173q0 -50 -13 -104t-38 -105.5t-60 -98t-78 -82.5z" />
<glyph unicode="-" horiz-adv-x="672" d="M71 521v196h525v-196h-525z" />
<glyph unicode="." horiz-adv-x="572" d="M135 121q0 58 37 96.5t104 38.5q68 0 105 -38.5t37 -96.5q0 -57 -37 -94.5t-105 -37.5q-33 0 -59.5 10t-44.5 28t-27.5 42t-9.5 52z" />
<glyph unicode="/" horiz-adv-x="810" d="M2 -125l573 1581h191l-573 -1581h-191z" />
<glyph unicode="0" d="M105 613v235q0 173 34 293t96.5 194.5t150.5 107.5t195 33q108 0 196 -33t150.5 -107.5t96.5 -194.5t34 -293v-235q0 -173 -34 -293.5t-96 -196t-149.5 -109.5t-195.5 -34q-107 0 -195 34t-151 109.5t-97.5 196t-34.5 293.5zM347 578q0 -110 16 -187t46 -125t74 -70 t100 -22q57 0 100 22t72.5 70t44.5 125t15 187v307q0 111 -15.5 186.5t-45.5 122t-73.5 67t-99.5 20.5t-99.5 -20.5t-73.5 -67t-45.5 -122t-15.5 -186.5v-307z" />
<glyph unicode="1" d="M168 1047v205l568 209h31v-1461h-242v1169z" />
<glyph unicode="2" d="M81 1012q0 96 32.5 180.5t95.5 147.5t155 99.5t210 36.5q109 0 194 -28.5t143.5 -80.5t89 -126.5t30.5 -165.5q0 -68 -22 -134.5t-61 -132.5t-93 -132.5t-118 -133.5l-325 -348h676v-194h-979v167l474 517q60 66 99.5 117.5t63 94t33 79.5t9.5 74q0 50 -14.5 92.5 t-42 73.5t-67.5 48.5t-92 17.5q-63 0 -109.5 -20t-77 -55.5t-46 -85t-15.5 -108.5h-243z" />
<glyph unicode="3" d="M79 390h243q0 -48 17 -88t48 -68.5t75 -44t98 -15.5q113 0 178 60t65 174q0 62 -19 107t-54 74.5t-84.5 43.5t-111.5 14h-144v192h144q63 0 109 16.5t77 45.5t46 70t15 91q0 104 -54.5 161.5t-166.5 57.5q-48 0 -89 -14.5t-71 -41t-47 -64t-17 -84.5h-243q0 86 34.5 159 t96 126.5t147 83.5t186.5 30q104 0 190 -26.5t147.5 -78.5t95.5 -129.5t34 -179.5q0 -44 -14 -89t-42 -86.5t-70 -78t-98 -61.5q67 -23 113.5 -58.5t75.5 -80t42.5 -95.5t13.5 -105q0 -102 -37 -182t-102.5 -134.5t-155 -83t-193.5 -28.5q-95 0 -181.5 26t-152.5 77.5 t-105 128.5t-39 178z" />
<glyph unicode="4" d="M52 472l628 984h251v-937h181v-195h-181v-324h-243v324h-629zM307 519h381v608l-18 -32z" />
<glyph unicode="5" d="M129 393h235q14 -106 76 -162.5t162 -56.5q59 0 103.5 22t74 61.5t44.5 94t15 120.5q0 62 -16.5 115t-49 91.5t-81 60t-112.5 21.5q-42 0 -73.5 -6.5t-55.5 -18.5t-44 -27.5t-39 -33.5l-194 48l79 734h782v-210h-580l-40 -348q35 20 93.5 39t134.5 19q103 0 185 -34 t138 -98t86 -154.5t30 -204.5q0 -101 -29.5 -189.5t-89 -154t-149.5 -103.5t-211 -38q-91 0 -174 26.5t-147.5 78.5t-105.5 129.5t-47 178.5z" />
<glyph unicode="6" horiz-adv-x="1163" d="M116 551v95q0 108 16.5 210.5t52.5 193t93 166.5t137 131t184.5 85.5t236.5 30.5h28v-201h-17q-119 0 -205.5 -33t-145 -90t-90.5 -133.5t-42 -162.5q56 59 132 90t167 31q106 0 184.5 -40.5t129.5 -108.5t76 -156t25 -182q0 -105 -31.5 -195.5t-92 -157.5t-148.5 -105.5 t-200 -38.5q-119 0 -210 46.5t-153.5 125.5t-94.5 182t-32 217zM360 529q0 -87 19.5 -153.5t52.5 -110.5t77 -66.5t94 -22.5q55 0 98.5 21.5t74 60.5t46.5 93t16 119q0 61 -15 115t-44.5 94.5t-73.5 64.5t-102 24q-42 0 -80.5 -13t-70 -35t-55 -52t-37.5 -64v-75z" />
<glyph unicode="7" d="M69 1261v195h1009v-135l-582 -1321h-255l581 1261h-753z" />
<glyph unicode="8" d="M104 397q0 60 16.5 113.5t47 98.5t74.5 81t98 60q-94 48 -148.5 131.5t-54.5 190.5q0 97 33 172.5t92 127t140.5 78t178.5 26.5t179 -26.5t141 -78t92 -127t33 -172.5q0 -107 -55 -190.5t-150 -131.5q54 -25 98 -60.5t75 -80.5t47.5 -98.5t16.5 -113.5q0 -102 -36 -179.5 t-100 -130.5t-151 -80t-189 -27t-189 27t-151.5 80t-101 130.5t-36.5 179.5zM347 409q0 -55 16.5 -98.5t47 -74t74 -46.5t97.5 -16q110 0 171.5 62t61.5 173q0 54 -17 98.5t-47.5 76t-74 49t-96.5 17.5q-54 0 -97 -17.5t-73 -49t-46.5 -76t-16.5 -98.5zM380 1063 q0 -49 14 -89.5t40 -69t63.5 -44t84.5 -15.5t84.5 15.5t63.5 44t40 69t14 89.5q0 48 -14.5 88t-40.5 69t-64 45t-84 16q-93 0 -147 -58.5t-54 -159.5z" />
<glyph unicode="9" d="M93 968q0 105 31.5 197.5t91.5 161.5t147.5 109t200.5 40q120 0 209.5 -47.5t149 -128.5t89.5 -188.5t30 -227.5v-79q0 -105 -14 -206t-47 -191t-87 -166t-133.5 -131t-187.5 -86t-249 -31h-20v201h19q130 0 218.5 31.5t143.5 87t81 131.5t32 164q-55 -58 -127.5 -93.5 t-157.5 -35.5q-107 0 -185.5 40t-131 107.5t-78 156t-25.5 184.5zM333 975q0 -60 14 -115t42.5 -97t72 -67.5t102.5 -25.5q39 0 75 12t66.5 33t54.5 50t40 63v95q0 87 -19 154t-51.5 112t-75.5 68t-91 23q-55 0 -98 -24t-72 -65.5t-44.5 -97t-15.5 -118.5z" />
<glyph unicode=":" horiz-adv-x="543" d="M130 121q0 58 37 96.5t104 38.5q68 0 105 -38.5t37 -96.5q0 -57 -37 -94.5t-105 -37.5q-33 0 -59.5 10t-44.5 28t-27.5 42t-9.5 52zM130 970q0 58 37 96.5t104 38.5q68 0 105 -38.5t37 -96.5q0 -57 -37 -94.5t-105 -37.5q-33 0 -59.5 10t-44.5 28t-27.5 42t-9.5 52z" />
<glyph unicode=";" horiz-adv-x="487" d="M46 -250q21 33 40 67.5t32.5 71t21.5 77.5t8 88v181h219l-1 -173q0 -50 -13 -104t-38 -105.5t-60 -98t-78 -82.5zM109 970q0 58 37 96.5t104 38.5q68 0 105 -38.5t37 -96.5q0 -57 -37 -94.5t-105 -37.5q-33 0 -59.5 10t-44.5 28t-27.5 42t-9.5 52z" />
<glyph unicode="&#x3c;" horiz-adv-x="1041" d="M63 537v193l837 372v-243l-590 -228l590 -224v-243z" />
<glyph unicode="=" horiz-adv-x="1146" d="M145 356v201h862v-201h-862zM145 780v202h862v-202h-862z" />
<glyph unicode="&#x3e;" horiz-adv-x="1066" d="M128 165v239l618 232l-618 227v239l864 -372v-193z" />
<glyph unicode="?" horiz-adv-x="996" d="M60 1093q1 94 34.5 165.5t92 120t137 73t170.5 24.5q101 0 180 -26t134 -76t83.5 -122t28.5 -163q0 -66 -21 -123t-56 -107t-80 -96t-93 -91q-55 -50 -73.5 -109.5t-19.5 -134.5h-227q0 71 8.5 123.5t28 96t50.5 82.5t76 83q34 33 63.5 62.5t52 60.5t35.5 66t13 78 q0 94 -46.5 143.5t-136.5 49.5q-36 0 -70 -10t-61 -32t-43.5 -56t-16.5 -82h-243zM333 117q0 28 9 52t26.5 42t43 28t58.5 10t58.5 -10t43 -28t27 -42t9.5 -52q0 -55 -36 -92t-102 -37t-101.5 37t-35.5 92z" />
<glyph unicode="@" horiz-adv-x="1832" d="M99 471q6 136 37 260t84.5 230t128.5 191.5t169 146t206 93t240 32.5q193 0 341.5 -64.5t247.5 -183t146.5 -285.5t38.5 -373q-3 -65 -14.5 -130t-33.5 -125t-55.5 -112t-80 -90t-106 -60t-134.5 -22q-91 0 -152 40.5t-90 113.5q-51 -76 -118.5 -114t-141.5 -38 t-130 31.5t-92 89t-51 139t-6 181.5q13 130 54 235.5t101 179t135.5 113.5t157.5 40q56 0 99 -8.5t78 -23.5t64.5 -34.5t58.5 -41.5l-52 -563q-6 -62 2.5 -100.5t26 -60t40 -29.5t45.5 -8q54 0 97 30.5t73.5 83.5t48 124.5t20.5 154.5q8 176 -25.5 317t-110 239.5 t-197.5 151.5t-289 53q-155 0 -278.5 -59.5t-211.5 -166.5t-138.5 -254.5t-57.5 -323.5q-9 -185 29 -328.5t117.5 -242t199 -150t275.5 -51.5q44 0 89.5 5.5t88.5 15t82 23t71 30.5l38 -137q-35 -23 -80 -39.5t-94.5 -27.5t-101 -16.5t-97.5 -5.5q-194 0 -345.5 62.5 t-253.5 181t-151.5 290t-41.5 390.5zM729 422q-13 -136 24 -206.5t118 -70.5q21 0 45 9t48 30t46.5 55t40.5 84l45 493q-21 8 -45.5 13.5t-51.5 5.5q-111 0 -181 -104.5t-89 -308.5z" />
<glyph unicode="A" horiz-adv-x="1363" d="M18 0l550 1456h227l551 -1456h-264l-119 339h-564l-118 -339h-263zM470 543h422l-211 604z" />
<glyph unicode="B" horiz-adv-x="1292" d="M148 0v1456h499q118 0 212 -23.5t159 -71.5t99.5 -122.5t34.5 -176.5q0 -100 -54 -180t-158 -124q63 -17 109.5 -49.5t77 -76.5t45.5 -97t15 -110q0 -105 -34.5 -184.5t-100 -133t-159 -80.5t-211.5 -27h-534zM401 202h281q62 0 109.5 16t79.5 45.5t48 70.5t16 91 q0 108 -57 170t-185 62h-292v-455zM401 843h248q118 0 184.5 53.5t66.5 151.5q0 108 -61.5 156t-191.5 48h-246v-409z" />
<glyph unicode="C" horiz-adv-x="1337" d="M102 668v118q0 157 42 284.5t120 217.5t188.5 139t247.5 49q130 0 230 -37.5t169.5 -104t109 -158.5t50.5 -201h-252q-8 69 -27.5 124t-55.5 93.5t-91 58.5t-133 20q-86 0 -150.5 -32.5t-107.5 -94t-64.5 -151.5t-21.5 -205v-120q0 -109 19 -198t59 -152.5t103 -98.5 t151 -35q82 0 138.5 19t93.5 56t57.5 91t29.5 124h252q-10 -107 -50 -197.5t-111 -156.5t-173.5 -103t-236.5 -37t-242.5 48.5t-185 138t-117.5 216.5t-41 285z" />
<glyph unicode="D" horiz-adv-x="1338" d="M148 0v1456h430q146 0 266.5 -49t207 -139.5t134.5 -218.5t48 -286v-72q0 -158 -47.5 -285.5t-135 -217.5t-211 -139t-274.5 -49h-418zM401 202h165q103 0 181 33.5t129.5 96.5t77.5 154t26 205v74q0 237 -103 362t-299 125h-177v-1050z" />
<glyph unicode="E" horiz-adv-x="1158" d="M148 0v1456h945v-204h-692v-402h598v-200h-598v-448h699v-202h-952z" />
<glyph unicode="F" horiz-adv-x="1125" d="M148 0v1456h925v-204h-672v-433h586v-202h-586v-617h-253z" />
<glyph unicode="G" horiz-adv-x="1394" d="M106 679v96q0 166 41 296.5t118 220.5t188 137t252 47q133 0 232 -34.5t167 -96.5t107 -147.5t52 -187.5h-248q-9 57 -30 105t-57.5 83t-90 55t-127.5 20q-89 0 -154.5 -33t-109 -96.5t-65 -156t-21.5 -210.5v-98q0 -120 26 -212.5t74.5 -155.5t118 -96t157.5 -33 q65 0 111.5 8.5t78.5 21.5t52.5 28.5t33.5 29.5v285h-300v192h552v-558q-23 -30 -64 -66.5t-105.5 -68t-155 -53t-212.5 -21.5q-137 0 -251.5 47t-196.5 136t-127.5 219t-45.5 297z" />
<glyph unicode="H" horiz-adv-x="1455" d="M148 0v1456h253v-606h651v606h252v-1456h-252v647h-651v-647h-253z" />
<glyph unicode="I" horiz-adv-x="578" d="M163 0v1456h252v-1456h-252z" />
<glyph unicode="J" horiz-adv-x="1137" d="M45 415h252q0 -63 16.5 -107.5t46 -72t70.5 -40.5t91 -13q49 0 90 16.5t70.5 48.5t46 79t16.5 109v1021h252v-1021q0 -108 -35.5 -193t-99 -143t-150.5 -88.5t-190 -30.5q-104 0 -191.5 26t-150.5 80t-98.5 136t-35.5 193z" />
<glyph unicode="K" horiz-adv-x="1291" d="M148 0v1456h253v-683l140 173l426 510h306l-541 -645l572 -811h-300l-438 629l-165 -175v-454h-253z" />
<glyph unicode="L" horiz-adv-x="1108" d="M148 0v1456h253v-1254h661v-202h-914z" />
<glyph unicode="M" horiz-adv-x="1793" d="M148 0v1456h328l420 -1116l419 1116h327v-1456h-252v480l25 642l-430 -1122h-181l-429 1121l25 -641v-480h-252z" />
<glyph unicode="N" horiz-adv-x="1454" d="M148 0v1456h253l651 -1037v1037h251v-1456h-253l-649 1033v-1033h-253z" />
<glyph unicode="O" horiz-adv-x="1414" d="M102 690v74q0 166 44.5 298t124 224t190.5 141t245 49q135 0 246.5 -49t191 -141t123 -224t43.5 -298v-74q0 -166 -43.5 -297.5t-122.5 -223t-190 -140.5t-246 -49q-134 0 -245 49t-191.5 140.5t-125 223t-44.5 297.5zM355 690q0 -122 24.5 -216t70.5 -157.5t111.5 -96 t146.5 -32.5q168 0 258.5 128t90.5 374v76q0 122 -23.5 215.5t-68.5 156.5t-110.5 95.5t-148.5 32.5q-81 0 -146 -32.5t-110.5 -95.5t-70 -156.5t-24.5 -215.5v-76z" />
<glyph unicode="P" horiz-adv-x="1309" d="M148 0v1456h557q127 0 225.5 -34.5t166.5 -96.5t103.5 -147t35.5 -185q0 -106 -35.5 -190t-103.5 -142t-166.5 -89t-225.5 -31h-304v-541h-253zM401 744h304q73 0 125.5 18t86.5 51t49.5 78.5t15.5 99.5q0 51 -15.5 98t-49.5 83.5t-86.5 58t-125.5 21.5h-304v-508z" />
<glyph unicode="Q" horiz-adv-x="1414" d="M96 690v74q0 166 44.5 298t124 224t190.5 141t244 49q136 0 248 -49t191.5 -141t123 -224t43.5 -298v-74q0 -207 -65.5 -358.5t-183.5 -240.5l250 -195l-164 -148l-310 245q-61 -13 -131 -13q-133 0 -244 49t-191.5 140.5t-125 223t-44.5 297.5zM349 690q0 -122 25 -216 t70.5 -157.5t110.5 -96t146 -32.5q169 0 259.5 128t90.5 374v76q0 246 -92 373t-260 127q-81 0 -145.5 -32.5t-110 -95.5t-70 -156.5t-24.5 -215.5v-76z" />
<glyph unicode="R" horiz-adv-x="1278" d="M148 0v1456h512q125 0 223 -28.5t165.5 -84t102.5 -137.5t35 -190q0 -146 -70.5 -244.5t-196.5 -151.5l327 -607v-13h-271l-292 561h-282v-561h-253zM401 764h260q68 0 119 18t85 50t51 76t17 97q0 56 -16 101.5t-49 78t-84.5 50t-123.5 17.5h-259v-488z" />
<glyph unicode="S" horiz-adv-x="1236" d="M74 440h253q0 -69 24.5 -118.5t67 -81t100.5 -46t125 -14.5q132 0 198.5 53.5t66.5 141.5q0 44 -13 78.5t-47.5 63.5t-95 55.5t-155.5 55.5q-104 31 -192 71t-151.5 93t-99.5 122t-36 158q0 88 37.5 162t105.5 128t163 84t210 30q123 0 221 -35.5t165.5 -96.5 t103.5 -141.5t36 -171.5h-252q0 53 -16.5 97.5t-50.5 77t-86 50.5t-123 18q-67 0 -116 -15t-81.5 -42t-48 -64t-15.5 -80q0 -81 76.5 -135t233.5 -100q123 -36 213 -80t149.5 -99.5t88.5 -125t29 -156.5q0 -92 -36.5 -165.5t-104 -125t-163.5 -79t-214 -27.5 q-105 0 -207 28.5t-183 86t-130.5 143.5t-49.5 202z" />
<glyph unicode="T" horiz-adv-x="1243" d="M45 1252v204h1155v-204h-454v-1252h-251v1252h-450z" />
<glyph unicode="U" horiz-adv-x="1335" d="M125 482v974h252v-974q0 -78 20.5 -134.5t58.5 -93.5t92 -54.5t121 -17.5t121.5 17.5t92 54.5t58 93.5t20.5 134.5v974h252v-974q0 -125 -42.5 -219t-116.5 -157t-173 -94.5t-212 -31.5q-117 0 -216.5 31.5t-172.5 94.5t-114 157t-41 219z" />
<glyph unicode="V" horiz-adv-x="1325" d="M18 1456h277l366 -1139l370 1139h278l-524 -1456h-245z" />
<glyph unicode="W" horiz-adv-x="1802" d="M48 1456h251l226 -1094l278 1094h212l275 -1096l224 1096h251l-336 -1456h-242l-277 1063l-283 -1063h-243z" />
<glyph unicode="X" horiz-adv-x="1296" d="M41 0l451 734l-441 722h292l306 -526l306 526h292l-440 -722l450 -734h-295l-313 534l-314 -534h-294z" />
<glyph unicode="Y" horiz-adv-x="1248" d="M7 1456h281l335 -690l335 690h280l-488 -920v-536h-254v536z" />
<glyph unicode="Z" horiz-adv-x="1233" d="M80 0v164l753 1088h-748v204h1055v-160l-754 -1094h778v-202h-1084z" />
<glyph unicode="[" horiz-adv-x="561" d="M132 -324v2002h408v-190h-165v-1623h165v-189h-408z" />
<glyph unicode="\" horiz-adv-x="856" d="M20 1456h240l608 -1581h-240z" />
<glyph unicode="]" horiz-adv-x="561" d="M12 -135h167v1623h-167v190h410v-2002h-410v189z" />
<glyph unicode="^" horiz-adv-x="875" d="M53 729l299 727h171l298 -727h-205l-179 461l-178 -461h-206z" />
<glyph unicode="_" horiz-adv-x="924" d="M3 0h917v-191h-917v191z" />
<glyph unicode="`" horiz-adv-x="660" d="M49 1536h277l195 -303h-202z" />
<glyph unicode="a" horiz-adv-x="1108" d="M90 303q0 87 33 154t96 112t154.5 68.5t208.5 23.5h153v71q0 84 -47 134.5t-143 50.5q-43 0 -78 -11.5t-59.5 -31t-38 -46.5t-13.5 -58h-243q0 64 31.5 123.5t89.5 106t140.5 74.5t184.5 28q91 0 168 -23.5t133 -70t87 -116t31 -162.5v-480q0 -146 41 -233v-17h-248 q-10 19 -16.5 45t-11.5 56q-24 -25 -53.5 -47t-65 -38.5t-77 -26t-88.5 -9.5q-81 0 -149 24.5t-116.5 68t-76 102.5t-27.5 128zM333 328q0 -33 11 -61t33 -48.5t53.5 -32t73.5 -11.5t78.5 11t66 29t51.5 41.5t35 47.5v204h-131q-135 0 -203 -47t-68 -133z" />
<glyph unicode="b" horiz-adv-x="1153" d="M124 0v1536h243v-558q51 60 120.5 92t162.5 32q105 0 184 -40.5t132.5 -113.5t80.5 -174.5t27 -222.5v-21q0 -120 -27.5 -221t-80.5 -174t-132 -114t-182 -41q-99 0 -172 35.5t-124 101.5l-12 -117h-220zM367 319q29 -63 83.5 -102t140.5 -39q67 0 113 27.5t74.5 75 t40.5 111.5t12 138v21q0 71 -11.5 135t-39.5 112t-74.5 76.5t-116.5 28.5q-85 0 -139 -37.5t-83 -100.5v-446z" />
<glyph unicode="c" horiz-adv-x="1072" d="M79 523v35q0 111 30 210t91.5 173.5t153.5 117.5t217 43q98 0 178.5 -30t138 -84t90 -129t35.5 -165h-229q-2 43 -17.5 82t-43 68t-66.5 46t-88 17q-74 0 -122 -30.5t-76 -79.5t-38.5 -112t-10.5 -127v-35q0 -66 10.5 -128.5t38.5 -111.5t75.5 -79t122.5 -30 q44 0 82.5 13.5t67 38t46 58.5t19.5 74h229q-3 -78 -38.5 -147t-95 -120.5t-138.5 -81t-169 -29.5q-125 0 -217.5 43t-154 117t-91.5 173t-30 210z" />
<glyph unicode="d" horiz-adv-x="1156" d="M79 528v21q0 123 29.5 225t85 175t134.5 113t178 40q90 0 158.5 -31t119.5 -89v554h243v-1536h-220l-12 112q-52 -63 -123.5 -97.5t-167.5 -34.5q-98 0 -176.5 41.5t-133.5 114.5t-85 173.5t-30 218.5zM322 528q0 -72 13.5 -135.5t43 -111.5t75.5 -75.5t112 -27.5 q82 0 134.5 36.5t83.5 96.5v462q-31 60 -84 95t-132 35q-66 0 -112.5 -28t-76 -76t-43.5 -112.5t-14 -137.5v-21z" />
<glyph unicode="e" horiz-adv-x="1099" d="M83 503v40q0 128 38 231.5t104 176t155.5 112t192.5 39.5q118 0 205 -39.5t144 -110.5t85 -169t28 -215v-104h-707q5 -63 26.5 -116t58.5 -91.5t87.5 -60.5t114.5 -22q90 0 156.5 36t115.5 99l131 -125q-26 -39 -64.5 -75.5t-90 -65t-116.5 -46t-146 -17.5 q-120 0 -216 40t-163 110t-103 166t-36 207zM332 642h463v18q-3 48 -15.5 92.5t-38.5 79t-67.5 55t-101.5 20.5q-100 0 -161.5 -70t-78.5 -195z" />
<glyph unicode="f" horiz-adv-x="726" d="M45 902v180h165v102q0 90 26.5 160t75.5 117t119.5 71.5t158.5 24.5q35 0 69.5 -5t66.5 -13l-6 -190q-20 4 -43.5 6t-49.5 2q-84 0 -129 -44t-45 -129v-102h220v-180h-220v-902h-243v902h-165z" />
<glyph unicode="g" horiz-adv-x="1161" d="M82 528v21q0 123 30 225t86.5 175t136.5 113t180 40q98 0 169 -33.5t122 -95.5l11 109h219v-1052q0 -109 -36 -194t-100.5 -143t-155 -88.5t-198.5 -30.5q-45 0 -100 9.5t-111 31t-107 55.5t-87 83l115 146q60 -71 130.5 -102t145.5 -31q121 0 191 65.5t70 192.5v73 q-51 -57 -120 -87t-160 -30q-99 0 -178.5 41.5t-136 114.5t-86.5 173.5t-30 218.5zM324 528q0 -72 14.5 -135.5t45.5 -111.5t78 -75.5t113 -27.5q82 0 134 34.5t84 91.5v476q-32 57 -84.5 90t-131.5 33q-66 0 -114 -28t-78.5 -76t-45.5 -112.5t-15 -137.5v-21z" />
<glyph unicode="h" horiz-adv-x="1137" d="M121 0v1536h243v-572q56 65 132 101.5t169 36.5q79 0 144 -22t111 -70.5t71 -126t25 -187.5v-696h-243v698q0 112 -48.5 158.5t-142.5 46.5q-76 0 -130.5 -35t-87.5 -95v-773h-243z" />
<glyph unicode="i" horiz-adv-x="523" d="M125 1363q0 56 35.5 93t101.5 37t102 -37t36 -93q0 -55 -36 -91.5t-102 -36.5t-101.5 36.5t-35.5 91.5zM140 0v1082h243v-1082h-243z" />
<glyph unicode="j" horiz-adv-x="513" d="M-75 -228q21 -5 44.5 -7t41.5 -2q60 0 92 32.5t32 108.5v1178h243v-1178q0 -166 -82.5 -253.5t-241.5 -87.5q-32 0 -66 4.5t-63 12.5v192zM114 1363q0 56 35.5 93t101.5 37t102 -37t36 -93q0 -55 -36 -91.5t-102 -36.5t-101.5 36.5t-35.5 91.5z" />
<glyph unicode="k" horiz-adv-x="1069" d="M125 0v1536h243v-886l76 95l299 337h292l-402 -451l445 -631h-281l-321 464l-108 -111v-353h-243z" />
<glyph unicode="l" horiz-adv-x="523" d="M140 0v1536h243v-1536h-243z" />
<glyph unicode="m" horiz-adv-x="1782" d="M124 0v1082h229l7 -113q54 63 131.5 98t180.5 35q99 0 177 -39.5t120 -126.5q54 76 136.5 121t195.5 45q84 0 150 -22.5t111.5 -71t70 -124.5t24.5 -183v-701h-243v702q0 60 -13.5 98.5t-39 61.5t-61 32t-80.5 9q-83 0 -135.5 -44.5t-73.5 -116.5q0 -5 0.5 -10.5 t0.5 -10.5v-721h-243v699q0 57 -13.5 96t-39 63t-61.5 34.5t-81 10.5q-78 0 -128.5 -32t-78.5 -87v-784h-243z" />
<glyph unicode="n" horiz-adv-x="1139" d="M121 0v1082h229l7 -125q57 69 137 107t178 38q78 0 141.5 -21.5t108.5 -69.5t69.5 -125t24.5 -187v-699h-243v701q0 56 -12.5 94.5t-36.5 62.5t-59.5 34.5t-81.5 10.5q-75 0 -130.5 -36t-88.5 -97v-770h-243z" />
<glyph unicode="o" horiz-adv-x="1166" d="M79 530v21q0 118 34.5 218.5t99 174.5t157.5 116t211 42q119 0 213 -42t158.5 -116t98.5 -174.5t34 -218.5v-21q0 -118 -34 -219t-98.5 -174.5t-158 -115t-211.5 -41.5q-119 0 -212.5 41.5t-158 115t-99 174.5t-34.5 219zM322 530q0 -73 15 -138t47 -113.5t81.5 -76.5 t117.5 -28q67 0 116.5 28t81 76.5t47 113.5t15.5 138v21q0 72 -15.5 136.5t-47.5 113t-81.5 77.5t-117.5 29t-116.5 -29t-80.5 -77.5t-47 -113t-15 -136.5v-21z" />
<glyph unicode="p" horiz-adv-x="1153" d="M124 -416v1498h224l10 -110q52 63 123.5 96.5t167.5 33.5q103 0 182 -40t132.5 -112.5t81 -174t27.5 -224.5v-21q0 -118 -27.5 -219t-81 -174.5t-132 -115t-179.5 -41.5q-93 0 -163 30t-122 87v-513h-243zM367 300q30 -57 81.5 -91.5t134.5 -34.5q66 0 112.5 28.5 t76.5 77t44 113.5t14 137v21q0 73 -14.5 137t-44.5 112t-77 75.5t-113 27.5q-80 0 -132 -33t-82 -90v-480z" />
<glyph unicode="q" horiz-adv-x="1163" d="M79 529v21q0 123 29 225t84 174.5t135 112.5t182 40q94 0 165 -33t122 -94l14 107h216v-1498h-243v508q-51 -54 -119 -83t-157 -29q-101 0 -180.5 41.5t-134.5 115t-84 174t-29 218.5zM322 529q0 -72 14 -136.5t44 -113t76.5 -77t112.5 -28.5q79 0 130.5 33.5t83.5 89.5 v492q-32 54 -84 86t-128 32q-66 0 -113 -28.5t-77.5 -77t-44.5 -113.5t-14 -138v-21z" />
<glyph unicode="r" horiz-adv-x="720" d="M124 0v1082h232l6 -121q41 66 101.5 103.5t142.5 37.5q21 0 47.5 -4.5t38.5 -9.5l-1 -228q-24 4 -48.5 6t-50.5 2q-88 0 -143 -34t-82 -94v-740h-243z" />
<glyph unicode="s" horiz-adv-x="1057" d="M75 341h236q3 -50 23 -84t51 -55t70 -30.5t80 -9.5q96 0 146 36.5t50 95.5q0 26 -8.5 48.5t-33.5 42t-70.5 36.5t-118.5 32q-87 18 -158.5 45t-122.5 65.5t-79.5 90.5t-28.5 120q0 66 29 125.5t83.5 104.5t132 71.5t173.5 26.5q101 0 181.5 -26.5t136.5 -73t85.5 -109.5 t29.5 -136h-243q0 31 -12 60.5t-36 52.5t-59.5 36.5t-82.5 13.5q-46 0 -80 -11.5t-56.5 -30t-33.5 -43t-11 -51.5t10 -48t35.5 -38t68.5 -31.5t108 -28.5q94 -20 168.5 -47t126 -66t78.5 -92t27 -126q0 -72 -31 -132t-88.5 -103.5t-138.5 -67.5t-180 -24q-111 0 -196.5 31.5 t-143.5 82.5t-87.5 115.5t-29.5 131.5z" />
<glyph unicode="t" horiz-adv-x="681" d="M8 902v180h178v263h243v-263h191v-180h-191v-604q0 -37 8 -60t23 -35.5t35.5 -17t45.5 -4.5t48.5 3.5t36.5 6.5v-188q-29 -8 -67.5 -15.5t-92.5 -7.5q-60 0 -111.5 16t-89 52t-58.5 94t-21 142v618h-178z" />
<glyph unicode="u" horiz-adv-x="1138" d="M119 382v700h243v-702q0 -59 14 -97.5t37.5 -62t54.5 -33t65 -9.5q94 0 152 34t87 93v777h243v-1082h-229l-6 106q-51 -60 -126 -93t-178 -33q-80 0 -145.5 22.5t-112.5 71t-73 125t-26 183.5z" />
<glyph unicode="v" horiz-adv-x="1013" d="M22 1082h252l232 -774l229 774h251l-375 -1082h-211z" />
<glyph unicode="w" horiz-adv-x="1522" d="M33 1082h237l175 -739l222 739h183l225 -747l172 747h237l-295 -1082h-200l-232 743l-228 -743h-200z" />
<glyph unicode="x" horiz-adv-x="1030" d="M31 0l342 549l-330 533h268l202 -356l206 356h270l-331 -533l342 -549h-268l-216 370l-215 -370h-270z" />
<glyph unicode="y" horiz-adv-x="997" d="M12 1082h262l229 -734l220 734h259l-430 -1246q-15 -41 -39.5 -88.5t-64 -88.5t-96.5 -68.5t-136 -27.5q-31 0 -61.5 5.5t-55.5 12.5v188q9 -2 23.5 -2.5t22.5 -0.5q45 0 78.5 7.5t58.5 25t43 45t32 68.5l35 93z" />
<glyph unicode="z" horiz-adv-x="1030" d="M82 0v159l549 727h-539v196h847v-154l-555 -734h576v-194h-878z" />
<glyph unicode="{" horiz-adv-x="687" d="M56 529v178q51 0 87.5 15.5t60 44.5t34.5 70t11 92v203q0 79 17.5 150.5t59.5 132t111 107t172 75.5l48 -140q-52 -17 -86.5 -48.5t-55 -74t-29 -94t-8.5 -108.5v-203q0 -100 -41 -181t-132 -129q90 -48 131.5 -129.5t41.5 -180.5v-203q0 -57 8.5 -108.5t29 -94t55 -74 t86.5 -48.5l-48 -141q-103 29 -172 76t-111 107.5t-59.5 132t-17.5 150.5v203q0 50 -11 90.5t-34.5 69.5t-60 44.5t-87.5 15.5z" />
<glyph unicode="|" horiz-adv-x="514" d="M174 -270v1726h167v-1726h-167z" />
<glyph unicode="}" horiz-adv-x="687" d="M27 -219q52 17 86.5 48.5t55.5 74t29.5 94t8.5 108.5v203q0 102 43.5 183t138.5 126q-95 45 -138.5 127t-43.5 184v203q0 57 -8.5 108.5t-29.5 94t-55.5 74t-86.5 48.5l48 140q103 -29 172.5 -75.5t111 -107t59 -132t17.5 -150.5v-203q0 -51 11 -92t34.5 -70t60.5 -44.5 t88 -15.5v-178q-51 0 -88 -15.5t-60.5 -44.5t-34.5 -69.5t-11 -90.5v-203q0 -79 -17.5 -150.5t-59 -132t-111 -107.5t-172.5 -76z" />
<glyph unicode="~" horiz-adv-x="1361" d="M117 425q0 87 24.5 159t68 123.5t104.5 79.5t133 28q42 0 79.5 -9t72.5 -26t69 -42t69 -58q48 -45 86 -67.5t82 -22.5q34 0 61.5 14.5t47.5 41t31 62.5t11 78h188q0 -86 -24.5 -159.5t-69 -126.5t-105.5 -83t-133 -30q-42 0 -78.5 8.5t-70.5 25.5t-68.5 42.5t-71.5 59.5 q-46 43 -85 66.5t-84 23.5q-34 0 -60.5 -13.5t-45 -38.5t-28.5 -59.5t-10 -76.5h-193z" />
<glyph unicode="&#xa1;" horiz-adv-x="542" d="M134 971q0 55 36 92.5t102 37.5q65 0 101 -37.5t36 -92.5q0 -56 -36 -93.5t-101 -37.5q-66 0 -102 37.5t-36 93.5zM146 -364l24 1026h209l24 -1026h-257z" />
<glyph unicode="&#xa2;" horiz-adv-x="1149" d="M100 523v35q0 99 24 188.5t72 160.5t120.5 119.5t170.5 66.5v225h200v-224q78 -14 141 -48.5t108 -86.5t70.5 -119.5t27.5 -145.5h-229q-2 43 -17.5 82t-43 68t-66.5 46t-88 17q-74 0 -122 -30.5t-76 -79.5t-38.5 -112t-10.5 -127v-35q0 -66 10.5 -128.5t38.5 -111.5 t75.5 -79t122.5 -30q44 0 82.5 13.5t67 38t46 58.5t19.5 74h229q-2 -68 -29 -129t-73.5 -109.5t-109 -82.5t-135.5 -48v-234h-200v234q-98 18 -170.5 66.5t-120.5 119.5t-72 160t-24 188z" />
<glyph unicode="&#xa3;" horiz-adv-x="1205" d="M94 598v199h155l-8 242q0 103 33.5 184.5t94 137t143.5 85t182 29.5q104 0 185 -29t136.5 -82t84.5 -127t29 -164h-245q0 55 -16.5 93t-44 62t-63.5 34.5t-75 10.5q-41 0 -76 -15t-60.5 -45t-40.5 -73.5t-15 -100.5l9 -242h311v-199h-304l7 -176q0 -65 -15.5 -120.5 t-48.5 -99.5h696l-1 -202h-1049v202h82q25 6 41 28t25 52.5t12.5 65t3.5 65.5l-7 185h-161z" />
<glyph unicode="&#xa4;" horiz-adv-x="1437" d="M93 118l135 137q-48 75 -74 164t-26 189q0 104 29 196t80 169l-144 147l141 144l142 -145q74 55 161.5 85t185.5 30t186.5 -30.5t162.5 -86.5l145 148l142 -145l-148 -151q51 -76 79 -167t28 -194q0 -99 -25.5 -186.5t-72.5 -162.5l139 -141l-142 -145l-132 134 q-75 -60 -167 -93.5t-195 -33.5q-102 0 -193.5 33t-166.5 93l-129 -132zM313 608q0 -92 32 -173t87.5 -141t130.5 -94.5t160 -34.5t159.5 34.5t130 94.5t87.5 141t32 173t-32 172.5t-87.5 140t-130 93.5t-159.5 34t-160 -34t-130.5 -93.5t-87.5 -140t-32 -172.5z" />
<glyph unicode="&#xa5;" horiz-adv-x="1248" d="M25 1456h281l315 -636l315 636h280l-393 -714h269v-152h-349v-138h349v-151h-349v-301h-252v301h-354v151h354v138h-354v152h281z" />
<glyph unicode="&#xa6;" horiz-adv-x="508" d="M136 -270v795h229v-795h-229zM136 698v758h229v-758h-229z" />
<glyph unicode="&#xa7;" horiz-adv-x="1272" d="M90 -50l242 1q0 -67 26 -111t68 -70.5t94 -37.5t104 -11q63 0 112 13t82 36t50.5 55t17.5 70q0 39 -15.5 68.5t-52.5 54.5t-99 49t-154 51q-111 30 -198 65t-148 84t-93 116t-32 159t44 161.5t125 112.5q-65 50 -99 118t-34 168q0 85 35.5 154t101.5 118t159.5 75.5 t208.5 26.5q118 0 212 -28t160 -82.5t101 -134.5t35 -184h-243q0 49 -17 91.5t-50.5 74t-83 50t-114.5 18.5q-68 0 -117.5 -14t-81.5 -38t-47.5 -56.5t-15.5 -68.5q0 -43 13.5 -73.5t49 -55.5t97 -47t158.5 -48q113 -30 201 -66t148.5 -85t92 -115.5t31.5 -158.5 q0 -94 -45 -162.5t-126 -110.5q66 -49 100.5 -117t34.5 -168q0 -89 -36 -158t-102 -116.5t-159 -72t-207 -24.5q-66 0 -131 9t-124.5 29.5t-110.5 53t-88.5 79.5t-58.5 109.5t-21 143.5zM336 558q0 -44 13.5 -76t49 -58t97.5 -49.5t158 -51.5q42 -12 81 -23.5t74 -24.5 q56 23 85.5 65t29.5 99q0 40 -15.5 71.5t-53 58t-99.5 51.5t-155 53q-43 11 -82.5 23.5t-74.5 25.5q-56 -21 -82 -64t-26 -100z" />
<glyph unicode="&#xa8;" horiz-adv-x="901" d="M93 1366q0 50 33.5 84t92.5 34t93 -34t34 -84t-34 -84t-93 -34t-92.5 34t-33.5 84zM549 1365q0 50 34 84t93 34t93 -34t34 -84t-34 -84t-93 -34t-93 34t-34 84z" />
<glyph unicode="&#xa9;" horiz-adv-x="1604" d="M87 729q0 106 25.5 202.5t71.5 179.5t111 150.5t144 115t169.5 73.5t188.5 26t188.5 -26t169 -73.5t143.5 -115t111 -150.5t71.5 -179.5t25.5 -202.5t-25.5 -202.5t-71.5 -179.5t-111 -151t-143.5 -116t-169 -74t-188.5 -26t-188.5 26t-169.5 74t-144 116t-111 151 t-71.5 179.5t-25.5 202.5zM209 729q0 -132 46 -246.5t126 -198.5t187 -132t229 -48q81 0 156 22t140 62t119 96.5t92 126t59 150t21 168.5t-21 168.5t-59 149.5t-92 125t-119 96t-140 61.5t-156 21.5q-122 0 -229 -47.5t-187 -131t-126 -197.5t-46 -246zM434 669v119 q0 86 24.5 157t69.5 122t109.5 79.5t145.5 28.5q77 0 139.5 -19.5t106 -59t67 -98.5t23.5 -137h-156q0 96 -46 137.5t-134 41.5q-48 0 -84.5 -18.5t-61 -52t-37 -79.5t-12.5 -101v-120q0 -56 12.5 -102.5t37 -79.5t61 -51.5t84.5 -18.5q89 0 134 40.5t45 138.5h156 q0 -79 -23.5 -138t-67 -98t-105.5 -58.5t-139 -19.5q-81 0 -145.5 28t-109.5 79t-69.5 122.5t-24.5 157.5z" />
<glyph unicode="&#xaa;" horiz-adv-x="913" d="M141 919q0 110 84 170.5t257 60.5h102v51q0 62 -28.5 94.5t-87.5 32.5q-65 0 -101.5 -25.5t-36.5 -73.5l-173 14q0 51 22 93.5t63 73.5t98 48.5t128 17.5q66 0 119.5 -17.5t91.5 -52t59 -86t21 -120.5v-314q0 -49 6 -93t20 -88h-177q-11 34 -17 68q-31 -33 -80 -57.5 t-121 -24.5q-60 0 -106.5 16t-78 46t-48 72t-16.5 94zM316 923q0 -42 28.5 -65t88.5 -23q40 0 82 18t69 43v137h-101q-44 0 -75.5 -9t-51.5 -24t-30 -35t-10 -42z" />
<glyph unicode="&#xab;" horiz-adv-x="994" d="M87 528v19l288 390h167l-247 -400l247 -399h-167zM446 528v19l288 390h167l-247 -400l247 -399h-167z" />
<glyph unicode="&#xac;" horiz-adv-x="1133" d="M127 634v171h835v-431h-200v260h-635z" />
<glyph unicode="&#xad;" horiz-adv-x="672" d="M71 521v196h525v-196h-525z" />
<glyph unicode="&#xae;" horiz-adv-x="1604" d="M87 729q0 106 25.5 202.5t71.5 179.5t111 150.5t144 115t169.5 73.5t188.5 26t188.5 -26t169 -73.5t143.5 -115t111 -150.5t71.5 -179.5t25.5 -202.5t-25.5 -202.5t-71.5 -179.5t-111 -151t-143.5 -116t-169 -74t-188.5 -26t-188.5 26t-169.5 74t-144 116t-111 151 t-71.5 179.5t-25.5 202.5zM209 729q0 -132 46 -246.5t126 -198.5t187 -132t229 -48q81 0 156 22t140 62t119 96.5t92 126t59 150t21 168.5t-21 168.5t-59 149.5t-92 125t-119 96t-140 61.5t-156 21.5q-122 0 -229 -47.5t-187 -131t-126 -197.5t-46 -246zM502 316v850h281 q74 0 134 -16.5t102.5 -49t65.5 -81t23 -113.5q0 -60 -30.5 -104.5t-89.5 -75.5q65 -29 91 -85t26 -126v-56q0 -38 3.5 -71t13.5 -56v-16h-155q-5 13 -7.5 33t-4 41t-1.5 40v30v54q0 71 -32.5 105t-110.5 34h-158v-337h-151zM653 787h143q32 0 61.5 7.5t52 22t35.5 36 t13 50.5q0 36 -9 61t-29.5 40.5t-54 22t-82.5 6.5h-130v-246z" />
<glyph unicode="&#xaf;" horiz-adv-x="987" d="M135 1298v158h727v-158h-727z" />
<glyph unicode="&#xb0;" horiz-adv-x="778" d="M127 1208q0 55 21 103.5t57 85t84 58t102 21.5t101 -21.5t82.5 -58t56 -85t20.5 -103.5q0 -56 -20.5 -104t-56 -84t-82.5 -56.5t-101 -20.5t-102 20.5t-84 56.5t-57 84t-21 104zM266 1208q0 -27 10 -49.5t27 -39t39.5 -26t48.5 -9.5t48 9t38.5 25.5t26 39.5t9.5 50 t-9.5 50.5t-26 41t-38.5 27t-48 9.5t-48.5 -9.5t-39.5 -27t-27 -41t-10 -50.5z" />
<glyph unicode="&#xb1;" horiz-adv-x="1099" d="M95 700v199h358v377h215v-377h343v-199h-343v-388h-215v388h-358zM125 0v196h849v-196h-849z" />
<glyph unicode="&#xb2;" horiz-adv-x="758" d="M60 1198q0 55 21 104t60 85.5t95.5 58t127.5 21.5q143 0 221 -64t78 -179q0 -42 -13.5 -78t-39 -70.5t-64 -70t-87.5 -77.5l-140 -113h371v-148h-612v125l287 263q61 55 86 97.5t25 70.5q0 42 -27 68.5t-79 26.5q-32 0 -55 -9.5t-38.5 -26t-23 -38t-7.5 -46.5h-186z" />
<glyph unicode="&#xb3;" horiz-adv-x="758" d="M55 895h186q0 -38 34.5 -64.5t94.5 -26.5q63 0 93.5 27.5t30.5 69.5q0 56 -36.5 79t-101.5 23h-88v129h88q63 0 94 26.5t31 70.5q0 35 -27 61.5t-89 26.5q-48 0 -80.5 -19.5t-32.5 -54.5h-186q0 53 23.5 94.5t63.5 70t94 43.5t114 15q68 0 124 -14.5t96.5 -43t63 -71 t22.5 -97.5q0 -58 -35.5 -102t-99.5 -68q73 -20 111 -64.5t38 -118.5q0 -56 -24.5 -99t-67.5 -72.5t-101.5 -45t-126.5 -15.5q-57 0 -111.5 13.5t-98 42t-70 74t-26.5 110.5z" />
<glyph unicode="&#xb4;" horiz-adv-x="667" d="M112 1233l195 303h277l-277 -303h-195z" />
<glyph unicode="&#xb5;" horiz-adv-x="1211" d="M146 -416v1498h242v-620q0 -90 14.5 -146t41 -87.5t62.5 -42.5t79 -11q91 0 145 32t82 89v786h243v-1082h-223l-7 86q-44 -51 -102.5 -79t-136.5 -28q-121 0 -198 55v-450h-242z" />
<glyph unicode="&#xb6;" horiz-adv-x="1005" d="M69 988q0 100 32 186t94.5 148.5t154.5 98t211 35.5h293v-1456h-210v520h-83q-119 0 -211 35t-154.5 97.5t-94.5 148.5t-32 187z" />
<glyph unicode="&#xb7;" horiz-adv-x="578" d="M142 714q0 58 37 97t104 39t104.5 -39t37.5 -97q0 -28 -9.5 -52.5t-28 -42.5t-45 -28t-59.5 -10t-59.5 10t-44.5 28t-27.5 42.5t-9.5 52.5z" />
<glyph unicode="&#xb8;" horiz-adv-x="528" d="M109 -136l32 139h177l-11 -54q28 -5 55 -16.5t48 -32t34 -51t13 -73.5q0 -50 -21 -91.5t-62 -70.5t-102 -45t-142 -16l-7 137q29 0 54 5t43.5 16t29 27.5t10.5 40.5q0 45 -35.5 62.5t-115.5 22.5z" />
<glyph unicode="&#xb9;" horiz-adv-x="724" d="M128 1194v146l367 119h19v-787h-185v570z" />
<glyph unicode="&#xba;" horiz-adv-x="935" d="M119 1044v77q0 78 24 143t69 112t109 73.5t144 26.5q81 0 145 -26.5t109 -73.5t69 -112t24 -143v-77q0 -78 -24 -143t-68.5 -112t-108.5 -73t-144 -26t-144.5 26t-109.5 73t-69.5 112t-24.5 143zM294 1044q0 -45 10.5 -83t32 -65.5t54 -43.5t76.5 -16q43 0 75 16t53 43.5 t31.5 65.5t10.5 83v77q0 44 -10.5 82t-32 65.5t-54 43.5t-75.5 16t-75 -16t-53.5 -43.5t-32 -65.5t-10.5 -82v-77z" />
<glyph unicode="&#xbb;" horiz-adv-x="994" d="M93 138l247 399l-247 400h167l288 -390v-19l-288 -390h-167zM466 138l247 399l-247 400h167l288 -390v-19l-288 -390h-167z" />
<glyph unicode="&#xbc;" horiz-adv-x="1488" d="M89 1186v146l367 119h19v-787h-185v570zM328 189l711 1138l125 -72l-711 -1138zM763 284l365 505h188v-475h96v-151h-96v-163h-187v163h-357zM944 314h185v241l-13 -21z" />
<glyph unicode="&#xbd;" horiz-adv-x="1579" d="M80 1189v146l367 119h19v-787h-185v570zM285 189l711 1138l125 -72l-711 -1138zM854 531q0 55 21 104t60 85.5t95.5 58t127.5 21.5q143 0 221 -64t78 -179q0 -42 -13.5 -78t-39 -70.5t-64 -70t-87.5 -77.5l-140 -113h371v-148h-612v125l287 263q61 55 86 97.5t25 70.5 q0 42 -27 68.5t-79 26.5q-32 0 -55 -9.5t-38.5 -26t-23 -38t-7.5 -46.5h-186z" />
<glyph unicode="&#xbe;" horiz-adv-x="1623" d="M103 896h186q0 -38 34.5 -64.5t94.5 -26.5q63 0 93.5 27.5t30.5 69.5q0 56 -36.5 79t-101.5 23h-88v129h88q63 0 94 26.5t31 70.5q0 35 -27 61.5t-89 26.5q-48 0 -80.5 -19.5t-32.5 -54.5h-186q0 53 23.5 94.5t63.5 70t94 43.5t114 15q68 0 124 -14.5t96.5 -43t63 -71 t22.5 -97.5q0 -58 -35.5 -102t-99.5 -68q73 -20 111 -64.5t38 -118.5q0 -56 -24.5 -99t-67.5 -72.5t-101.5 -45t-126.5 -15.5q-57 0 -111.5 13.5t-98 42t-70 74t-26.5 110.5zM469 189l711 1138l125 -72l-711 -1138zM884 284l365 505h188v-475h96v-151h-96v-163h-187v163 h-357zM1065 314h185v241l-13 -21z" />
<glyph unicode="&#xbf;" horiz-adv-x="996" d="M66 0q0 67 21.5 124.5t56.5 108.5t79 97t90 91q27 25 44.5 52t27.5 56.5t14 62t4 69.5h227q-1 -71 -9.5 -122.5t-27.5 -94.5t-49.5 -82t-75.5 -84q-32 -33 -61 -63t-50.5 -61.5t-34.5 -68t-13 -81.5q0 -94 49 -140.5t138 -46.5q37 0 72 10.5t62 33t43.5 57t16.5 82.5h243 q-1 -94 -35 -166t-92.5 -120.5t-137.5 -73.5t-170 -25q-102 0 -182.5 25.5t-136 74.5t-84.5 120.5t-29 164.5zM375 972q0 55 36 92.5t102 37.5t101.5 -37.5t35.5 -92.5q0 -56 -35.5 -93.5t-101.5 -37.5t-102 37.5t-36 93.5z" />
<glyph unicode="&#xc0;" horiz-adv-x="1363" d="M18 0l550 1456h227l551 -1456h-264l-119 339h-564l-118 -339h-263zM340 1846h277l195 -303h-202zM470 543h422l-211 604z" />
<glyph unicode="&#xc1;" horiz-adv-x="1363" d="M18 0l550 1456h227l551 -1456h-264l-119 339h-564l-118 -339h-263zM470 543h422l-211 604zM562 1543l195 303h277l-277 -303h-195z" />
<glyph unicode="&#xc2;" horiz-adv-x="1363" d="M18 0l550 1456h227l551 -1456h-264l-119 339h-564l-118 -339h-263zM343 1558v13l271 276h143l273 -278v-11h-195l-150 156l-149 -156h-193zM470 543h422l-211 604z" />
<glyph unicode="&#xc3;" horiz-adv-x="1363" d="M18 0l550 1456h227l551 -1456h-264l-119 339h-564l-118 -339h-263zM319 1562q0 55 17 102.5t46.5 82.5t70 55t88.5 20q41 0 74 -14t63.5 -31t62.5 -31t70 -14t65 28.5t27 75.5l149 -12q0 -56 -17 -103t-47 -81t-70.5 -53t-88.5 -19q-50 0 -83 14t-61.5 30.5t-57 30.5 t-68.5 14q-38 0 -64.5 -28.5t-26.5 -74.5zM470 543h422l-211 604z" />
<glyph unicode="&#xc4;" horiz-adv-x="1363" d="M18 0l550 1456h227l551 -1456h-264l-119 339h-564l-118 -339h-263zM331 1676q0 50 33.5 84t92.5 34t93 -34t34 -84t-34 -84t-93 -34t-92.5 34t-33.5 84zM470 543h422l-211 604zM787 1675q0 50 34 84t93 34t93 -34t34 -84t-34 -84t-93 -34t-93 34t-34 84z" />
<glyph unicode="&#xc5;" horiz-adv-x="1363" d="M18 0l550 1456h227l551 -1456h-264l-119 339h-564l-118 -339h-263zM464 1732q0 43 17 80.5t46.5 66t70 45t88.5 16.5q47 0 87.5 -16.5t70 -45t46.5 -66t17 -80.5q0 -44 -17 -81t-46.5 -65t-70 -43.5t-87.5 -15.5q-48 0 -88.5 15.5t-70 43.5t-46.5 65t-17 81zM470 543h422 l-211 604zM574 1732q0 -22 8 -42t23 -35.5t35.5 -25t45.5 -9.5t45.5 9t35.5 24.5t23 35.5t8 43q0 22 -8 42.5t-23 36.5t-35.5 25t-45.5 9t-45.5 -9t-35.5 -25t-23 -36.5t-8 -42.5z" />
<glyph unicode="&#xc6;" horiz-adv-x="1925" d="M-10 0l835 1456h992v-197h-646l17 -408h548v-197h-540l20 -458h663v-196h-898l-15 340h-502l-184 -340h-290zM580 555h377l-27 648z" />
<glyph unicode="&#xc7;" horiz-adv-x="1337" d="M102 668v118q0 157 42 284.5t120 217.5t188.5 139t247.5 49q130 0 230 -37.5t169.5 -104t109 -158.5t50.5 -201h-252q-8 69 -27.5 124t-55.5 93.5t-91 58.5t-133 20q-86 0 -150.5 -32.5t-107.5 -94t-64.5 -151.5t-21.5 -205v-120q0 -109 19 -198t59 -152.5t103 -98.5 t151 -35q82 0 138.5 19t93.5 56t57.5 91t29.5 124h252q-10 -107 -50 -197.5t-111 -156.5t-173.5 -103t-236.5 -37t-242.5 48.5t-185 138t-117.5 216.5t-41 285zM566 -141l32 139h177l-11 -54q28 -5 55 -16.5t48 -32t34 -51t13 -73.5q0 -50 -21 -91.5t-62 -70.5t-102 -45 t-142 -16l-7 137q29 0 54 5t43.5 16t29 27.5t10.5 40.5q0 45 -35.5 62.5t-115.5 22.5z" />
<glyph unicode="&#xc8;" horiz-adv-x="1158" d="M148 0v1456h945v-204h-692v-402h598v-200h-598v-448h699v-202h-952zM281 1853h277l195 -303h-202z" />
<glyph unicode="&#xc9;" horiz-adv-x="1158" d="M148 0v1456h945v-204h-692v-402h598v-200h-598v-448h699v-202h-952zM503 1550l195 303h277l-277 -303h-195z" />
<glyph unicode="&#xca;" horiz-adv-x="1158" d="M148 0v1456h945v-204h-692v-402h598v-200h-598v-448h699v-202h-952zM284 1565v13l271 276h143l273 -278v-11h-195l-150 156l-149 -156h-193z" />
<glyph unicode="&#xcb;" horiz-adv-x="1158" d="M148 0v1456h945v-204h-692v-402h598v-200h-598v-448h699v-202h-952zM272 1683q0 50 33.5 84t92.5 34t93 -34t34 -84t-34 -84t-93 -34t-92.5 34t-33.5 84zM728 1682q0 50 34 84t93 34t93 -34t34 -84t-34 -84t-93 -34t-93 34t-34 84z" />
<glyph unicode="&#xcc;" horiz-adv-x="578" d="M-56 1853h277l195 -303h-202zM163 0v1456h252v-1456h-252z" />
<glyph unicode="&#xcd;" horiz-adv-x="578" d="M163 0v1456h252v-1456h-252zM165 1550l195 303h277l-277 -303h-195z" />
<glyph unicode="&#xce;" horiz-adv-x="578" d="M-53 1565v13l271 276h143l273 -278v-11h-195l-150 156l-149 -156h-193zM163 0v1456h252v-1456h-252z" />
<glyph unicode="&#xcf;" horiz-adv-x="578" d="M-65 1683q0 50 33.5 84t92.5 34t93 -34t34 -84t-34 -84t-93 -34t-92.5 34t-33.5 84zM163 0v1456h252v-1456h-252zM391 1682q0 50 34 84t93 34t93 -34t34 -84t-34 -84t-93 -34t-93 34t-34 84z" />
<glyph unicode="&#xd0;" horiz-adv-x="1368" d="M21 652v170h157v634h430q146 0 266.5 -49t207 -139.5t134.5 -218.5t48 -286v-72q0 -158 -47.5 -285.5t-135 -217.5t-211 -139t-274.5 -49h-418v652h-157zM431 202h165q103 0 181 33.5t129.5 96.5t77.5 154t26 205v74q0 237 -103 362t-299 125h-177v-430h259v-170h-259 v-450z" />
<glyph unicode="&#xd1;" horiz-adv-x="1454" d="M148 0v1456h253l651 -1037v1037h251v-1456h-253l-649 1033v-1033h-253zM360 1562q0 55 17 102.5t46.5 82.5t70 55t88.5 20q41 0 74 -14t63.5 -31t62.5 -31t70 -14t65 28.5t27 75.5l149 -12q0 -56 -17 -103t-47 -81t-70.5 -53t-88.5 -19q-50 0 -83 14t-61.5 30.5t-57 30.5 t-68.5 14q-38 0 -64.5 -28.5t-26.5 -74.5z" />
<glyph unicode="&#xd2;" horiz-adv-x="1414" d="M102 690v74q0 166 44.5 298t124 224t190.5 141t245 49q135 0 246.5 -49t191 -141t123 -224t43.5 -298v-74q0 -166 -43.5 -297.5t-122.5 -223t-190 -140.5t-246 -49q-134 0 -245 49t-191.5 140.5t-125 223t-44.5 297.5zM355 690q0 -122 24.5 -216t70.5 -157.5t111.5 -96 t146.5 -32.5q168 0 258.5 128t90.5 374v76q0 122 -23.5 215.5t-68.5 156.5t-110.5 95.5t-148.5 32.5q-81 0 -146 -32.5t-110.5 -95.5t-70 -156.5t-24.5 -215.5v-76zM363 1846h277l195 -303h-202z" />
<glyph unicode="&#xd3;" horiz-adv-x="1414" d="M102 690v74q0 166 44.5 298t124 224t190.5 141t245 49q135 0 246.5 -49t191 -141t123 -224t43.5 -298v-74q0 -166 -43.5 -297.5t-122.5 -223t-190 -140.5t-246 -49q-134 0 -245 49t-191.5 140.5t-125 223t-44.5 297.5zM355 690q0 -122 24.5 -216t70.5 -157.5t111.5 -96 t146.5 -32.5q168 0 258.5 128t90.5 374v76q0 122 -23.5 215.5t-68.5 156.5t-110.5 95.5t-148.5 32.5q-81 0 -146 -32.5t-110.5 -95.5t-70 -156.5t-24.5 -215.5v-76zM585 1543l195 303h277l-277 -303h-195z" />
<glyph unicode="&#xd4;" horiz-adv-x="1414" d="M102 690v74q0 166 44.5 298t124 224t190.5 141t245 49q135 0 246.5 -49t191 -141t123 -224t43.5 -298v-74q0 -166 -43.5 -297.5t-122.5 -223t-190 -140.5t-246 -49q-134 0 -245 49t-191.5 140.5t-125 223t-44.5 297.5zM355 690q0 -122 24.5 -216t70.5 -157.5t111.5 -96 t146.5 -32.5q168 0 258.5 128t90.5 374v76q0 122 -23.5 215.5t-68.5 156.5t-110.5 95.5t-148.5 32.5q-81 0 -146 -32.5t-110.5 -95.5t-70 -156.5t-24.5 -215.5v-76zM366 1558v13l271 276h143l273 -278v-11h-195l-150 156l-149 -156h-193z" />
<glyph unicode="&#xd5;" horiz-adv-x="1414" d="M102 690v74q0 166 44.5 298t124 224t190.5 141t245 49q135 0 246.5 -49t191 -141t123 -224t43.5 -298v-74q0 -166 -43.5 -297.5t-122.5 -223t-190 -140.5t-246 -49q-134 0 -245 49t-191.5 140.5t-125 223t-44.5 297.5zM342 1562q0 55 17 102.5t46.5 82.5t70 55t88.5 20 q41 0 74 -14t63.5 -31t62.5 -31t70 -14t65 28.5t27 75.5l149 -12q0 -56 -17 -103t-47 -81t-70.5 -53t-88.5 -19q-50 0 -83 14t-61.5 30.5t-57 30.5t-68.5 14q-38 0 -64.5 -28.5t-26.5 -74.5zM355 690q0 -122 24.5 -216t70.5 -157.5t111.5 -96t146.5 -32.5q168 0 258.5 128 t90.5 374v76q0 122 -23.5 215.5t-68.5 156.5t-110.5 95.5t-148.5 32.5q-81 0 -146 -32.5t-110.5 -95.5t-70 -156.5t-24.5 -215.5v-76z" />
<glyph unicode="&#xd6;" horiz-adv-x="1414" d="M102 690v74q0 166 44.5 298t124 224t190.5 141t245 49q135 0 246.5 -49t191 -141t123 -224t43.5 -298v-74q0 -166 -43.5 -297.5t-122.5 -223t-190 -140.5t-246 -49q-134 0 -245 49t-191.5 140.5t-125 223t-44.5 297.5zM354 1676q0 50 33.5 84t92.5 34t93 -34t34 -84 t-34 -84t-93 -34t-92.5 34t-33.5 84zM355 690q0 -122 24.5 -216t70.5 -157.5t111.5 -96t146.5 -32.5q168 0 258.5 128t90.5 374v76q0 122 -23.5 215.5t-68.5 156.5t-110.5 95.5t-148.5 32.5q-81 0 -146 -32.5t-110.5 -95.5t-70 -156.5t-24.5 -215.5v-76zM810 1675 q0 50 34 84t93 34t93 -34t34 -84t-34 -84t-93 -34t-93 34t-34 84z" />
<glyph unicode="&#xd7;" horiz-adv-x="1092" d="M77 364l316 322l-316 322l148 150l315 -322l316 322l148 -150l-316 -322l316 -322l-148 -150l-316 321l-315 -321z" />
<glyph unicode="&#xd8;" horiz-adv-x="1413" d="M105 690v74q0 166 44.5 298t124 224t190.5 141t245 49q98 0 183.5 -26t156.5 -76l87 144h167l-148 -243q76 -93 117 -221.5t41 -289.5v-74q0 -166 -43.5 -297.5t-122.5 -223t-190 -140.5t-246 -49q-84 0 -158 19t-138 55l-91 -149h-168l144 237q-93 92 -144 230t-51 318z M358 690q0 -106 18 -189.5t53 -146.5l502 827q-87 85 -222 85q-81 0 -146 -32.5t-110.5 -95.5t-70 -156.5t-24.5 -215.5v-76zM528 242q76 -54 183 -54q168 0 258.5 128t90.5 374v76q0 165 -44 279z" />
<glyph unicode="&#xd9;" horiz-adv-x="1335" d="M125 482v974h252v-974q0 -78 20.5 -134.5t58.5 -93.5t92 -54.5t121 -17.5t121.5 17.5t92 54.5t58 93.5t20.5 134.5v974h252v-974q0 -125 -42.5 -219t-116.5 -157t-173 -94.5t-212 -31.5q-117 0 -216.5 31.5t-172.5 94.5t-114 157t-41 219zM322 1846h277l195 -303h-202z " />
<glyph unicode="&#xda;" horiz-adv-x="1335" d="M125 482v974h252v-974q0 -78 20.5 -134.5t58.5 -93.5t92 -54.5t121 -17.5t121.5 17.5t92 54.5t58 93.5t20.5 134.5v974h252v-974q0 -125 -42.5 -219t-116.5 -157t-173 -94.5t-212 -31.5q-117 0 -216.5 31.5t-172.5 94.5t-114 157t-41 219zM544 1543l195 303h277 l-277 -303h-195z" />
<glyph unicode="&#xdb;" horiz-adv-x="1335" d="M125 482v974h252v-974q0 -78 20.5 -134.5t58.5 -93.5t92 -54.5t121 -17.5t121.5 17.5t92 54.5t58 93.5t20.5 134.5v974h252v-974q0 -125 -42.5 -219t-116.5 -157t-173 -94.5t-212 -31.5q-117 0 -216.5 31.5t-172.5 94.5t-114 157t-41 219zM325 1558v13l271 276h143 l273 -278v-11h-195l-150 156l-149 -156h-193z" />
<glyph unicode="&#xdc;" horiz-adv-x="1335" d="M125 482v974h252v-974q0 -78 20.5 -134.5t58.5 -93.5t92 -54.5t121 -17.5t121.5 17.5t92 54.5t58 93.5t20.5 134.5v974h252v-974q0 -125 -42.5 -219t-116.5 -157t-173 -94.5t-212 -31.5q-117 0 -216.5 31.5t-172.5 94.5t-114 157t-41 219zM313 1676q0 50 33.5 84t92.5 34 t93 -34t34 -84t-34 -84t-93 -34t-92.5 34t-33.5 84zM769 1675q0 50 34 84t93 34t93 -34t34 -84t-34 -84t-93 -34t-93 34t-34 84z" />
<glyph unicode="&#xdd;" horiz-adv-x="1248" d="M7 1456h281l335 -690l335 690h280l-488 -920v-536h-254v536zM503 1543l195 303h277l-277 -303h-195z" />
<glyph unicode="&#xde;" horiz-adv-x="1226" d="M148 0v1456h243v-280h246q124 0 220 -32.5t161 -91t98.5 -139t33.5 -175.5t-33.5 -175.5t-98.5 -139t-161 -91t-220 -32.5h-246v-300h-243zM391 495h246q72 0 123.5 20.5t84 54t47.5 77t15 89.5q0 47 -15 91.5t-47.5 78.5t-84 54.5t-123.5 20.5h-246v-486z" />
<glyph unicode="&#xdf;" horiz-adv-x="1255" d="M136 0v1105q0 112 31 196.5t88 141.5t137.5 85.5t178.5 28.5q86 0 159.5 -21.5t127.5 -65.5t84.5 -111t30.5 -158q0 -52 -8.5 -90t-22 -68t-28.5 -54.5t-28.5 -49t-22 -52t-8.5 -63.5q0 -40 24 -74t60 -67t78 -67.5t78 -75.5t60 -91t24 -113q0 -88 -28.5 -154.5 t-82.5 -111.5t-131 -67.5t-173 -22.5q-40 0 -82.5 5t-82 14t-72 20.5t-52.5 24.5l49 195q16 -10 40.5 -21.5t54 -21t63 -16t68.5 -6.5q97 0 142 43t45 110q0 44 -24 79t-60 67.5t-78.5 65.5t-78.5 73t-60 90t-24 117q0 42 9.5 74.5t23.5 60.5t30 53.5t30 52t23.5 57 t9.5 68.5q0 43 -13 76.5t-35.5 56t-54.5 34t-69 11.5q-89 0 -138.5 -61t-49.5 -199v-1103h-242z" />
<glyph unicode="&#xe0;" horiz-adv-x="1108" d="M90 303q0 87 33 154t96 112t154.5 68.5t208.5 23.5h153v71q0 84 -47 134.5t-143 50.5q-43 0 -78 -11.5t-59.5 -31t-38 -46.5t-13.5 -58h-243q0 64 31.5 123.5t89.5 106t140.5 74.5t184.5 28q91 0 168 -23.5t133 -70t87 -116t31 -162.5v-480q0 -146 41 -233v-17h-248 q-10 19 -16.5 45t-11.5 56q-24 -25 -53.5 -47t-65 -38.5t-77 -26t-88.5 -9.5q-81 0 -149 24.5t-116.5 68t-76 102.5t-27.5 128zM222 1536h277l195 -303h-202zM333 328q0 -33 11 -61t33 -48.5t53.5 -32t73.5 -11.5t78.5 11t66 29t51.5 41.5t35 47.5v204h-131q-135 0 -203 -47 t-68 -133z" />
<glyph unicode="&#xe1;" horiz-adv-x="1108" d="M90 303q0 87 33 154t96 112t154.5 68.5t208.5 23.5h153v71q0 84 -47 134.5t-143 50.5q-43 0 -78 -11.5t-59.5 -31t-38 -46.5t-13.5 -58h-243q0 64 31.5 123.5t89.5 106t140.5 74.5t184.5 28q91 0 168 -23.5t133 -70t87 -116t31 -162.5v-480q0 -146 41 -233v-17h-248 q-10 19 -16.5 45t-11.5 56q-24 -25 -53.5 -47t-65 -38.5t-77 -26t-88.5 -9.5q-81 0 -149 24.5t-116.5 68t-76 102.5t-27.5 128zM333 328q0 -33 11 -61t33 -48.5t53.5 -32t73.5 -11.5t78.5 11t66 29t51.5 41.5t35 47.5v204h-131q-135 0 -203 -47t-68 -133zM444 1233l195 303 h277l-277 -303h-195z" />
<glyph unicode="&#xe2;" horiz-adv-x="1108" d="M90 303q0 87 33 154t96 112t154.5 68.5t208.5 23.5h153v71q0 84 -47 134.5t-143 50.5q-43 0 -78 -11.5t-59.5 -31t-38 -46.5t-13.5 -58h-243q0 64 31.5 123.5t89.5 106t140.5 74.5t184.5 28q91 0 168 -23.5t133 -70t87 -116t31 -162.5v-480q0 -146 41 -233v-17h-248 q-10 19 -16.5 45t-11.5 56q-24 -25 -53.5 -47t-65 -38.5t-77 -26t-88.5 -9.5q-81 0 -149 24.5t-116.5 68t-76 102.5t-27.5 128zM225 1248v13l271 276h143l273 -278v-11h-195l-150 156l-149 -156h-193zM333 328q0 -33 11 -61t33 -48.5t53.5 -32t73.5 -11.5t78.5 11t66 29 t51.5 41.5t35 47.5v204h-131q-135 0 -203 -47t-68 -133z" />
<glyph unicode="&#xe3;" horiz-adv-x="1108" d="M90 303q0 87 33 154t96 112t154.5 68.5t208.5 23.5h153v71q0 84 -47 134.5t-143 50.5q-43 0 -78 -11.5t-59.5 -31t-38 -46.5t-13.5 -58h-243q0 64 31.5 123.5t89.5 106t140.5 74.5t184.5 28q91 0 168 -23.5t133 -70t87 -116t31 -162.5v-480q0 -146 41 -233v-17h-248 q-10 19 -16.5 45t-11.5 56q-24 -25 -53.5 -47t-65 -38.5t-77 -26t-88.5 -9.5q-81 0 -149 24.5t-116.5 68t-76 102.5t-27.5 128zM201 1252q0 55 17 102.5t46.5 82.5t70 55t88.5 20q41 0 74 -14t63.5 -31t62.5 -31t70 -14t65 28.5t27 75.5l149 -12q0 -56 -17 -103t-47 -81 t-70.5 -53t-88.5 -19q-50 0 -83 14t-61.5 30.5t-57 30.5t-68.5 14q-38 0 -64.5 -28.5t-26.5 -74.5zM333 328q0 -33 11 -61t33 -48.5t53.5 -32t73.5 -11.5t78.5 11t66 29t51.5 41.5t35 47.5v204h-131q-135 0 -203 -47t-68 -133z" />
<glyph unicode="&#xe4;" horiz-adv-x="1108" d="M90 303q0 87 33 154t96 112t154.5 68.5t208.5 23.5h153v71q0 84 -47 134.5t-143 50.5q-43 0 -78 -11.5t-59.5 -31t-38 -46.5t-13.5 -58h-243q0 64 31.5 123.5t89.5 106t140.5 74.5t184.5 28q91 0 168 -23.5t133 -70t87 -116t31 -162.5v-480q0 -146 41 -233v-17h-248 q-10 19 -16.5 45t-11.5 56q-24 -25 -53.5 -47t-65 -38.5t-77 -26t-88.5 -9.5q-81 0 -149 24.5t-116.5 68t-76 102.5t-27.5 128zM213 1366q0 50 33.5 84t92.5 34t93 -34t34 -84t-34 -84t-93 -34t-92.5 34t-33.5 84zM333 328q0 -33 11 -61t33 -48.5t53.5 -32t73.5 -11.5 t78.5 11t66 29t51.5 41.5t35 47.5v204h-131q-135 0 -203 -47t-68 -133zM669 1365q0 50 34 84t93 34t93 -34t34 -84t-34 -84t-93 -34t-93 34t-34 84z" />
<glyph unicode="&#xe5;" horiz-adv-x="1108" d="M90 303q0 87 33 154t96 112t154.5 68.5t208.5 23.5h153v71q0 84 -47 134.5t-143 50.5q-43 0 -78 -11.5t-59.5 -31t-38 -46.5t-13.5 -58h-243q0 64 31.5 123.5t89.5 106t140.5 74.5t184.5 28q91 0 168 -23.5t133 -70t87 -116t31 -162.5v-480q0 -146 41 -233v-17h-248 q-10 19 -16.5 45t-11.5 56q-24 -25 -53.5 -47t-65 -38.5t-77 -26t-88.5 -9.5q-81 0 -149 24.5t-116.5 68t-76 102.5t-27.5 128zM333 328q0 -33 11 -61t33 -48.5t53.5 -32t73.5 -11.5t78.5 11t66 29t51.5 41.5t35 47.5v204h-131q-135 0 -203 -47t-68 -133zM346 1422 q0 43 17 80.5t46.5 66t70 45t88.5 16.5q47 0 87.5 -16.5t70 -45t46.5 -66t17 -80.5q0 -44 -17 -81t-46.5 -65t-70 -43.5t-87.5 -15.5q-48 0 -88.5 15.5t-70 43.5t-46.5 65t-17 81zM456 1422q0 -22 8 -42t23 -35.5t35.5 -25t45.5 -9.5t45.5 9t35.5 24.5t23 35.5t8 43 q0 22 -8 42.5t-23 36.5t-35.5 25t-45.5 9t-45.5 -9t-35.5 -25t-23 -36.5t-8 -42.5z" />
<glyph unicode="&#xe6;" horiz-adv-x="1729" d="M72 312q0 158 119 244t352 86h191v71q0 91 -47.5 142.5t-135.5 51.5q-48 0 -86 -12.5t-64.5 -33.5t-41 -49.5t-14.5 -59.5l-242 19q0 72 32.5 132.5t91.5 104.5t142 69t184 25q109 0 194 -33.5t140 -99.5q62 64 145 99t186 34q108 0 192 -34t141.5 -98t87 -154.5 t29.5 -203.5v-141h-695q4 -63 23.5 -117.5t55.5 -94.5t89.5 -62.5t126.5 -22.5q57 0 101.5 8.5t81 22t66 30t56.5 31.5l73 -166q-20 -16 -55.5 -37t-85 -39.5t-112.5 -31t-139 -12.5q-131 0 -229 42.5t-164 118.5q-26 -31 -64.5 -60t-90 -51.5t-116 -36t-142.5 -13.5 q-91 0 -161 23.5t-118 67t-72.5 104.5t-24.5 137zM314 308q0 -31 11 -57t33 -45.5t56 -30.5t81 -11q31 0 64.5 8.5t65 22.5t60 32.5t49.5 38.5v209h-189q-57 0 -100 -13.5t-72 -37t-44 -53.5t-15 -63zM976 642h452v30q0 49 -11.5 92t-36.5 74.5t-65 50t-97 18.5 q-54 0 -96 -20t-72 -55t-48.5 -84t-25.5 -106z" />
<glyph unicode="&#xe7;" horiz-adv-x="1072" d="M79 523v35q0 111 30 210t91.5 173.5t153.5 117.5t217 43q98 0 178.5 -30t138 -84t90 -129t35.5 -165h-229q-2 43 -17.5 82t-43 68t-66.5 46t-88 17q-74 0 -122 -30.5t-76 -79.5t-38.5 -112t-10.5 -127v-35q0 -66 10.5 -128.5t38.5 -111.5t75.5 -79t122.5 -30 q44 0 82.5 13.5t67 38t46 58.5t19.5 74h229q-3 -78 -38.5 -147t-95 -120.5t-138.5 -81t-169 -29.5q-125 0 -217.5 43t-154 117t-91.5 173t-30 210zM426 -141l32 139h177l-11 -54q28 -5 55 -16.5t48 -32t34 -51t13 -73.5q0 -50 -21 -91.5t-62 -70.5t-102 -45t-142 -16l-7 137 q29 0 54 5t43.5 16t29 27.5t10.5 40.5q0 45 -35.5 62.5t-115.5 22.5z" />
<glyph unicode="&#xe8;" horiz-adv-x="1099" d="M83 503v40q0 128 38 231.5t104 176t155.5 112t192.5 39.5q118 0 205 -39.5t144 -110.5t85 -169t28 -215v-104h-707q5 -63 26.5 -116t58.5 -91.5t87.5 -60.5t114.5 -22q90 0 156.5 36t115.5 99l131 -125q-26 -39 -64.5 -75.5t-90 -65t-116.5 -46t-146 -17.5 q-120 0 -216 40t-163 110t-103 166t-36 207zM210 1536h277l195 -303h-202zM332 642h463v18q-3 48 -15.5 92.5t-38.5 79t-67.5 55t-101.5 20.5q-100 0 -161.5 -70t-78.5 -195z" />
<glyph unicode="&#xe9;" horiz-adv-x="1099" d="M83 503v40q0 128 38 231.5t104 176t155.5 112t192.5 39.5q118 0 205 -39.5t144 -110.5t85 -169t28 -215v-104h-707q5 -63 26.5 -116t58.5 -91.5t87.5 -60.5t114.5 -22q90 0 156.5 36t115.5 99l131 -125q-26 -39 -64.5 -75.5t-90 -65t-116.5 -46t-146 -17.5 q-120 0 -216 40t-163 110t-103 166t-36 207zM332 642h463v18q-3 48 -15.5 92.5t-38.5 79t-67.5 55t-101.5 20.5q-100 0 -161.5 -70t-78.5 -195zM432 1233l195 303h277l-277 -303h-195z" />
<glyph unicode="&#xea;" horiz-adv-x="1099" d="M83 503v40q0 128 38 231.5t104 176t155.5 112t192.5 39.5q118 0 205 -39.5t144 -110.5t85 -169t28 -215v-104h-707q5 -63 26.5 -116t58.5 -91.5t87.5 -60.5t114.5 -22q90 0 156.5 36t115.5 99l131 -125q-26 -39 -64.5 -75.5t-90 -65t-116.5 -46t-146 -17.5 q-120 0 -216 40t-163 110t-103 166t-36 207zM213 1248v13l271 276h143l273 -278v-11h-195l-150 156l-149 -156h-193zM332 642h463v18q-3 48 -15.5 92.5t-38.5 79t-67.5 55t-101.5 20.5q-100 0 -161.5 -70t-78.5 -195z" />
<glyph unicode="&#xeb;" horiz-adv-x="1099" d="M83 503v40q0 128 38 231.5t104 176t155.5 112t192.5 39.5q118 0 205 -39.5t144 -110.5t85 -169t28 -215v-104h-707q5 -63 26.5 -116t58.5 -91.5t87.5 -60.5t114.5 -22q90 0 156.5 36t115.5 99l131 -125q-26 -39 -64.5 -75.5t-90 -65t-116.5 -46t-146 -17.5 q-120 0 -216 40t-163 110t-103 166t-36 207zM201 1366q0 50 33.5 84t92.5 34t93 -34t34 -84t-34 -84t-93 -34t-92.5 34t-33.5 84zM332 642h463v18q-3 48 -15.5 92.5t-38.5 79t-67.5 55t-101.5 20.5q-100 0 -161.5 -70t-78.5 -195zM657 1365q0 50 34 84t93 34t93 -34t34 -84 t-34 -84t-93 -34t-93 34t-34 84z" />
<glyph unicode="&#xec;" horiz-adv-x="538" d="M-76 1529h277l195 -303h-202zM143 0v1082h243v-1082h-243z" />
<glyph unicode="&#xed;" horiz-adv-x="538" d="M143 0v1082h243v-1082h-243zM145 1226l195 303h277l-277 -303h-195z" />
<glyph unicode="&#xee;" horiz-adv-x="538" d="M-73 1241v13l271 276h143l273 -278v-11h-195l-150 156l-149 -156h-193zM143 0v1082h243v-1082h-243z" />
<glyph unicode="&#xef;" horiz-adv-x="538" d="M-85 1359q0 50 33.5 84t92.5 34t93 -34t34 -84t-34 -84t-93 -34t-92.5 34t-33.5 84zM143 0v1082h243v-1082h-243zM371 1358q0 50 34 84t93 34t93 -34t34 -84t-34 -84t-93 -34t-93 34t-34 84z" />
<glyph unicode="&#xf0;" horiz-adv-x="1191" d="M103 468q0 114 32.5 207t91.5 159t142.5 102.5t184.5 36.5q75 0 141 -24.5t118 -66.5q-26 90 -71 162t-104 129l-204 -135l-78 109l172 114q-66 43 -138.5 73.5t-149.5 50.5l75 195q118 -25 222.5 -71.5t192.5 -113.5l180 120l78 -109l-154 -103q120 -125 187 -291 t67 -370v-87q0 -128 -37 -234t-103 -181.5t-157 -117.5t-198 -42q-109 0 -199.5 38t-155 104t-100 155t-35.5 191zM346 468q0 -57 16.5 -110t49 -94t79 -65.5t106.5 -24.5q59 0 105 28t78 77t48.5 116.5t16.5 145.5v103v18.5t-1 18.5q-14 21 -35.5 39.5t-50.5 33t-66 23 t-81 8.5q-64 0 -113.5 -22t-83 -63t-51 -100t-17.5 -132z" />
<glyph unicode="&#xf1;" horiz-adv-x="1139" d="M121 0v1082h229l7 -125q57 69 137 107t178 38q78 0 141.5 -21.5t108.5 -69.5t69.5 -125t24.5 -187v-699h-243v701q0 56 -12.5 94.5t-36.5 62.5t-59.5 34.5t-81.5 10.5q-75 0 -130.5 -36t-88.5 -97v-770h-243zM207 1252q0 55 17 102.5t46.5 82.5t70 55t88.5 20 q41 0 74 -14t63.5 -31t62.5 -31t70 -14t65 28.5t27 75.5l149 -12q0 -56 -17 -103t-47 -81t-70.5 -53t-88.5 -19q-50 0 -83 14t-61.5 30.5t-57 30.5t-68.5 14q-38 0 -64.5 -28.5t-26.5 -74.5z" />
<glyph unicode="&#xf2;" horiz-adv-x="1166" d="M79 530v21q0 118 34.5 218.5t99 174.5t157.5 116t211 42q119 0 213 -42t158.5 -116t98.5 -174.5t34 -218.5v-21q0 -118 -34 -219t-98.5 -174.5t-158 -115t-211.5 -41.5q-119 0 -212.5 41.5t-158 115t-99 174.5t-34.5 219zM231 1536h277l195 -303h-202zM322 530 q0 -73 15 -138t47 -113.5t81.5 -76.5t117.5 -28q67 0 116.5 28t81 76.5t47 113.5t15.5 138v21q0 72 -15.5 136.5t-47.5 113t-81.5 77.5t-117.5 29t-116.5 -29t-80.5 -77.5t-47 -113t-15 -136.5v-21z" />
<glyph unicode="&#xf3;" horiz-adv-x="1166" d="M79 530v21q0 118 34.5 218.5t99 174.5t157.5 116t211 42q119 0 213 -42t158.5 -116t98.5 -174.5t34 -218.5v-21q0 -118 -34 -219t-98.5 -174.5t-158 -115t-211.5 -41.5q-119 0 -212.5 41.5t-158 115t-99 174.5t-34.5 219zM322 530q0 -73 15 -138t47 -113.5t81.5 -76.5 t117.5 -28q67 0 116.5 28t81 76.5t47 113.5t15.5 138v21q0 72 -15.5 136.5t-47.5 113t-81.5 77.5t-117.5 29t-116.5 -29t-80.5 -77.5t-47 -113t-15 -136.5v-21zM453 1233l195 303h277l-277 -303h-195z" />
<glyph unicode="&#xf4;" horiz-adv-x="1166" d="M79 530v21q0 118 34.5 218.5t99 174.5t157.5 116t211 42q119 0 213 -42t158.5 -116t98.5 -174.5t34 -218.5v-21q0 -118 -34 -219t-98.5 -174.5t-158 -115t-211.5 -41.5q-119 0 -212.5 41.5t-158 115t-99 174.5t-34.5 219zM234 1248v13l271 276h143l273 -278v-11h-195 l-150 156l-149 -156h-193zM322 530q0 -73 15 -138t47 -113.5t81.5 -76.5t117.5 -28q67 0 116.5 28t81 76.5t47 113.5t15.5 138v21q0 72 -15.5 136.5t-47.5 113t-81.5 77.5t-117.5 29t-116.5 -29t-80.5 -77.5t-47 -113t-15 -136.5v-21z" />
<glyph unicode="&#xf5;" horiz-adv-x="1166" d="M79 530v21q0 118 34.5 218.5t99 174.5t157.5 116t211 42q119 0 213 -42t158.5 -116t98.5 -174.5t34 -218.5v-21q0 -118 -34 -219t-98.5 -174.5t-158 -115t-211.5 -41.5q-119 0 -212.5 41.5t-158 115t-99 174.5t-34.5 219zM210 1252q0 55 17 102.5t46.5 82.5t70 55 t88.5 20q41 0 74 -14t63.5 -31t62.5 -31t70 -14t65 28.5t27 75.5l149 -12q0 -56 -17 -103t-47 -81t-70.5 -53t-88.5 -19q-50 0 -83 14t-61.5 30.5t-57 30.5t-68.5 14q-38 0 -64.5 -28.5t-26.5 -74.5zM322 530q0 -73 15 -138t47 -113.5t81.5 -76.5t117.5 -28q67 0 116.5 28 t81 76.5t47 113.5t15.5 138v21q0 72 -15.5 136.5t-47.5 113t-81.5 77.5t-117.5 29t-116.5 -29t-80.5 -77.5t-47 -113t-15 -136.5v-21z" />
<glyph unicode="&#xf6;" horiz-adv-x="1166" d="M79 530v21q0 118 34.5 218.5t99 174.5t157.5 116t211 42q119 0 213 -42t158.5 -116t98.5 -174.5t34 -218.5v-21q0 -118 -34 -219t-98.5 -174.5t-158 -115t-211.5 -41.5q-119 0 -212.5 41.5t-158 115t-99 174.5t-34.5 219zM222 1366q0 50 33.5 84t92.5 34t93 -34t34 -84 t-34 -84t-93 -34t-92.5 34t-33.5 84zM322 530q0 -73 15 -138t47 -113.5t81.5 -76.5t117.5 -28q67 0 116.5 28t81 76.5t47 113.5t15.5 138v21q0 72 -15.5 136.5t-47.5 113t-81.5 77.5t-117.5 29t-116.5 -29t-80.5 -77.5t-47 -113t-15 -136.5v-21zM678 1365q0 50 34 84t93 34 t93 -34t34 -84t-34 -84t-93 -34t-93 34t-34 84z" />
<glyph unicode="&#xf7;" horiz-adv-x="1169" d="M67 582v212h1012v-212h-1012zM435 278q0 58 37 96t104 38q68 0 105 -38t37 -96q0 -57 -37 -94t-105 -37q-67 0 -104 37t-37 94zM435 1095q0 57 37 95t104 38q68 0 105 -38t37 -95t-37 -94.5t-105 -37.5q-67 0 -104 37.5t-37 94.5z" />
<glyph unicode="&#xf8;" horiz-adv-x="1161" d="M79 530v21q0 118 34.5 218.5t99 174.5t157.5 116t211 42q107 0 195 -35l71 145h144l-103 -208q96 -74 146.5 -191t50.5 -262v-21q0 -118 -34 -219t-98.5 -174.5t-158 -115t-211.5 -41.5q-51 0 -96 8t-87 22l-72 -148h-144l102 208q-100 72 -153.5 191.5t-53.5 268.5z M322 530q0 -75 16 -140.5t49 -114.5l299 609q-23 11 -49 17t-56 6q-68 0 -116.5 -29t-80.5 -77.5t-47 -113t-15 -136.5v-21zM489 191q43 -17 94 -17q67 0 116.5 28t81 76.5t47 113.5t15.5 138v21q0 69 -14.5 131t-43.5 111z" />
<glyph unicode="&#xf9;" horiz-adv-x="1138" d="M119 382v700h243v-702q0 -59 14 -97.5t37.5 -62t54.5 -33t65 -9.5q94 0 152 34t87 93v777h243v-1082h-229l-6 106q-51 -60 -126 -93t-178 -33q-80 0 -145.5 22.5t-112.5 71t-73 125t-26 183.5zM224 1536h277l195 -303h-202z" />
<glyph unicode="&#xfa;" horiz-adv-x="1138" d="M119 382v700h243v-702q0 -59 14 -97.5t37.5 -62t54.5 -33t65 -9.5q94 0 152 34t87 93v777h243v-1082h-229l-6 106q-51 -60 -126 -93t-178 -33q-80 0 -145.5 22.5t-112.5 71t-73 125t-26 183.5zM446 1233l195 303h277l-277 -303h-195z" />
<glyph unicode="&#xfb;" horiz-adv-x="1138" d="M119 382v700h243v-702q0 -59 14 -97.5t37.5 -62t54.5 -33t65 -9.5q94 0 152 34t87 93v777h243v-1082h-229l-6 106q-51 -60 -126 -93t-178 -33q-80 0 -145.5 22.5t-112.5 71t-73 125t-26 183.5zM227 1248v13l271 276h143l273 -278v-11h-195l-150 156l-149 -156h-193z" />
<glyph unicode="&#xfc;" horiz-adv-x="1138" d="M119 382v700h243v-702q0 -59 14 -97.5t37.5 -62t54.5 -33t65 -9.5q94 0 152 34t87 93v777h243v-1082h-229l-6 106q-51 -60 -126 -93t-178 -33q-80 0 -145.5 22.5t-112.5 71t-73 125t-26 183.5zM215 1366q0 50 33.5 84t92.5 34t93 -34t34 -84t-34 -84t-93 -34t-92.5 34 t-33.5 84zM671 1365q0 50 34 84t93 34t93 -34t34 -84t-34 -84t-93 -34t-93 34t-34 84z" />
<glyph unicode="&#xfd;" horiz-adv-x="997" d="M12 1082h262l229 -734l220 734h259l-430 -1246q-15 -41 -39.5 -88.5t-64 -88.5t-96.5 -68.5t-136 -27.5q-31 0 -61.5 5.5t-55.5 12.5v188q9 -2 23.5 -2.5t22.5 -0.5q45 0 78.5 7.5t58.5 25t43 45t32 68.5l35 93zM390 1233l195 303h277l-277 -303h-195z" />
<glyph unicode="&#xfe;" horiz-adv-x="1175" d="M130 -416v1498h1v454h243v-552q51 57 120.5 87.5t160.5 30.5q103 0 182 -40t132.5 -112.5t81 -174t27.5 -224.5v-21q0 -118 -27.5 -219t-81 -174.5t-132 -115t-179.5 -41.5q-92 0 -162 30t-122 86v-96h-1v-416h-243zM374 298q30 -56 81.5 -90t133.5 -34q66 0 112.5 28.5 t76.5 77t44 113.5t14 137v21q0 73 -14.5 137t-44.5 112t-77 75.5t-113 27.5q-79 0 -131 -32.5t-82 -88.5v-484z" />
<glyph unicode="&#xff;" horiz-adv-x="997" d="M12 1082h262l229 -734l220 734h259l-430 -1246q-15 -41 -39.5 -88.5t-64 -88.5t-96.5 -68.5t-136 -27.5q-31 0 -61.5 5.5t-55.5 12.5v188q9 -2 23.5 -2.5t22.5 -0.5q45 0 78.5 7.5t58.5 25t43 45t32 68.5l35 93zM159 1366q0 50 33.5 84t92.5 34t93 -34t34 -84t-34 -84 t-93 -34t-92.5 34t-33.5 84zM615 1365q0 50 34 84t93 34t93 -34t34 -84t-34 -84t-93 -34t-93 34t-34 84z" />
<glyph unicode="&#x152;" horiz-adv-x="1972" d="M101 576v304q0 132 42 242t118.5 189t183 122.5t236.5 43.5q76 0 149.5 -6.5t140.5 -14.5h859v-204h-692v-402h598v-200h-598v-448h699v-202h-866q-67 -8 -139.5 -14.5t-148.5 -6.5q-130 0 -237 43.5t-183.5 122.5t-119 189t-42.5 242zM343 576q0 -100 24 -175t68 -125.5 t107 -76t141 -25.5q53 0 103.5 3.5t98.5 10.5v1079q-48 7 -99 11t-105 4q-78 0 -140.5 -25t-106.5 -75.5t-67.5 -125.5t-23.5 -174v-306z" />
<glyph unicode="&#x153;" horiz-adv-x="1850" d="M91 530v21q0 118 33 218.5t96.5 174.5t155.5 116t210 42q128 0 224 -47t159 -130q65 84 156.5 131t200.5 46q113 0 197.5 -35.5t141 -100t85 -154.5t28.5 -198v-143h-682q5 -62 24 -116.5t53 -94.5t83 -63t113 -23q54 0 97.5 7t80 19.5t67.5 29.5t58 36l79 -158 q-27 -24 -64.5 -47t-87 -41t-110.5 -29t-134 -11q-127 0 -224 46t-163 128q-63 -82 -158.5 -128t-221.5 -46q-119 0 -211.5 41.5t-156 115t-96.5 174.5t-33 219zM333 530q0 -73 14 -138t45 -113.5t79.5 -76.5t116.5 -28q67 0 115 28t79 76.5t45 113.5t14 138v21 q0 72 -14.5 136.5t-45 113t-79 77.5t-116.5 29t-115.5 -29t-78.5 -77.5t-45 -113t-14 -136.5v-21zM1101 649h437v25q0 48 -12 90.5t-38 74t-66 50t-96 18.5q-46 0 -83.5 -19.5t-66 -54t-47.5 -82t-28 -102.5z" />
<glyph unicode="&#x178;" horiz-adv-x="1248" d="M7 1456h281l335 -690l335 690h280l-488 -920v-536h-254v536zM272 1676q0 50 33.5 84t92.5 34t93 -34t34 -84t-34 -84t-93 -34t-92.5 34t-33.5 84zM728 1675q0 50 34 84t93 34t93 -34t34 -84t-34 -84t-93 -34t-93 34t-34 84z" />
<glyph unicode="&#x2c6;" horiz-adv-x="998" d="M148 1248v13l271 276h143l273 -278v-11h-195l-150 156l-149 -156h-193z" />
<glyph unicode="&#x2dc;" horiz-adv-x="984" d="M122 1251q0 55 17 102.5t46.5 82.5t70 55t88.5 20q41 0 74 -14t63.5 -31t62.5 -31t70 -14t65 28.5t27 75.5l149 -12q0 -56 -17 -103t-47 -81t-70.5 -53t-88.5 -19q-50 0 -83 14t-61.5 30.5t-57 30.5t-68.5 14q-38 0 -64.5 -28.5t-26.5 -74.5z" />
<glyph unicode="&#x2000;" horiz-adv-x="970" />
<glyph unicode="&#x2001;" horiz-adv-x="1940" />
<glyph unicode="&#x2002;" horiz-adv-x="970" />
<glyph unicode="&#x2003;" horiz-adv-x="1940" />
<glyph unicode="&#x2004;" horiz-adv-x="646" />
<glyph unicode="&#x2005;" horiz-adv-x="485" />
<glyph unicode="&#x2006;" horiz-adv-x="323" />
<glyph unicode="&#x2007;" horiz-adv-x="323" />
<glyph unicode="&#x2008;" horiz-adv-x="242" />
<glyph unicode="&#x2009;" horiz-adv-x="388" />
<glyph unicode="&#x200a;" horiz-adv-x="107" />
<glyph unicode="&#x2010;" horiz-adv-x="672" d="M71 521v196h525v-196h-525z" />
<glyph unicode="&#x2011;" horiz-adv-x="672" d="M71 521v196h525v-196h-525z" />
<glyph unicode="&#x2012;" horiz-adv-x="672" d="M71 521v196h525v-196h-525z" />
<glyph unicode="&#x2013;" horiz-adv-x="1321" d="M158 621v196h1018v-196h-1018z" />
<glyph unicode="&#x2014;" horiz-adv-x="1584" d="M130 621v196h1358v-196h-1358z" />
<glyph unicode="&#x2018;" horiz-adv-x="448" d="M99 1056v136q0 47 13.5 98.5t37.5 100.5t57.5 93.5t74.5 77.5l124 -77q-43 -63 -68.5 -133.5t-25.5 -157.5v-138h-213z" />
<glyph unicode="&#x2019;" horiz-adv-x="444" d="M51 1101q43 63 68 133.5t25 157.5v144h213v-142q0 -47 -13 -98.5t-37 -100.5t-57.5 -93.5t-74.5 -77.5z" />
<glyph unicode="&#x201a;" horiz-adv-x="462" d="M50 -220q42 63 65 133t23 157v132h218v-131q0 -47 -13.5 -97.5t-37.5 -99.5t-57.5 -93.5t-74.5 -78.5z" />
<glyph unicode="&#x201c;" horiz-adv-x="788" d="M108 1056v136q0 47 13.5 98.5t37.5 100.5t57.5 93.5t74.5 77.5l124 -77q-43 -63 -68.5 -133.5t-25.5 -157.5v-138h-213zM444 1056v136q0 47 13.5 98.5t37.5 100.5t57.5 93.5t74.5 77.5l124 -77q-43 -63 -68.5 -133.5t-25.5 -157.5v-138h-213z" />
<glyph unicode="&#x201d;" horiz-adv-x="795" d="M64 1101q43 63 68 133.5t25 157.5v144h213v-142q0 -47 -13 -98.5t-37 -100.5t-57.5 -93.5t-74.5 -77.5zM398 1101q43 63 68 133.5t25 157.5v144h213v-142q0 -47 -13 -98.5t-37 -100.5t-57.5 -93.5t-74.5 -77.5z" />
<glyph unicode="&#x201e;" horiz-adv-x="776" d="M50 -240q42 68 65 142.5t23 167.5v185h218v-184q0 -49 -12.5 -102.5t-36 -105.5t-56.5 -98.5t-74 -82.5zM372 -240q42 68 67 142.5t25 167.5v185h218v-184q0 -49 -13.5 -102.5t-37.5 -105.5t-57.5 -98.5t-74.5 -82.5z" />
<glyph unicode="&#x2022;" horiz-adv-x="715" d="M136 731v56q0 47 15.5 86.5t44.5 68t69.5 44.5t91.5 16q52 0 93.5 -16t70 -44.5t44 -68t15.5 -86.5v-56q0 -47 -15.5 -86t-44 -67.5t-69.5 -44t-93 -15.5q-51 0 -92 15.5t-70 44t-44.5 67.5t-15.5 86z" />
<glyph unicode="&#x2026;" horiz-adv-x="1446" d="M138 121q0 58 37 96.5t104 38.5q68 0 105 -38.5t37 -96.5q0 -57 -37 -94.5t-105 -37.5q-33 0 -59.5 10t-44.5 28t-27.5 42t-9.5 52zM596 121q0 58 37 96.5t104 38.5q68 0 105 -38.5t37 -96.5q0 -57 -37 -94.5t-105 -37.5q-33 0 -59.5 10t-44.5 28t-27.5 42t-9.5 52z M1037 121q0 58 37 96.5t104 38.5q68 0 105 -38.5t37 -96.5q0 -57 -37 -94.5t-105 -37.5q-33 0 -59.5 10t-44.5 28t-27.5 42t-9.5 52z" />
<glyph unicode="&#x202f;" horiz-adv-x="388" />
<glyph unicode="&#x2039;" horiz-adv-x="626" d="M108 528v19l288 390h167l-247 -400l247 -399h-167z" />
<glyph unicode="&#x203a;" horiz-adv-x="617" d="M84 138l247 399l-247 400h167l288 -390v-19l-288 -390h-167z" />
<glyph unicode="&#x205f;" horiz-adv-x="485" />
<glyph unicode="&#x20ac;" d="M94 527v141h172v128h-172v141h173q7 133 51 234t118.5 168.5t175 101.5t221.5 34q62 0 120.5 -8.5t118.5 -22.5l-28 -205q-45 15 -97.5 24.5t-105.5 9.5q-71 0 -128 -19.5t-98.5 -61t-66 -105t-29.5 -150.5h355v-141h-356v-128h356v-141h-356q3 -93 27 -158.5t66 -107 t99.5 -61t128.5 -19.5q110 0 205 33l28 -204q-58 -14 -120.5 -21.5t-127.5 -7.5q-120 0 -221 34t-174.5 102.5t-116 170.5t-46.5 239h-172z" />
<glyph unicode="&#x2122;" horiz-adv-x="1289" d="M109 1361v95h396v-95h-138v-443h-117v443h-141zM579 916v540h137l129 -381l133 381h133v-540h-111v373l-124 -373h-62l-124 372v-372h-111z" />
<glyph unicode="&#x25fc;" horiz-adv-x="1080" d="M0 0v1080h1080v-1080h-1080z" />
<glyph unicode="&#xfb02;" horiz-adv-x="1249" d="M45 902v180h165v102q0 90 26.5 160t75.5 117t119.5 71.5t158.5 24.5q35 0 69.5 -5t66.5 -13l-6 -190q-20 4 -43.5 6t-49.5 2q-84 0 -129 -44t-45 -129v-102h220v-180h-220v-902h-243v902h-165zM866 0v1536h243v-1536h-243z" />
<glyph unicode="&#xfb03;" horiz-adv-x="1918" d="M45 902v180h165v102q0 90 26.5 160t75.5 117t119.5 71.5t158.5 24.5q35 0 69.5 -5t66.5 -13l-6 -190q-20 4 -43.5 6t-49.5 2q-84 0 -129 -44t-45 -129v-102h220v-180h-220v-902h-243v902h-165zM750 902v180h165v68q0 99 30 174.5t86 127.5t137.5 78.5t183.5 26.5 q80 0 153.5 -17t152.5 -43l-37 -201q-49 17 -111.5 32.5t-140.5 15.5q-111 0 -161 -48.5t-50 -145.5v-68h213v-180h-213v-902h-243v902h-165zM1530 0v1082h243v-1082h-243z" />
<glyph unicode="&#xfb04;" horiz-adv-x="1975" d="M45 902v180h165v102q0 90 26.5 160t75.5 117t119.5 71.5t158.5 24.5q35 0 69.5 -5t66.5 -13l-6 -190q-20 4 -43.5 6t-49.5 2q-84 0 -129 -44t-45 -129v-102h220v-180h-220v-902h-243v902h-165zM771 902v180h165v102q0 90 26.5 160t75.5 117t119.5 71.5t158.5 24.5 q35 0 69.5 -5t66.5 -13l-6 -190q-20 4 -43.5 6t-49.5 2q-84 0 -129 -44t-45 -129v-102h220v-180h-220v-902h-243v902h-165zM1592 0v1536h243v-1536h-243z" />
</font>
</defs>
</svg>
