<?xml version="1.0" standalone="no"?>
<!DOCTYPE svg PUBLIC "-//W3C//DTD SVG 1.1//EN" "http://www.w3.org/Graphics/SVG/1.1/DTD/svg11.dtd" >
<svg xmlns="http://www.w3.org/2000/svg" xmlns:xlink="http://www.w3.org/1999/xlink" version="1.1">
<metadata>
Created by FontForge 20150318 at Fri Mar 20 13:04:35 2015
 By uniteet7
(c) 2000 Nick Curtis. All Rights Reserved. Generated by Fontographer 3.52 
</metadata>
<defs>
<font id="0YqrQ5IG" horiz-adv-x="200" >
  <font-face 
    font-family="0YqrQ5IG"
    font-weight="400"
    font-stretch="normal"
    units-per-em="1000"
    panose-1="0 0 0 0 0 0 0 0 0 0"
    ascent="800"
    descent="-200"
    x-height="224"
    cap-height="582"
    bbox="-203 -300 896 726"
    underline-thickness="50"
    underline-position="-55"
    unicode-range="U+0020-F002"
  />
<missing-glyph 
 />
    <glyph glyph-name=".notdef" 
 />
    <glyph glyph-name="glyph1" horiz-adv-x="0" 
 />
    <glyph glyph-name="glyph2" 
 />
    <glyph glyph-name="space" unicode=" " 
 />
    <glyph glyph-name="space" unicode="&#xa0;" 
 />
    <glyph glyph-name="exclam" unicode="!" horiz-adv-x="130" 
d="M95 36q0 -18 -13 -30.5t-31 -12.5q-19 0 -32 12.5t-13 30.5q0 19 13 32t32 13q18 0 31 -13t13 -32v0zM125 561l-21 -21q-5 5 -11.5 8.5t-14.5 3.5h-1.5h-1.5v-412q0 -2 1.5 -3.5t3.5 -1.5q1 0 1.5 0.5l0.5 0.5q2 1 3.5 2.5t2.5 3.5l14 -27q-8 -7 -17 -10t-20 -3
q-25 0 -42 17t-17 41v351q0 29 20.5 49.5t48.5 20.5q14 0 27 -5t23 -15v0z" />
    <glyph glyph-name="quotedbl" unicode="&#x22;" horiz-adv-x="187" 
d="M84 520l-42 -56l-23 17l17 23q-2 0 -3.5 1t-3.5 2t-3.5 2t-3.5 2q-8 7 -12.5 16.5t-4.5 19.5q0 7 2 13.5t6 12.5q7 9 16.5 13.5t19.5 4.5h4.5t4.5 -1q5 -1 9.5 -3t8.5 -5q8 -7 12.5 -16t4.5 -20q0 -7 -2 -13.5t-7 -12.5v0zM174 520l-42 -56l-23 17l17 23q-2 0 -3.5 1
t-3.5 2t-3.5 2t-3.5 2q-8 7 -12.5 16.5t-4.5 19.5q0 7 2 13.5t6 12.5q7 9 16.5 13.5t19.5 4.5h4.5t4.5 -1q5 -1 9.5 -3t8.5 -5q8 -7 12.5 -16t4.5 -20q0 -7 -2 -13.5t-7 -12.5v0z" />
    <glyph glyph-name="numbersign" unicode="#" horiz-adv-x="500" 
 />
    <glyph glyph-name="dollar" unicode="$" horiz-adv-x="193" 
d="M184 257q0 -24 -19.5 -39.5t-42.5 -21.5q-4 0 -7.5 -1t-7.5 -1v-102h-29v104q-2 0 -4.5 0.5t-4.5 1.5q-20 5 -37 17t-22 31q0 1 -0.5 2.5t-0.5 2.5v2.5v2.5q0 13 7.5 23t21.5 11v0h1v0v0q18 0 31.5 -14.5t14.5 -31.5v-1.5v-1.5v-4t-1 -4q0 -2 -1 -4l-2 -4q4 -1 8.5 -1.5
t9.5 -0.5q6 0 12 1t10 5q2 1 3 2.5t2 2.5q0 1 0.5 2.5t0.5 2.5q0 4 -7 11t-17 15l-2.5 2.5t-3.5 2.5q-8 6 -15.5 12t-11.5 9q-21 15 -38 31t-17 36q0 23 17.5 37t37.5 20q2 1 4 1.5t4 0.5v110h29v-109q2 0 4.5 -0.5t4.5 -0.5q19 -3 35.5 -13t21.5 -30q0 -1 0.5 -2.5
t0.5 -2.5v-2.5v-2.5q0 -12 -7 -21.5t-21 -10.5v0v0h-1v0q-17 0 -29.5 14t-13.5 30v1.5v1.5v2.5t1 2.5q0 1 0.5 2.5t0.5 2.5h-2t-1 1h-2h-2h-3h-3q-8 -1 -14.5 -4.5t-6.5 -10.5q0 -3 7 -9.5t16 -13.5q1 -1 2.5 -2t3.5 -3l14 -10t11 -8q23 -16 41.5 -33t18.5 -39v0z" />
    <glyph glyph-name="percent" unicode="%" horiz-adv-x="500" 
 />
    <glyph glyph-name="ampersand" unicode="&#x26;" horiz-adv-x="577" 
d="M531 311q-16 -16 -36 -20.5t-42 -4.5h-11.5t-10.5 1h-11.5h-11.5q26 -20 38.5 -47.5t12.5 -57.5q0 -4 -0.5 -9t-0.5 -9q-3 -18 -9.5 -36t-16.5 -34q7 -19 10 -37.5t3 -37.5q0 -37 -14 -72t-43 -63q-28 -29 -63.5 -42.5t-72.5 -13.5q-52 0 -98.5 26.5t-73.5 76.5l25 12
q20 -37 56.5 -61t76.5 -24q23 0 44.5 9.5t40.5 29.5q23 25 34 57t11 65v6v6q-30 -19 -65.5 -28t-72.5 -9q-85 0 -156.5 50.5t-71.5 144.5q0 66 46 104.5t101 63.5q17 8 34 15t32 14q-1 2 -1.5 4t-0.5 4q-5 18 -9.5 37.5t-6.5 40.5q-1 5 -1 10v10q0 26 7 49t23 41
q13 14 28.5 22t30.5 10q4 1 7 1h6q40 -1 71.5 -31.5t31.5 -77.5q0 -57 -36 -80.5t-79 -40.5l-14 -6l-14 -6q7 -15 15.5 -29t17.5 -28q46 -1 91.5 -1h91.5q22 0 35.5 14.5t15.5 31.5v3.5v3.5q0 14 -8.5 25t-26.5 11q-6 0 -9.5 -1t-5.5 -2t-3.5 -1.5t-3.5 -0.5q-2 -1 -6 3
t-14 16q4 3 7.5 5t6.5 4q7 4 14.5 5.5t13.5 1.5q26 0 45.5 -20.5t19.5 -48.5q0 -4 -0.5 -9t-1.5 -9q-3 -9 -8 -18t-14 -18v0zM364 63q-9 43 -29 83.5t-43 79.5q-6 9 -11.5 19t-10.5 19q-3 6 -6 11.5t-6 10.5q-25 -2 -44 -21.5t-19 -45.5v-4t1 -4q0 -2 0.5 -4t1.5 -4
q5 8 11 11.5t13 2.5q2 0 3.5 -0.5t3.5 -0.5q14 -4 26 -16.5t14 -26.5q1 -2 1 -4v-4q0 -7 -2.5 -13t-9.5 -11q-4 -3 -8.5 -4.5t-9.5 -1.5q-5 1 -10.5 2.5t-10.5 4.5q-27 12 -39.5 33.5t-12.5 44.5v2v2q1 30 21 56t56 34q-5 11 -9.5 22t-9.5 23q-1 -1 -7 -3.5t-13 -5.5h-0.5
h-0.5q-7 -3 -13 -6l-6 -3q-47 -22 -72.5 -65t-25.5 -91q0 -31 11.5 -61.5t36.5 -55.5q24 -25 52.5 -36t58.5 -11q31 0 61 11t57 31v0zM417 127q6 14 9 28t3 28q0 41 -26 72t-75 32h-18q7 -10 14 -19.5t14 -19.5q2 -2 3.5 -4.5t3.5 -4.5q20 -27 38.5 -54.5t33.5 -57.5v0z
M372 506q0 39 -23 58.5t-51 19.5t-50.5 -19.5t-22.5 -58.5q0 -28 5.5 -54.5t15.5 -52.5l10 4l10 4q4 2 9 3.5t9 3.5q33 12 60.5 31.5t27.5 60.5v0z" />
    <glyph glyph-name="quotesingle" unicode="'" horiz-adv-x="98" 
d="M84 520l-42 -56l-23 17l17 23q-2 0 -3.5 1t-3.5 2t-3.5 2t-3.5 2q-8 7 -12.5 16.5t-4.5 19.5q0 7 2 13.5t6 12.5q7 9 16.5 13.5t19.5 4.5h4.5t4.5 -1q5 -1 9.5 -3t8.5 -5q8 -7 12.5 -16t4.5 -20q0 -7 -2 -13.5t-7 -12.5v0z" />
    <glyph glyph-name="parenleft" unicode="(" horiz-adv-x="189" 
d="M180 -100q-48 20 -78.5 53.5t-51.5 79.5q-19 44 -30 99t-11 116q0 22 1.5 45.5t4.5 46.5q12 81 49.5 153t115.5 103v-33q-30 -19 -46 -49t-26 -62q-13 -42 -19.5 -94t-6.5 -110q0 -28 1.5 -64t7.5 -73q8 -54 28.5 -103t60.5 -74v-34v0z" />
    <glyph glyph-name="parenright" unicode=")" horiz-adv-x="189" 
d="M8 -100v33q40 26 60.5 75t28.5 103q6 37 7.5 73t1.5 64q0 58 -6.5 110t-19.5 94q-10 32 -26 62t-46 49v33q78 -31 115.5 -103t49.5 -153q3 -23 4.5 -46.5t1.5 -45.5q0 -61 -10.5 -116t-30.5 -99q-21 -46 -51.5 -79.5t-78.5 -52.5v-1z" />
    <glyph glyph-name="asterisk" unicode="*" horiz-adv-x="180" 
d="M172 483l-14 -25l-53 30v-61h-29v62l-53 -30l-15 24l53 31l-53 30l15 25l53 -31v62h29v-61l53 31l14 -25l-53 -31l53 -31v0z" />
    <glyph glyph-name="plus" unicode="+" horiz-adv-x="500" 
 />
    <glyph glyph-name="comma" unicode="," horiz-adv-x="98" 
d="M84 10l-42 -56l-23 17l17 23q-2 1 -3.5 2t-3.5 2t-3.5 1.5t-3.5 1.5q-8 7 -12.5 16.5t-4.5 19.5q0 7 2 13.5t6 12.5q7 9 16.5 13.5t19.5 4.5h4.5t4.5 -1q5 -1 9.5 -3t8.5 -5q8 -7 12.5 -16t4.5 -19q0 -7 -2 -14t-7 -13v0z" />
    <glyph glyph-name="hyphen" unicode="-" horiz-adv-x="150" 
d="M143 207h-136v66h136v-66v0z" />
    <glyph glyph-name="period" unicode="." horiz-adv-x="130" 
d="M95 36q0 -18 -13 -30.5t-31 -12.5q-19 0 -32 12.5t-13 30.5q0 19 13 32t32 13q18 0 31 -13t13 -32v0z" />
    <glyph glyph-name="slash" unicode="/" horiz-adv-x="272" 
d="M249 663l-193 -843h-47l192 843h48v0z" />
    <glyph glyph-name="zero" unicode="0" horiz-adv-x="345" 
d="M271 59q-21 -27 -47.5 -41.5t-53.5 -17.5h-5.5h-5.5q-31 0 -59.5 15t-51.5 44q-22 29 -33.5 65.5t-11.5 73.5q0 38 11.5 73.5t33.5 63.5q21 28 50 44t62 16q32 0 61 -16t50 -44q23 -28 34 -64t11 -74q0 -37 -11 -73t-34 -65v0zM249 77q20 25 29.5 56t9.5 64t-9.5 64.5
t-29.5 56.5q-17 23 -40 35.5t-49 12.5q-15 0 -28.5 -12.5t-24.5 -33.5q-12 -23 -18.5 -54.5t-6.5 -68.5q0 -36 6.5 -67.5t18.5 -54.5q11 -22 24.5 -34t28.5 -12q26 0 49 13t40 35v0z" />
    <glyph glyph-name="one" unicode="1" horiz-adv-x="236" 
d="M214 0h-214v29h72v337h-48v29h122v-366h68v-29v0z" />
    <glyph glyph-name="two" unicode="2" horiz-adv-x="259" 
d="M223 0h-219q19 31 38.5 62t38.5 62q20 30 39.5 61t38.5 62q7 11 11.5 25t4.5 28q0 13 -4.5 25t-13.5 22q-6 7 -12.5 10.5t-13.5 5.5q-3 1 -6.5 1.5t-6.5 0.5h-4.5t-5.5 -1q-12 -2 -23.5 -9.5t-20.5 -17.5q-12 -14 -19.5 -33t-7.5 -41l-29 1v2v1q2 45 29.5 82.5t74.5 44.5
q4 1 7.5 1h7.5q23 0 44 -8.5t37 -25.5t23.5 -39.5t7.5 -46.5v-5.5v-5.5q-2 -20 -8.5 -39t-17.5 -35l1 1l-103 -162h112v-29v0z" />
    <glyph glyph-name="three" unicode="3" horiz-adv-x="277" 
d="M252 129q0 -27 -11 -50.5t-29 -40.5q-21 -19 -46.5 -28.5t-51.5 -9.5q-33 0 -63.5 15.5t-50.5 46.5l24 15q12 -18 31 -30.5t40 -15.5h1.5h1.5h0.5h1.5q3 0 5.5 0.5t4.5 0.5q9 3 17.5 8t14.5 11q1 1 2.5 2t2.5 2q14 15 21 34.5t7 39.5t-6.5 38t-19.5 33q-12 14 -27.5 21
t-33.5 7v1h-15.5h-16.5l105 137h-126v29h185l-105 -137q54 1 95.5 -36t41.5 -93v0z" />
    <glyph glyph-name="four" unicode="4" horiz-adv-x="352" 
d="M329 67h-51v-125h-73v125h-204l139 328h80l-126 -299h111v237h73v-237h51v-29v0z" />
    <glyph glyph-name="five" unicode="5" horiz-adv-x="265" 
d="M246 138q0 -55 -38.5 -96.5t-94.5 -41.5q-35 0 -65.5 18t-47.5 49l24 14q11 -18 27.5 -31t36.5 -18h2h2h1h2q14 0 25.5 7.5t20.5 17.5q14 17 21.5 38.5t7.5 44.5v4.5v4.5q-1 19 -8 38t-20 33q-10 13 -22 18.5t-24 4.5q-13 0 -25.5 -5t-24.5 -14q-3 -2 -6 -4.5t-5 -4.5
q-3 -2 -6 -4.5t-6 -4.5v189h195v-29h-166v-106q16 8 33.5 12t35.5 4q28 0 54 -11.5t44 -34.5q12 -16 19.5 -39t7.5 -53v0z" />
    <glyph glyph-name="six" unicode="6" horiz-adv-x="344" 
d="M315 216q1 -5 1 -10.5v-10.5q0 -9 -0.5 -18t-2.5 -18q-8 -57 -42.5 -106t-93.5 -56q-4 -1 -8.5 -1h-8.5q-28 0 -53.5 11.5t-45.5 30.5q-28 28 -42.5 66.5t-15.5 78.5v5v4q0 32 8 63.5t24 57.5l164 269h88l-117 -193q59 -5 95 -51t47 -100q1 -6 1.5 -11.5t1.5 -10.5v0z
M285 224q-1 6 -2 11.5t-3 11.5q-12 43 -42.5 79t-78.5 35h-2.5h-3.5l-120 -197q1 -7 2.5 -14t3.5 -14q12 -42 43 -77.5t78 -34.5h1.5h1.5l122 200v0z" />
    <glyph glyph-name="seven" unicode="7" horiz-adv-x="268" 
d="M205 395l-165 -467h-79l154 438h-109v29h199v0z" />
    <glyph glyph-name="eight" unicode="8" horiz-adv-x="359" 
d="M286 46q-22 -21 -50 -32.5t-57 -13.5h-5h-6q-32 0 -62.5 12t-54.5 34q-25 24 -37.5 53t-11.5 59q0 47 27.5 87.5t76.5 59.5q-26 16 -39.5 41t-13.5 52q0 21 8.5 41.5t25.5 36.5t38.5 24t43.5 7h4.5h5.5q19 -2 37.5 -9.5t33.5 -21.5q13 -13 21 -28.5t11 -31.5
q1 -4 1.5 -8.5t0.5 -9.5q0 -27 -13.5 -52t-39.5 -41q50 -19 77 -60t27 -88q0 -30 -11.5 -58.5t-37.5 -52.5v0zM307 158q0 56 -42 93t-97 37q-33 0 -53.5 -26.5t-28.5 -58.5q-3 -12 -4.5 -23.5t-1.5 -21.5t1.5 -22t4.5 -24q9 -31 29 -57t53 -26q54 0 96.5 36.5t42.5 92.5v0z
M255 398q0 35 -26 58t-61 23q-14 0 -23 -14t-14 -31q-2 -10 -3.5 -20t-1.5 -16q0 -7 1 -16.5t4 -19.5q5 -18 14 -32t23 -14q35 0 61 23.5t26 58.5v0z" />
    <glyph glyph-name="nine" unicode="9" horiz-adv-x="342" 
d="M283 79l-164 -269h-88l117 193q-59 5 -95 51t-47 100q-1 6 -1.5 11.5t-1.5 10.5t-1 10.5v10.5q0 9 0.5 18t2.5 18q8 57 42.5 106t93.5 57q5 1 9 1h8q29 0 54 -11.5t45 -31.5q28 -28 42.5 -66.5t15.5 -78.5v-5v-4q0 -32 -8 -63.5t-24 -57.5v0zM285 228q-1 7 -2.5 14
t-3.5 14q-12 42 -43 77.5t-78 34.5h-1.5h-1.5l-122 -200q1 -6 2 -11.5t3 -11.5q12 -43 42.5 -79t78.5 -35h3.5h2.5l120 197v0z" />
    <glyph glyph-name="colon" unicode=":" horiz-adv-x="130" 
d="M95 36q0 -18 -13 -30.5t-31 -12.5q-19 0 -32 12.5t-13 30.5q0 19 13 32t32 13q18 0 31 -13t13 -32v0zM95 186q0 -18 -13 -31t-31 -13q-19 0 -32 13t-13 31q0 19 13 32t32 13q18 0 31 -13t13 -32v0z" />
    <glyph glyph-name="semicolon" unicode=";" horiz-adv-x="130" 
d="M86 10l-42 -56l-23 17l17 23q-2 1 -3.5 2t-3.5 2t-3.5 1.5t-3.5 1.5q-8 7 -12.5 16.5t-4.5 19.5q0 7 2 13.5t6 12.5q7 9 16.5 13.5t19.5 4.5h4.5t4.5 -1q5 -1 9.5 -3t8.5 -5q8 -7 12.5 -16t4.5 -20q0 -7 -2 -13.5t-7 -12.5v0zM95 186q0 -18 -13 -31t-31 -13q-19 0 -32 13
t-13 31q0 19 13 32t32 13q18 0 31 -13t13 -32v0z" />
    <glyph glyph-name="less" unicode="&#x3c;" horiz-adv-x="500" 
 />
    <glyph glyph-name="equal" unicode="=" horiz-adv-x="500" 
 />
    <glyph glyph-name="greater" unicode="&#x3e;" horiz-adv-x="500" 
 />
    <glyph glyph-name="question" unicode="?" horiz-adv-x="337" 
d="M192 36q0 -18 -13 -30.5t-32 -12.5q-18 0 -31 12.5t-13 30.5q0 19 13 32t31 13q19 0 32 -13t13 -32v0zM328 411q0 -9 -1 -19t-3 -19q-6 -33 -24 -63t-49 -43q-7 -3 -15.5 -7.5t-17.5 -8.5q-23 -13 -42 -32t-19 -45v-10.5v-16.5v-15v-11h-29v11v15v16.5v10.5
q0 38 20.5 69.5t48.5 53.5q28 21 40.5 50.5t12.5 63.5q0 31 -7.5 57.5t-22.5 45.5q-11 14 -28 24t-36 12q-3 1 -5.5 1h-5.5h-3.5t-3.5 -1q-2 0 -3.5 -0.5t-3.5 -0.5q-37 -8 -65 -35t-31 -66q2 0 4.5 -0.5t4.5 -0.5q13 -4 24.5 -15.5t14.5 -24.5v-2.5v-2.5q-1 -4 -2.5 -8.5
t-4.5 -8.5t-7.5 -6.5t-9.5 -3.5q-1 -1 -2.5 -1h-3.5h-4t-3 1q-15 3 -26.5 15.5t-12.5 27.5q-1 6 -1.5 11.5t-0.5 10.5q0 62 49.5 101.5t111.5 39.5q69 0 115.5 -51t46.5 -119v0z" />
    <glyph glyph-name="at" unicode="@" horiz-adv-x="938" 
d="M630 635l-243 -718q-14 -42 -51 -67.5t-80 -25.5q-4 0 -8.5 0.5t-8.5 0.5q-5 1 -9 2t-9 2l8 35q6 -1 12 -1.5t12 -0.5q33 0 60.5 20.5t37.5 50.5l218 642q-13 -5 -27 -7.5t-28 -2.5q-34 0 -70 11t-72 25q-3 2 -6.5 3t-6.5 3q-39 15 -77.5 27.5t-74.5 13.5h-3.5h-4.5
q-10 0 -24 -1.5t-29 -6.5q-19 -6 -36 -19.5t-25 -37.5q-2 -7 -3.5 -14.5t-1.5 -14.5q1 -26 15.5 -48t43.5 -30l-8 -37q-43 11 -65.5 45t-22.5 74q0 5 0.5 10t1.5 10q0 5 1.5 10t2.5 10q17 50 54.5 69t82.5 19q12 0 24 -1t24 -3q32 -5 62.5 -14.5t57.5 -19.5q9 -4 21.5 -8.5
t26.5 -9.5q15 -5 31.5 -10t33.5 -9q13 -3 26.5 -4.5t25.5 -1.5q26 0 46.5 9.5t28.5 34.5l36 -14v0zM896 119l-154 -81q6 -2 12 -3.5t13 -1.5h4.5t4.5 1q24 2 45 16.5t32 32.5l33 -21q-17 -28 -49.5 -47t-67.5 -19q-4 0 -8.5 0.5t-8.5 0.5q-4 1 -8.5 2t-8.5 2q-27 9 -39 25.5
t-12 35.5q0 5 1 10l2 10q10 36 46 65.5t80 29.5q5 0 9 -0.5t9 -0.5q4 -1 8.5 -2t8.5 -3t11 -6.5t15 -12.5q6 -6 12 -14.5t10 -18.5v0zM841 134l-0.5 0.5l-0.5 0.5q-1 0 -1.5 0.5l-0.5 0.5q-5 2 -10.5 2.5t-10.5 0.5q-4 0 -7.5 -0.5t-6.5 -0.5q-27 -5 -50.5 -23.5
t-28.5 -41.5l117 61v0zM755 618q-3 0 -6.5 -0.5t-6.5 -1.5q-14 -4 -26.5 -15.5t-17.5 -25.5l-147 -436q2 2 5 4t5 4q11 8 23.5 15t24.5 10q5 2 9.5 2.5t8.5 0.5q13 0 22.5 -5t16.5 -15q8 -10 10.5 -23t2.5 -27v-7.5t-1 -7.5q-1 -15 -4 -29t-7 -26q-2 -9 -4.5 -16t-4.5 -12
l-36 15q2 4 4 10l4 12q3 8 5 17t4 19q2 7 2.5 15t0.5 15q0 8 -1.5 14.5t-4.5 10.5q-1 1 -2 1.5t-4 0.5q-6 0 -12 -1.5t-12 -4.5q-21 -9 -40.5 -30t-34.5 -45q-9 -13 -15 -25.5t-10 -23.5l-37 15l193 568q10 26 35.5 45.5t54.5 19.5l3 -37v0z" />
    <glyph glyph-name="A" unicode="A" horiz-adv-x="567" 
d="M555 0h-215v29h73v87q0 38 -9.5 73.5t-36.5 68.5q-19 23 -43.5 39.5t-51.5 25.5q-11 -35 -21 -70.5t-19 -71.5q-14 -51 -28.5 -102t-33.5 -100q17 -6 34 -9t34 -3v-29l-20 2t-19 2q-10 2 -20 4.5t-20 5.5q-30 -70 -75 -114t-114 -44q-47 0 -85.5 29t-38.5 79
q0 36 24.5 61t57.5 25q8 0 16.5 -2t16.5 -6q1 0 1.5 -0.5t1.5 -0.5q11 -6 20.5 -18.5t11.5 -25.5v-2v-2q-1 -7 -3.5 -13t-9.5 -11q-5 -3 -9.5 -4.5t-8.5 -1.5q-14 0 -26.5 12.5t-17.5 27.5q0 3 -0.5 6t-0.5 6v1.5v0.5v1.5v1.5q-21 -4 -33 -19.5t-12 -36.5q0 -36 27 -56
t60 -23h4h4q58 0 96.5 39.5t66.5 101.5q-56 28 -91.5 81.5t-35.5 116.5v9.5t1 8.5q8 83 68 132.5t137 49.5h10t11 -1q5 0 10 -1l10 -2q4 13 9 26t11 27q27 64 73 117.5t122 53.5h77v-29h-59v-524h69v-29v0zM244 330q-8 2 -16.5 2.5t-16.5 0.5q-66 0 -117.5 -42t-57.5 -113
v-4v-4q-1 -3 -1 -5v-4q1 -54 31 -100t78 -70q19 48 33.5 98.5t27.5 101.5q1 4 2 7.5t2 7.5q8 31 16.5 62t18.5 62v0zM412 244v297q-46 -21 -77 -72t-54 -119q41 -13 75 -40.5t56 -65.5v0z" />
    <glyph glyph-name="B" unicode="B" horiz-adv-x="511" 
d="M455 441q0 -43 -25.5 -70t-63.5 -41q60 -17 95.5 -64t35.5 -101v-8.5t-1 -8.5q-3 -26 -15.5 -51t-35.5 -48q-32 -31 -68.5 -40t-78.5 -9h-107.5h-106.5v29h72v129q-68 24 -109.5 84.5t-41.5 133.5q0 102 67 167.5t169 63.5q15 22 33 42t37 37l20 -21q-15 -13 -25.5 -28.5
t-20.5 -32.5q71 -8 120.5 -45.5t49.5 -117.5v0zM384 69q19 22 28 47.5t9 51.5q0 54 -35 98t-97 44h-29.5h-28.5v-136q29 0 57.5 9t52.5 26l17 -23q-28 -19 -60.5 -30t-66.5 -11v-116h12h11q6 -1 11.5 -1h11.5q30 0 57 7t50 34v0zM221 576h-4h-4h-4h-4q-84 -10 -128 -70
t-43 -131v-2.5v-2.5q1 -56 31.5 -106.5t90.5 -75.5v75.5v74.5q0 63 17 123.5t48 114.5v0zM374 451q0 51 -30 80t-77 39q-26 -55 -31 -112.5t-5 -117.5q60 0 101.5 22t41.5 89v0z" />
    <glyph glyph-name="C" unicode="C" horiz-adv-x="478" 
d="M461 97q-32 -40 -76.5 -65.5t-95.5 -30.5h-6h-6q-3 -1 -6 -1h-6q-117 0 -190.5 90t-73.5 201q0 118 79 204.5t200 86.5q6 0 12 -0.5t12 -1.5q54 -7 99 -44.5t45 -96.5q0 -24 -14 -42t-33 -18q-4 0 -8.5 1t-8.5 4q-4 2 -8.5 6t-8.5 10q-6 8 -8.5 15.5t-2.5 14.5
q1 14 9.5 22t21.5 8q4 0 8 -1t8 -3l8 -6t8 -8q-1 44 -35.5 72.5t-74.5 36.5q-5 1 -10 1.5t-10 0.5v-1q-49 0 -87.5 -18.5t-64.5 -50.5q-30 -37 -45 -88t-15 -106v-1.5v-1.5q1 -97 51.5 -177.5t153.5 -79.5q6 0 11.5 0.5t10.5 1.5q39 7 75.5 31.5t59.5 52.5l22 -18v0z" />
    <glyph glyph-name="D" unicode="D" horiz-adv-x="609" 
d="M508 496q44 -44 64.5 -96.5t19.5 -106.5q0 -112 -79 -202.5t-210 -90.5h-216v29h73v126q-69 20 -114 77.5t-45 130.5q0 98 66 158t161 61q18 29 40 55.5t47 48.5l19 -21l-2.5 -2.5l-2.5 -2.5q-2 -1 -3 -2.5t-3 -2.5q-15 -19 -26.5 -37.5t-20.5 -35.5q68 0 125.5 -17.5
t106.5 -68.5v0zM516 291q0 98 -65 180t-170 82h-8.5h-9.5q-19 -44 -24 -90.5t-5 -93.5v-15.5v-15.5v-41.5v-40.5v-40.5v-41.5q28 1 54.5 9.5t48.5 23.5l16 -23q-26 -18 -56.5 -28t-62.5 -11v-116h47q105 0 170 81.5t65 180.5v0zM212 552q-78 -4 -130.5 -56.5t-52.5 -132.5
q0 -61 37 -109.5t94 -68.5v23.5v23.5q-1 83 5 162.5t47 157.5v0z" />
    <glyph glyph-name="E" unicode="E" horiz-adv-x="392" 
d="M384 135q-16 -67 -69.5 -101t-115.5 -34q-37 0 -73 12.5t-65 37.5q-26 23 -40 50.5t-16 55.5q-1 3 -1 7v7q0 51 32 95.5t87 65.5q-35 16 -59.5 46.5t-24.5 70.5q0 59 45.5 94.5t99.5 38.5h5.5h5.5q44 0 81.5 -23.5t47.5 -76.5q1 -3 1 -6v-6q0 -15 -8.5 -23t-20.5 -8
q-4 0 -7.5 1t-7.5 3q-6 2 -11 6t-9 10q-3 5 -5.5 11t-3.5 13q-1 2 -1 4v4q0 11 6 19.5t20 9.5q-14 17 -34 25t-42 9h-3.5h-3.5q-41 -1 -61.5 -31t-20.5 -67v-4v-4q1 -20 8.5 -38.5t21.5 -32.5q10 -10 25 -19t31 -12q4 0 8 -0.5t8 -0.5h3.5h2.5h61v-29h-10h-9q-39 1 -73.5 -4
t-66.5 -38q-19 -19 -29 -46t-11 -54v-5v-4q0 -51 29.5 -93t87.5 -42q56 0 99.5 28t57.5 85l28 -7v0z" />
    <glyph glyph-name="F" unicode="F" horiz-adv-x="587" 
d="M569 445h-28v108h-176q-4 -23 -5 -53t-1 -70v-23.5v-23.5v-23.5v-23.5h109v82h29v-193h-29v82h-109v-13.5v-13.5v-13v-13q0 -21 -1 -41t-5 -39h11.5t11.5 1t11.5 2t11.5 2l6 -28q-12 -3 -24.5 -4.5t-25.5 -1.5h-4.5h-4.5q-21 -67 -72 -114t-125 -47q-58 0 -104 35t-46 99
q0 42 31.5 74t69.5 33h1.5h1.5q15 0 29 -5.5t27 -18.5q10 -10 16.5 -24.5t8.5 -30.5v-2.5v-3.5v-4.5t-1 -4.5q0 -5 -1.5 -9.5t-4.5 -8.5q-5 -10 -14 -16t-20 -5q-3 0 -6 0.5t-6 1.5q-14 5 -22 16t-10 23q0 2 -0.5 4.5t-0.5 5.5q0 12 6.5 21t19.5 9q3 0 6.5 -0.5t7.5 -2.5
q3 -1 6 -2.5t5 -3.5q-7 17 -20 24.5t-27 7.5h-4.5t-5.5 -1q-25 -4 -45.5 -25.5t-20.5 -51.5q0 -50 37.5 -78t84.5 -28q45 0 74 33.5t44 74.5q3 10 6 19.5t5 18.5q-65 23 -106.5 79t-41.5 126q0 85 53.5 145.5t137.5 71.5q21 36 53.5 62.5t69.5 45.5l14 -25
q-26 -13 -49.5 -33t-34.5 -48h196v-137v0zM305 548q-73 -16 -110 -69t-37 -114q0 -55 31 -104.5t93 -73.5q1 8 1.5 16.5t1.5 17.5v8.5v8.5v96v96q0 35 5 64t15 54v0z" />
    <glyph glyph-name="G" unicode="G" horiz-adv-x="560" 
d="M542 196h-60v-24v-44q0 -25 -0.5 -46.5l-0.5 -21.5q11 -10 18.5 -25t7.5 -32h-29q0 22 -15 35t-34 13q-7 0 -13 -2t-12 -6q-32 -22 -67.5 -32.5t-71.5 -10.5q-50 0 -98.5 21.5t-86.5 64.5q-37 41 -56 90t-21 99v7.5v6.5q0 112 74.5 202.5t204.5 90.5q6 0 12 -0.5t12 -1.5
q54 -7 99 -44.5t45 -96.5q0 -3 -0.5 -6.5t-0.5 -7.5q-3 -14 -11 -27t-23 -17q-3 -1 -6 -1.5t-6 -0.5q-18 1 -28.5 13.5t-13.5 27.5q0 3 -0.5 5.5t-0.5 5.5q0 12 6 21t19 9q3 0 7 -0.5t8 -2.5h-1q6 -2 12 -6t10 -10q-1 43 -34 71t-73 37q-6 1 -11.5 2t-11.5 1v-1
q-110 0 -161 -81.5t-51 -179.5q0 -57 14.5 -107t44.5 -86q29 -35 64.5 -51.5t73.5 -16.5q6 0 11.5 0.5t11.5 1.5q23 3 45.5 11.5t43.5 22.5q5 3 9.5 5.5t9.5 4.5v120h-121v28h256v-28v0z" />
    <glyph glyph-name="H" unicode="H" horiz-adv-x="585" 
d="M566 0h-216v29h73v270h-276v-141v-142q0 -6 -0.5 -12t-0.5 -13q-7 -82 -58 -151t-142 -69h-4h-4q-53 3 -97 37t-44 92q0 24 13.5 43t36.5 27q1 0 2.5 0.5t2.5 0.5q1 1 2.5 1h2.5q16 -1 28.5 -13.5t16.5 -27.5q1 -3 1.5 -5.5t0.5 -5.5q0 -8 -3 -14t-9 -10q-5 -3 -9.5 -4.5
t-8.5 -1.5q-14 0 -25.5 10t-16.5 22q-3 -6 -4.5 -12t-1.5 -12v-5.5t1 -4.5q3 -18 12.5 -33.5t21.5 -25.5q15 -13 35.5 -21t46.5 -8h1.5h1.5q57 0 85 42t36 93q2 12 3 24.5t1 24.5v569h-71v29h216v-29h-69v-225h276v225h-73v29h216v-29h-69v-524h69v-29v0z" />
    <glyph glyph-name="I" unicode="I" horiz-adv-x="237" 
d="M216 0h-216v29h72v524h-72v29h216v-29h-69v-524h69v-29v0z" />
    <glyph glyph-name="J" unicode="J" horiz-adv-x="242" 
d="M219 553h-70v-277.5v-277.5q0 -12 -1 -24t-3 -25q-12 -67 -54.5 -122.5t-116.5 -55.5h-4h-4q-49 3 -89 33.5t-40 86.5v4.5t1 5.5q3 21 18 38.5t35 17.5q8 0 16.5 -4.5t16.5 -14.5q7 -8 9.5 -15.5t2.5 -14.5q0 -12 -9 -19.5t-22 -7.5q-3 0 -7 0.5t-7 2.5q-6 2 -12 6.5
t-11 12.5q-2 -5 -2 -9v-8q0 -30 24 -54t53 -30q4 -1 8 -1.5t8 -0.5v0v0h1v0q47 1 73 36.5t35 78.5q3 14 4.5 27t1.5 25v586h-71v29h216v-29v0z" />
    <glyph glyph-name="K" unicode="K" horiz-adv-x="783" 
d="M772 122q0 -50 -36 -86t-86 -36q-37 0 -70.5 18t-55.5 49q-40 59 -80 117.5t-81 116.5q-1 -2 -2 -9.5t-1 -16.5v-2v-2v-9.5t1 -8.5v-9v-6v-9.5t-1 -9.5q-5 -88 -58.5 -161.5t-152.5 -73.5q-58 1 -103 36.5t-45 97.5q0 44 31 75t74 31q34 0 57 -24t24 -56q0 -27 -12 -39.5
t-28 -12.5h-1.5h-1.5q-16 1 -29.5 14t-14.5 34v1.5v1.5q0 13 8 21.5t20 8.5h3.5t3.5 -1q1 0 3 -0.5t3 -1.5q3 -1 6 -2.5t5 -3.5q-7 17 -20 24.5t-29 7.5q-2 0 -4.5 -0.5t-4.5 -0.5q-11 -2 -22 -7.5t-20 -14.5q-12 -12 -17 -26t-5 -30q0 -3 0.5 -6.5t0.5 -7.5q3 -17 11.5 -33
t21.5 -28q15 -13 37 -21.5t49 -8.5q54 0 84.5 43.5t42.5 94.5q6 24 8.5 46.5t2.5 41.5v157.5v157.5h-73v29h216v-29h-69l-1 -199l5 -6q23 26 45.5 51.5t44.5 51.5q23 26 45.5 51.5t44.5 51.5q11 12 23.5 18.5t25.5 8.5h5.5h5.5q31 0 56.5 -22t24.5 -54q0 -9 -2.5 -18
t-7.5 -19q-4 -7 -10.5 -11t-13.5 -3q-2 0 -3.5 0.5t-3.5 0.5q-14 4 -26 16.5t-14 26.5q-1 2 -1 4v4q0 7 2.5 13.5t9.5 10.5q4 3 8.5 4.5t9.5 0.5q3 0 6 -0.5t6 -1.5h0.5t1.5 -1q-7 10 -18.5 15.5t-24.5 5.5h-0.5h-1.5q-10 -1 -19.5 -5.5t-16.5 -12.5q-39 -44 -77.5 -88
t-76.5 -88q46 -66 91.5 -132t90.5 -132q1 -2 2 -3.5t3 -2.5q12 -17 28.5 -31.5t37.5 -17.5q1 0 2.5 -0.5t2.5 -0.5h2.5h2.5q24 0 41.5 20t22.5 44q1 5 1.5 9.5t0.5 9.5h29v0z" />
    <glyph glyph-name="L" unicode="L" horiz-adv-x="455" 
d="M733 -33v-0.5v-1.5q-1 0 -1 -0.5v-0.5q0 -3 -1 -6t-4 -10q-16 -47 -48.5 -66.5t-73.5 -19.5q-25 0 -52 6t-54 15q-27 10 -54 22.5t-52 24.5q-28 15 -52.5 29t-42.5 24q-30 16 -59 31t-56 28q-22 -27 -52.5 -42t-64.5 -16q-32 0 -48.5 18t-16.5 40q1 23 17.5 43t50.5 21
h1.5h1.5h0.5h1.5q17 0 36.5 -4.5t41.5 -12.5q5 15 7 33t2 38v119.5v118.5q0 10 1 21t3 21q10 59 47.5 107.5t102.5 48.5q45 0 82.5 -27.5t37.5 -77.5q0 -25 -16.5 -43t-36.5 -17h-4.5t-4.5 1q-7 1 -13.5 5.5t-12.5 11.5q-7 8 -9.5 15.5t-2.5 14.5q0 13 9.5 20.5t22.5 7.5
q3 0 6 -0.5t5 -1.5q8 -3 15 -8.5t12 -14.5q1 4 1.5 7.5t0.5 6.5q-1 26 -21 44.5t-45 24.5q-4 1 -8.5 1.5t-8.5 0.5v0v0h-1v0q-43 -1 -62.5 -32.5t-23.5 -69.5q-1 -5 -1 -9.5v-9.5v-126v-125q0 -35 -8.5 -67t-24.5 -58q26 -11 52 -23.5t52 -24.5q3 -2 6.5 -3.5t7.5 -3.5
q41 -19 83 -38.5t86 -35.5q34 -12 65.5 -19.5t57.5 -7.5q29 0 52 10.5t36 35.5q2 4 4.5 8t3.5 9l24 -10v0zM142 63l-7.5 2.5t-9.5 2.5q-7 3 -15.5 4.5t-17.5 3.5q-4 0 -8.5 0.5t-8.5 0.5q-14 0 -25.5 -4.5t-16.5 -16.5q-1 -2 -1.5 -3.5t-0.5 -3.5q-1 -2 -1 -3.5v-3.5
q0 -13 10 -21.5t25 -8.5q26 0 45.5 14.5t31.5 36.5v0z" />
    <glyph glyph-name="M" unicode="M" horiz-adv-x="701" 
d="M685 0h-216v29h73v506l-188 -279q14 -25 26 -57t18 -65q2 -11 3 -21.5t1 -20.5q0 -15 -2.5 -29t-7.5 -28q-8 -23 -26 -35t-38 -14h-2.5h-2.5q-16 0 -31.5 7t-26.5 23q-12 16 -17 33t-5 35q0 5 0.5 10t0.5 10q5 31 19 60t30 53l-192 306v-494h69v-29h-169v29h71v524h-71
v29h151l186 -298l201 298h146v-29h-69v-524h69v-29v0zM352 32q2 6 3.5 13.5t1.5 14.5q0 10 -2 21.5t-6 22.5q-4 14 -9.5 27.5t-11.5 25.5q-5 10 -9.5 18t-8.5 15q-11 -16 -21 -37t-14 -42q-1 -7 -2 -13.5t-1 -13.5q0 -13 4 -26.5t12 -24.5q6 -8 16.5 -13.5t21.5 -5.5
q8 0 15 4t11 14v0z" />
    <glyph glyph-name="N" unicode="N" horiz-adv-x="694" 
d="M845 671q2 -6 3 -12t1 -11q0 -28 -21 -45.5t-50 -17.5h-0.5h-0.5h-0.5h-0.5q-3 0 -6 1l-6 2q-14 5 -26 17t-12 26q0 5 1.5 9t4.5 8q5 7 11.5 10t13.5 3q2 0 4.5 -0.5t4.5 -0.5q14 -4 26 -14.5t15 -23.5q7 6 10 13.5t3 14.5v2v2q-2 12 -10 22.5t-20 15.5q-6 2 -12.5 3.5
t-14.5 1.5q-6 0 -12 -1t-12 -3q-41 -13 -57 -51.5t-20 -81.5q-2 -21 -2.5 -41.5t-0.5 -38.5v-5v-6v-470h-23l-269 492v-63.5v-63.5v-63.5v-63.5q0 -7 -0.5 -14t-0.5 -14q-8 -85 -61 -155.5t-147 -70.5q-59 0 -105.5 35.5t-46.5 98.5q0 46 29 73t63 31q4 1 7 1h6q30 0 54 -19
t27 -60q0 -27 -12.5 -39.5t-28.5 -12.5h-1.5h-1.5q-15 1 -28 14t-14 34v1.5v1.5q0 14 9 21.5t20 7.5q6 0 12 -2t11 -6q-7 17 -20 24.5t-27 7.5h-4.5t-5.5 -1q-25 -4 -45.5 -25.5t-20.5 -51.5q0 -51 38 -78.5t85 -27.5q79 0 123.5 59t54.5 130q1 9 1.5 18.5t0.5 18.5v315h-87
v29h151l4 -8l224 -410v306v1.5v1.5q0 19 0.5 41.5t2.5 44.5q5 52 25 98.5t73 63.5q8 3 17 4.5t18 1.5q26 -1 48 -14t31 -41v0z" />
    <glyph glyph-name="O" unicode="O" horiz-adv-x="563" 
d="M543 292q0 -113 -75.5 -205.5t-195.5 -92.5t-195.5 92.5t-75.5 205.5t75 206t196 93q120 0 195.5 -92.5t75.5 -206.5v0zM408 99q29 41 44 91.5t14 102.5v6v6q-2 48 -16 95t-42 85q-26 36 -61 57t-75 21t-75 -21t-61 -57q-29 -40 -44 -90.5t-14 -103.5v-6v-6q2 -48 16 -95
t42 -85q29 -38 64 -57.5t72 -19.5t72.5 19.5t63.5 57.5v0z" />
    <glyph glyph-name="P" unicode="P" horiz-adv-x="485" 
d="M473 415q0 -82 -55 -120t-126 -38q-7 0 -13.5 0.5t-12.5 0.5q-7 1 -13.5 2t-13.5 2v-88q24 0 47.5 6t44.5 18l14 -25q-24 -13 -51 -20.5t-55 -7.5v-116h69v-29h-216v29h72v128q-69 24 -115 84t-46 135q0 98 66.5 164t164.5 67q18 24 40.5 44.5t47.5 36.5l15 -24
q-10 -7 -20 -18.5t-18 -23.5q-4 -4 -7 -9t-6 -9q85 -8 136 -53.5t51 -135.5v0zM214 577q-88 -9 -134.5 -69t-46.5 -131q0 -58 32 -110.5t99 -78.5v149q0 63 9.5 124.5t40.5 115.5v0zM388 379q2 12 3.5 23.5t1.5 22.5q0 56 -31 97t-95 51q-19 -37 -24.5 -81.5t-5.5 -90.5
q0 -14 0.5 -27.5t0.5 -27.5q0 -13 0.5 -26.5t0.5 -25.5q10 -1 19.5 -2t18.5 -1q41 0 71 19.5t40 68.5v0z" />
    <glyph glyph-name="Q" unicode="Q" horiz-adv-x="566" 
d="M872 -74v-3.5v-5.5q0 -70 -37 -100t-91 -30q-21 0 -43 3.5t-45 11.5q-53 17 -101.5 43.5t-96.5 54.5q-1 0 -2 1t-3 2q-35 21 -71 41t-74 37q-7 3 -14.5 5t-15.5 3q-4 0 -7.5 0.5t-7.5 0.5h-1.5h-1.5q-46 -1 -84 -31.5t-38 -78.5v-0.5v-1.5v-1.5v-0.5l-28 -3v5.5v4.5
q0 41 25.5 74t62.5 48q-91 29 -143.5 111t-52.5 176q0 113 74.5 206t195.5 93t196 -92.5t75 -206.5q0 -97 -55.5 -181t-152.5 -110q31 -11 61 -24.5t59 -28.5q2 0 3 -0.5t2 -1.5l88 -40t90 -34q27 -8 52.5 -13t47.5 -5q37 0 65 17.5t41 59.5l28 -5v0zM467 292
q0 20 -2.5 41.5t-8.5 43.5q-17 70 -62.5 128t-121.5 58q-75 0 -120.5 -58t-62.5 -128q-6 -22 -8.5 -43.5t-2.5 -41.5t3 -42t8 -44q18 -69 63 -126.5t120 -57.5t120.5 57.5t63.5 126.5q5 22 8 44t3 42v0z" />
    <glyph glyph-name="R" unicode="R" horiz-adv-x="563" 
d="M725 -20q-4 -47 -39.5 -79.5t-82.5 -31.5h-4.5h-4.5q-37 3 -69 24t-51 53q-14 25 -29 49.5t-30 49.5q-30 50 -59.5 100.5t-55.5 102.5q-5 10 -17 18t-25 13q-7 2 -14 3.5t-13 1.5h-0.5h-0.5h-0.5h-0.5v-110q7 0 12.5 0.5t8.5 0.5q4 0 7 0.5t5 0.5l10 -27q-8 -1 -16.5 -2
t-16.5 -1h-2.5h-2.5h-2.5h-2.5v-117h69v-29h-216v29h72v133q-64 27 -107.5 88t-43.5 131q0 95 63.5 158.5t156.5 66.5q18 25 40.5 45.5t48.5 36.5l15 -24q-10 -7 -19 -17.5t-18 -21.5q-3 -5 -7 -10t-7 -10q78 -8 127.5 -51t49.5 -128q0 -55 -33 -85.5t-81 -44.5
q14 -8 25.5 -20t19.5 -26q41 -71 82.5 -141.5t81.5 -140.5q1 -2 2.5 -4.5t3.5 -4.5q11 -17 26 -31.5t34 -19.5q4 -1 7.5 -1.5t6.5 -0.5q25 0 43 20.5t23 44.5q1 3 1.5 6t0.5 6l29 -3v0zM203 576q-85 -11 -128 -67t-42 -124v-3.5v-2.5q2 -55 32 -105.5t89 -79.5v152
q0 61 9.5 120t39.5 110v0zM372 437q0 56 -31.5 90.5t-84.5 44.5q-16 -33 -22 -72t-6 -78v-7.5v-7.5v-9.5v-9.5v-15t1 -14v-23.5v-22.5q66 0 104.5 27t38.5 97v0z" />
    <glyph glyph-name="S" unicode="S" horiz-adv-x="394" 
d="M371 133q0 -71 -55.5 -105.5t-121.5 -36.5h-5.5h-5.5q-26 0 -51.5 4.5t-46.5 14.5q-35 16 -58 51.5t-25 74.5v4.5v4.5q0 20 6 38t19 34q14 17 31.5 25t36.5 8q24 -1 44.5 -15.5t25.5 -44.5q1 -3 1 -6v-5q0 -24 -15 -41.5t-36 -16.5q-4 0 -7.5 0.5t-6.5 1.5q-4 2 -7.5 3.5
t-7.5 4.5q-11 8 -16 17t-5 18q0 13 9 21.5t23 8.5q7 0 14 -2.5t14 -7.5q4 -2 7 -5t5 -6v0.5v1.5v1.5v0.5q0 21 -13 31.5t-30 10.5h-4t-4 -1q-10 -1 -19.5 -6.5t-17.5 -14.5q-10 -12 -14.5 -26t-4.5 -29v-4.5v-4.5q3 -31 21.5 -58.5t45.5 -40.5q19 -9 40 -13.5t43 -4.5
q45 0 81 23.5t36 78.5q0 53 -35 92t-77 75l-2.5 2.5t-3.5 2.5q-45 38 -81 80.5t-36 102.5q0 62 43 94t96 32h5.5h5.5q24 -2 47.5 -10.5t42.5 -24.5v19h29v-153h-29v91q-13 21 -35 32.5t-46 13.5q-3 1 -5.5 1h-5.5q-31 0 -55.5 -18.5t-24.5 -58.5q0 -38 21 -64t47 -49
q1 -1 2 -2.5t3 -2.5q6 -5 11.5 -10.5l11.5 -11.5q9 -10 19 -19.5t20 -19.5q1 -1 2 -1.5t2 -1.5q38 -37 70 -77.5t32 -100.5v0z" />
    <glyph glyph-name="T" unicode="T" horiz-adv-x="508" 
d="M513 631v-4.5v-4.5q0 -46 -22.5 -64t-60.5 -22h-5.5h-4.5q-2 -1 -4.5 -1h-5.5l-28 2l-28 2q-7 0 -14 1t-14 1v-512h70v-29h-216v29h72v518q-4 0 -8.5 0.5t-8.5 0.5q-4 1 -8.5 1h-8.5h-4t-4 1h-5h-4q-9 0 -18 -0.5t-18 -2.5q-51 -7 -93 -37.5t-42 -85.5v-1.5v-1.5
q1 -37 23.5 -68.5t63.5 -31.5q5 0 9.5 1.5t8.5 3.5q-11 3 -21 14t-12 23q-1 1 -1 2.5v3.5q0 5 1.5 9.5t4.5 8.5q5 5 10.5 7.5t12.5 2.5q2 0 4.5 -0.5t4.5 -1.5q5 -1 9.5 -3t8.5 -6q10 -8 14.5 -18t4.5 -22q0 -20 -12.5 -33.5t-32.5 -18.5q-4 -1 -7.5 -1.5t-8.5 -0.5h-4t-4 1
q-20 2 -39.5 12.5t-33.5 25.5q-15 17 -22.5 37.5t-9.5 41.5v5.5v5.5q0 7 0.5 13t1.5 12q10 62 60 97t108 45q12 2 24 3t23 1h62t62 -1q14 -1 27 -1.5t26 -0.5q10 0 19 0.5t17 1.5q23 3 37.5 15t14.5 38v6.5t-1 7.5l29 4q0 -3 0.5 -5.5t0.5 -4.5v-4.5v-4.5v-6v-6v0z" />
    <glyph glyph-name="U" unicode="U" horiz-adv-x="679" 
d="M664 553h-71v-196.5v-196.5q0 -70 -54 -115t-118 -52q-2 -1 -3.5 -1h-2.5q-3 0 -5.5 -0.5t-5.5 -0.5h-5.5h-5.5q-82 0 -140.5 50t-58.5 136q-78 14 -134 73t-56 135q0 19 4.5 38t12.5 38q26 58 80.5 89.5t115.5 31.5h88h88v-29h-125v-348q65 9 107.5 54t42.5 106v10.5
t-1 10.5l29 8q0 -3 0.5 -6t0.5 -6q1 -4 1 -7v-6q-1 -73 -52 -127.5t-128 -65.5q0 -37 6 -66.5t38 -56.5q20 -16 44.5 -24t49.5 -8h2.5h3.5q57 3 104.5 40.5t47.5 98.5v196.5v196.5h-59v29h159v-29v0zM194 207v345q-68 -6 -114.5 -52.5t-46.5 -110.5q0 -16 4 -33.5t12 -35.5
q20 -44 59.5 -73.5t85.5 -39.5v0z" />
    <glyph glyph-name="V" unicode="V" horiz-adv-x="510" 
d="M467 350l-191 -371l-217 574h-58v29h185v-29h-45l169 -447q18 32 34 64l32 64t32 64.5t34 64.5q11 20 17 43.5t6 48.5q0 30 -10 57.5t-33 46.5q-18 14 -38.5 21t-42.5 7q-25 0 -48.5 -9.5t-41.5 -29.5q-8 -8 -12 -17.5t-5 -18.5q-1 -3 -1 -5.5v-4.5h1.5t1.5 1h2h2
q15 -1 28 -13.5t17 -27.5q0 -1 0.5 -3t0.5 -4v-1.5v-2.5q0 -13 -8.5 -21.5t-20.5 -8.5q-3 0 -6.5 1t-7.5 2l-1 1q-13 5 -22 18t-10 27q-3 8 -4.5 16.5t-1.5 16.5q0 44 36.5 75t80.5 37q3 0 5.5 0.5t5.5 0.5h4.5h4.5q26 0 51.5 -8.5t47.5 -25.5q28 -22 40.5 -55.5t12.5 -69.5
q0 -28 -7 -56t-19 -51v0z" />
    <glyph glyph-name="W" unicode="W" horiz-adv-x="804" 
d="M792 553h-69l-164 -574l-160 339l-146 -344l-174 579h-75v29h216v-29h-64l133 -421l93 220q-19 43 -34 87.5t-15 91.5q0 6 0.5 12.5t1.5 12.5q4 33 22 61t56 28q14 -1 27.5 -9t22.5 -24q10 -16 14 -32t4 -33q0 -28 -9.5 -55t-21.5 -54q-3 -6 -5.5 -13t-5.5 -13l134 -290
l120 431h-70v29h169v-29v0zM439 597q-6 9 -12.5 14t-14.5 5q-11 -1 -16 -11t-5 -25q0 -11 1.5 -23t4.5 -25q2 -10 4.5 -19.5t5.5 -18.5q6 -19 10.5 -32.5t5.5 -14.5q1 1 1.5 2.5t1.5 3.5q7 15 13 32t10 34q1 7 2 14.5t1 14.5q0 13 -3 25t-10 24v0z" />
    <glyph glyph-name="X" unicode="X" horiz-adv-x="683" 
d="M670 0h-216v29h57l-125 225q-31 -48 -62.5 -96t-62.5 -96q-20 -31 -50.5 -49t-63.5 -22q-4 0 -8.5 -0.5t-9.5 -0.5q-37 0 -69.5 19.5t-49.5 62.5q-4 13 -6.5 26.5t-2.5 26.5q0 25 9 48t28 41q14 13 29.5 19t31.5 5q37 0 66.5 -26t29.5 -66v-5t-1 -6q-2 -21 -15 -33
t-30 -12q-3 0 -6 0.5t-6 1.5q-6 2 -12 6.5t-12 10.5q-7 8 -10 16.5t-3 15.5q1 14 9.5 22t20.5 7q3 0 6 -0.5t6 -1.5q6 -2 12.5 -6.5t11.5 -12.5q-2 26 -22.5 43.5t-44.5 17.5q-11 0 -22 -4t-20 -13q-14 -13 -21 -31t-7 -38v-2.5v-3.5q2 -37 28.5 -68.5t67.5 -31.5
q35 0 64 15t48 45l66 102t67 103l-150 270h-71v29h215v-29h-59l111 -200l129 200h-58v29h152v-29h-60l-148 -228l163 -296h76v-29v0z" />
    <glyph glyph-name="Y" unicode="Y" horiz-adv-x="527" 
d="M494 328q-9 -32 -21.5 -65.5t-28.5 -66.5q-38 -83 -92.5 -161t-116.5 -133q-3 -3 -6 -5.5t-7 -4.5q-19 -15 -41.5 -28.5t-45.5 -19.5q-4 -1 -8.5 -2t-9.5 -1h-4h-4q-5 0 -9.5 0.5t-9.5 0.5q-35 4 -63.5 24.5t-28.5 58.5v0.5v0.5v0.5v0.5q1 28 14 40.5t30 14.5q3 1 5.5 1
h5.5q11 0 20 -2.5t13 -6.5q8 -7 14.5 -16.5t8.5 -20.5v-3v-3q0 -7 -2.5 -13t-8.5 -11q-4 -4 -8 -5.5t-9 -0.5h-3.5t-2.5 1q-12 2 -22 11.5t-16 20.5q-2 2 -3 5l-2 6q-3 -4 -4.5 -9t-1.5 -11q0 -3 0.5 -6t1.5 -6q5 -17 24 -30.5t55 -12.5h4.5h4.5q6 0 12.5 1.5t12.5 4.5
q15 5 29 14t27 19q5 4 10 7.5t9 7.5q14 11 26.5 24t25.5 27l-194 578h-77v29h216v-29h-59l170 -509q27 38 51 80t44 84q15 32 27 64t21 63q5 17 8.5 36t6.5 39q1 10 1.5 20t0.5 19q0 52 -23 90.5t-87 38.5q-37 0 -62 -27.5t-25 -60.5v-1.5v-1.5q0 -13 4 -26t14 -24l-22 -19
q-11 13 -17 27.5t-7 29.5q-1 3 -1 6v6q0 45 33 82.5t84 37.5q79 0 108.5 -48t28.5 -111q0 -10 -0.5 -20t-1.5 -21q-2 -20 -6 -40t-10 -39v0z" />
    <glyph glyph-name="Z" unicode="Z" horiz-adv-x="621" 
d="M579 108q0 32 -15.5 61t-41.5 48l21 24q29 -22 46 -55t19 -68v-3v-4q0 -26 -10 -51.5t-33 -45.5q-19 -16 -41.5 -23.5t-45.5 -7.5q-16 0 -32.5 3.5t-31.5 10.5q-17 7 -36 19.5t-41 25.5q-5 4 -11 7.5t-11 6.5q-17 11 -35 21.5t-37 20.5q-5 -10 -10.5 -19.5t-10.5 -19.5
q-16 -29 -46.5 -49t-64.5 -24q-3 -1 -6.5 -1h-7.5q-18 0 -35.5 5.5t-31.5 18.5t-21.5 30t-7.5 36q0 8 2 16.5t5 16.5q13 31 44.5 42.5t65.5 12.5h3h2h5.5h4.5q16 -1 31 -3t27 -5l218 398h-278v-110h-29v139h403l-247 -456q13 -7 26 -14.5t25 -14.5q12 -8 24 -15.5t23 -14.5
l12 -8t13 -8q24 -15 50.5 -28t54.5 -12h5.5h4.5q38 4 60.5 32t22.5 65v0zM177 129q-11 2 -25.5 3.5t-29.5 1.5h-2.5h-3.5q-32 -1 -59 -13.5t-27 -47.5q0 -21 15.5 -38.5t36.5 -20.5h1.5h1.5h2h2q20 0 30 13t18 28q1 1 1.5 2.5t0.5 2.5q2 2 3 4.5t2 4.5q8 15 16.5 30t16.5 30
v0z" />
    <glyph glyph-name="bracketleft" unicode="[" horiz-adv-x="500" 
 />
    <glyph glyph-name="backslash" unicode="\" horiz-adv-x="272" 
d="M9 663h48l192 -843h-47l-193 843v0z" />
    <glyph glyph-name="bracketright" unicode="]" horiz-adv-x="500" 
 />
    <glyph glyph-name="asciicircum" unicode="^" horiz-adv-x="500" 
 />
    <glyph glyph-name="underscore" unicode="_" horiz-adv-x="500" 
 />
    <glyph glyph-name="grave" unicode="`" horiz-adv-x="219" 
d="M172 636l-16 -24l-111 74l16 24l111 -74v0z" />
    <glyph glyph-name="a" unicode="a" horiz-adv-x="283" 
d="M274 60q0 -27 -18.5 -43t-41.5 -16q-13 0 -25 6t-21 19q-14 -13 -30 -19.5t-33 -5.5q-19 0 -38 8.5t-33 24.5q-14 17 -21.5 37.5t-6.5 42.5q0 21 7 41t21 36q14 17 33 25.5t38 8.5q14 0 27 -4.5t25 -12.5v11h34.5h33.5v-90v-90q0 -2 1.5 -3.5t3.5 -1.5q1 0 1.5 0.5
t1.5 0.5q6 4 9.5 11t3.5 14h28v0zM157 57v112q-5 7 -12 12.5t-15 9.5q-2 1 -4 1.5t-4 0.5q-9 -1 -16 -7t-12 -14q-7 -13 -10.5 -28t-3.5 -32q0 -16 3.5 -31t10.5 -27q7 -10 14 -15t14 -5q9 0 18 6.5t17 16.5v0z" />
    <glyph glyph-name="b" unicode="b" horiz-adv-x="248" 
d="M234 113q0 -55 -37 -83.5t-81 -28.5q-43 1 -79 29t-36 85v397q0 32 22 51t48 19q13 0 25.5 -4.5t22.5 -15.5l-20 -21q-6 6 -12.5 9t-14.5 3h-1.5h-1.5v-338q3 1 5 2t5 2q5 1 10 2.5t10 1.5q1 1 1.5 1h0.5q5 1 8.5 1h7.5q47 0 82 -32.5t35 -79.5v0zM135 48q9 14 13.5 31
t4.5 34t-4.5 34t-13.5 30q-5 8 -11.5 13t-15.5 5h-0.5h-0.5h-0.5h-0.5q-10 -1 -19.5 -4.5t-17.5 -8.5v-111q0 -13 8 -24t21 -16h2h2q1 -1 2 -1h2h1.5h0.5q9 0 15.5 5.5t11.5 12.5v0z" />
    <glyph glyph-name="c" unicode="c" horiz-adv-x="212" 
d="M202 46q-16 -23 -35 -34.5t-48 -11.5q-52 0 -84.5 35.5t-32.5 78.5v6.5t1 7.5q2 17 10.5 33.5t23.5 30.5q17 17 39 25t44 8h6t7 -1q3 0 6 -0.5t6 -1.5q4 -1 8.5 -2t8.5 -3q5 -2 10.5 -4.5t9.5 -5.5q7 -5 11 -10.5t6 -11.5q1 -3 1.5 -5.5t0.5 -5.5q0 -13 -9.5 -22.5
t-23.5 -9.5q-4 0 -8.5 1t-9.5 3q-2 1 -4.5 2.5t-4.5 3.5q-8 5 -13.5 14.5t-5.5 19.5v4t1 4q-19 -5 -28.5 -28.5t-10.5 -50.5v-1v-2q0 -31 12 -56.5t35 -25.5q6 0 11.5 2t10.5 4q6 4 12 10.5t13 15.5l24 -16v0z" />
    <glyph glyph-name="d" unicode="d" horiz-adv-x="281" 
d="M267 562l-20 -21q-5 5 -12 8.5t-15 3.5h-1.5h-1.5v-256.5v-257.5q0 -5 3.5 -4.5t7.5 3.5q3 3 6 8t4 10v2v2h28q0 -27 -18.5 -43t-41.5 -16h-4t-4 1q-10 1 -19.5 6.5t-17.5 15.5q-14 -13 -29.5 -18.5t-31.5 -5.5q-39 1 -69.5 34t-30.5 79q0 44 30 78.5t70 33.5q6 0 12 -1
t13 -2q6 -2 12 -5t12 -7v151.5v150.5q0 32 22 51t48 19q13 0 25.5 -4.5t22.5 -15.5v0zM149 53v119q-9 11 -17 15.5t-16 3.5q-17 0 -28 -20t-13 -44q-1 -4 -1 -7.5v-6.5q0 -18 4 -33t11 -26q0 -1 0.5 -1.5l1.5 -1.5q4 -6 11 -12t15 -6h2t2 1q1 0 2 0.5t2 0.5q7 3 13 8t11 10
v0z" />
    <glyph glyph-name="e" unicode="e" horiz-adv-x="221" 
d="M213 45q-18 -22 -43 -33.5t-51 -11.5h-6t-6 1q-18 2 -35.5 10t-32.5 22q-18 17 -26.5 37.5t-8.5 41.5q1 44 33.5 78t84.5 35h1.5h1.5q26 -1 47.5 -13t25.5 -40v-2v-2v-2v-2q0 -30 -22.5 -48.5t-50.5 -28.5q-8 -3 -16 -5.5t-15 -4.5l-3 -1q1 -4 2.5 -8t2.5 -8
q5 -12 12.5 -21.5t20.5 -8.5h1.5h1.5q17 2 32.5 11t26.5 22l22 -18v0zM169 169q-1 12 -10 18t-19 7q-2 1 -4.5 1h-4.5q-16 0 -26 -16t-14 -35q-3 -10 -4 -19.5t-1 -16.5v-1.5v-1.5q7 2 16 4.5t18 6.5q19 7 34 19t15 30v2v2v0z" />
    <glyph glyph-name="f" unicode="f" horiz-adv-x="141" 
d="M151 562l-20 -21q-5 5 -12 8.5t-15 3.5h-1.5h-1.5l1 -328h34v-29h-34v-421h-69v421h-33v29h33v144v143q0 32 22 51t48 19q13 0 25.5 -4.5t22.5 -15.5v0z" />
    <glyph glyph-name="g" unicode="g" horiz-adv-x="232" 
d="M216 -154q0 -31 -22 -50t-48 -19q-13 0 -25 4.5t-23 15.5l20 20q5 -4 12.5 -7.5t14.5 -3.5h1.5h1.5v210q-13 -8 -25.5 -12t-25.5 -4q-40 0 -69 34t-29 79q0 44 29 78.5t69 34.5q13 0 25.5 -4.5t25.5 -12.5v4v4v4v4h68v-379v0zM148 54v117q-8 10 -16.5 15.5t-17.5 5.5
q-7 0 -13.5 -4.5t-13.5 -15.5q-7 -13 -11 -28t-4 -32q0 -16 4 -31t11 -27q7 -11 14.5 -16t14.5 -4q8 0 16.5 5.5t15.5 14.5v0z" />
    <glyph glyph-name="h" unicode="h" horiz-adv-x="272" 
d="M261 60q0 -29 -18.5 -43.5t-41.5 -14.5q-22 0 -40 14.5t-18 43.5v118q0 8 -5.5 11.5t-12.5 3.5h-2.5t-3.5 -1q-1 1 -5 -1.5t-9 -5.5l-1 -1l-1 -1q-4 -2 -7.5 -4.5t-4.5 -3.5q-10 -9 -16 -20.5t-6 -23.5v-131h-69v512q0 32 22 51t49 19q13 0 25.5 -4.5t22.5 -15.5l-21 -21
q-5 5 -11.5 8.5t-14.5 3.5h-1.5h-1.5v-360q14 14 33.5 23t39.5 9h1.5h1.5q25 -1 46.5 -17.5t21.5 -44.5v-127q1 -1 1.5 -1t0.5 -1q4 0 7 4t6 9q2 5 3 8.5t1 4.5h29v0z" />
    <glyph glyph-name="i" unicode="i" horiz-adv-x="135" 
d="M123 60q0 -25 -17.5 -42t-41.5 -17t-41 17t-17 42v159h68v-180q0 -2 1.5 -3.5t3.5 -1.5q1 0 1.5 0.5l0.5 0.5q6 5 9.5 11.5t3.5 13.5h29v0zM84 348q0 -18 -13 -31t-31 -13q-19 0 -31.5 13t-12.5 31q0 19 12.5 32t31.5 13q18 0 31 -13t13 -32v0z" />
    <glyph glyph-name="j" unicode="j" horiz-adv-x="91" 
d="M78 -154q0 -13 -5.5 -26t-15.5 -22q-9 -10 -21.5 -15.5t-27.5 -5.5q-7 0 -13 1.5t-12 3.5q-7 3 -12.5 6.5t-10.5 8.5l20 20q4 -2 7 -4.5t7 -3.5q4 -2 7 -2.5t7 -0.5h1v0v419h69v-379v0zM87 348q0 -18 -13 -31t-32 -13q-18 0 -30.5 13t-12.5 31q0 19 12.5 32t30.5 13
q19 0 32 -13t13 -32v0z" />
    <glyph glyph-name="k" unicode="k" horiz-adv-x="267" 
d="M256 60q0 -28 -18.5 -43.5t-41.5 -15.5q-16 0 -29.5 8.5t-21.5 24.5q-3 7 -7 13.5t-8 13.5q-11 20 -26.5 38t-34.5 27v-126h-69v512q0 32 22 51t48 19q13 0 25.5 -4.5t22.5 -15.5l-20 -21q-5 5 -12 8.5t-15 3.5h-1.5h-1.5v-365q15 17 35 26.5t41 9.5q4 0 7.5 -0.5
t7.5 -0.5q8 -2 15.5 -4.5t14.5 -7.5q9 -5 15.5 -15t8.5 -21v-2.5v-2.5v-3t-1 -3q0 -3 -1 -6t-3 -6q-4 -7 -10.5 -10.5t-13.5 -3.5h-2.5h-2.5q-15 3 -27 16t-12 30q0 3 0.5 6t1.5 6h-1.5h-1.5q-19 0 -34 -11t-26 -27q48 -6 84 -38.5t44 -81.5l2 -2t2 -1q0 -1 1 -1h1
q4 1 7 5.5t5 9.5q1 3 1.5 6t0.5 5h29v0z" />
    <glyph glyph-name="l" unicode="l" horiz-adv-x="133" 
d="M120 562l-21 -21q-4 5 -11 8.5t-15 3.5h-1.5h-1.5v-514q0 -2 1.5 -3.5t3.5 -1.5q1 0 1.5 0.5l0.5 0.5q6 5 9.5 11.5t3.5 13.5h29q0 -25 -17.5 -42t-41.5 -17t-41.5 17t-17.5 42v452q0 29 21 49.5t49 20.5q14 0 26.5 -5t22.5 -15v0z" />
    <glyph glyph-name="m" unicode="m" horiz-adv-x="427" 
d="M415 59q0 -25 -17.5 -42t-41.5 -17t-41.5 17t-17.5 42v119q0 8 -5.5 11.5t-12.5 3.5h-2.5t-3.5 -1q0 1 -4 -1.5t-10 -5.5q0 -1 -0.5 -1h-0.5q-5 -3 -8.5 -6l-3.5 -3q1 -2 1.5 -5t0.5 -7v-163h-70v178q0 6 -2.5 10.5t-7.5 4.5h-1.5t-2.5 -1q-14 -5 -26 -17.5t-17 -28.5
v-146h-68v187v0.5t-1 1.5q0 1 -1.5 2t-3.5 1h-0.5h-0.5q0 -1 -0.5 -1h-0.5q-6 -4 -9.5 -10.5t-3.5 -14.5h-28q0 28 19 43.5t41 15.5q15 0 29 -8t22 -25q14 14 32.5 23.5t37.5 9.5q14 0 26.5 -5.5t22.5 -17.5q11 9 24.5 15t28.5 7q2 1 4.5 1h4.5q26 0 48 -16.5t22 -45.5v-125
q0 -2 1.5 -3.5t3.5 -1.5q1 0 1.5 0.5l0.5 0.5q6 5 9.5 11t3.5 14h29v0z" />
    <glyph glyph-name="n" unicode="n" horiz-adv-x="322" 
d="M309 60q0 -25 -17.5 -42t-41.5 -17t-41.5 17t-17.5 42v118q0 8 -5.5 11.5t-12.5 3.5h-2.5t-3.5 -1q-1 1 -5 -1.5t-8 -5.5q-1 0 -1.5 -0.5l-1.5 -1.5q-4 -2 -7 -4.5t-4 -3.5q-8 -7 -14 -16t-8 -19v-140h-69v187v0.5v1.5q-1 0 -2 1t-1 2h-1.5h-0.5h-0.5h-0.5q0 -1 -0.5 -1
h-0.5q-6 -4 -9.5 -10.5t-3.5 -14.5h-29q0 27 18 42.5t40 16.5h1.5h1.5q16 0 30.5 -8.5t21.5 -27.5q9 10 20 17.5t23 11.5q8 3 17 5t18 2q13 0 25.5 -4.5t22.5 -12.5t16 -19.5t6 -25.5v-124v-0.5v-0.5q0 -2 0.5 -3t3.5 -1q4 0 7.5 4.5t4.5 9.5q2 4 2.5 7t0.5 5h29v0z" />
    <glyph glyph-name="o" unicode="o" horiz-adv-x="220" 
d="M202 113v-1.5v-1.5q-1 -41 -28.5 -75.5t-71.5 -34.5t-71.5 34.5t-28.5 75.5v1.5v1.5q0 42 27.5 77t72.5 35t72.5 -35t27.5 -77v0zM152 53q9 10 14 22t6 24q1 3 1 6v6q-1 31 -16.5 55t-35.5 23q-2 0 -4.5 -0.5t-4.5 -1.5q-5 -2 -9.5 -5.5t-8.5 -10.5q-6 -9 -9.5 -23.5
t-3.5 -34.5q0 -6 0.5 -13.5t1.5 -14.5q3 -18 12 -33t29 -15q8 0 15.5 5t12.5 11v0z" />
    <glyph glyph-name="p" unicode="p" horiz-adv-x="225" 
d="M186 34q-14 -16 -33 -24.5t-39 -8.5q-4 0 -7.5 0.5t-7.5 0.5q-8 2 -15.5 5t-14.5 7v-238h-69v493h11.5h11.5h23.5h22.5v-57q6 3 11.5 5.5t11.5 4.5q6 1 11.5 2t11.5 1q20 0 38.5 -8.5t32.5 -25.5q14 -16 21.5 -36.5t6.5 -42.5q0 -21 -7 -41t-21 -37v0zM126 54
q6 10 9.5 23t4.5 27v4.5v4.5v4.5v4.5q-1 14 -4.5 27t-9.5 23q0 1 -0.5 1.5l-1.5 1.5q-5 6 -12 12t-15 6h-2t-1 -1q-1 0 -2 -0.5t-2 -0.5q-6 -3 -11 -7t-10 -9v-125q8 -7 15.5 -12t14.5 -5t13.5 5t13.5 16v0z" />
    <glyph glyph-name="q" unicode="q" horiz-adv-x="244" 
d="M269 -204q-10 -10 -22.5 -14.5t-26.5 -4.5q-26 0 -48 19t-22 51v42.5v42.5v42.5v41.5q-12 -8 -24.5 -12t-26.5 -4q-19 0 -37.5 9t-32.5 25q-14 17 -21.5 37.5t-6.5 42.5q0 21 7 41t21 36q14 17 33 25.5t38 8.5q13 0 25.5 -4t24.5 -12v16h69v-139.5v-139.5v-70v-70h1.5
h1.5q8 0 14.5 3.5t11.5 8.5l21 -22v0zM150 54v117q-5 7 -10.5 11.5t-11.5 6.5q-3 2 -5.5 2.5t-5.5 0.5q-7 0 -14 -4.5t-14 -15.5q-6 -10 -10 -23t-5 -27v-4.5v-4.5v-4.5v-4.5q1 -14 5 -27t10 -23q7 -11 14.5 -16t14.5 -4q8 0 16.5 5.5t15.5 14.5v0z" />
    <glyph glyph-name="r" unicode="r" horiz-adv-x="234" 
d="M212 148q-4 -5 -10 -7.5t-12 -2.5q-5 1 -9.5 2t-9.5 4q-9 5 -15.5 15t-8.5 21v2.5v2.5v3t1 3q0 1 0.5 2.5t0.5 2.5h-1.5h-0.5h-1.5h-1.5q-3 0 -6.5 -0.5t-7.5 -1.5t-7.5 -2.5t-6.5 -3.5q2 -5 3 -10.5t1 -11.5v-166h-68v187v0.5v1.5q-1 0 -2 1t-1 2h-1.5h-0.5h-0.5h-0.5
q0 -1 -0.5 -1h-0.5q-6 -4 -9.5 -10.5t-3.5 -14.5h-29q0 27 18.5 43t40.5 16q10 0 19.5 -3t17.5 -11q12 7 24 10.5t25 3.5t25 -3.5t23 -10.5q9 -5 15.5 -15t8.5 -21v-2.5v-2.5q0 -6 -1.5 -11.5t-6.5 -10.5v0z" />
    <glyph glyph-name="s" unicode="s" horiz-adv-x="193" 
d="M178 63q0 -24 -18.5 -39t-40.5 -21q-7 -1 -13 -2t-12 -1v1h-1.5h-1.5q-7 0 -14 1t-14 3q-20 5 -37 16.5t-22 30.5q0 2 -0.5 3t-0.5 3v2.5v2.5q0 13 7.5 22.5t21.5 10.5h1.5h1.5q17 0 30 -14.5t14 -31.5v-1.5v-1.5v-4t-1 -4q0 -2 -1 -4l-2 -4q4 -1 8.5 -1.5t8.5 0.5h3.5
h2.5q5 1 9.5 2t7.5 3q2 1 3 2.5t2 2.5q0 1 0.5 2.5t0.5 2.5q0 4 -7 11t-16 15q-2 1 -3.5 2.5t-3.5 2.5q-8 7 -15.5 12.5t-11.5 8.5t-7.5 6t-7.5 5q-16 13 -28 26.5t-12 30.5q0 23 18 37.5t40 19.5q6 2 11.5 2.5t10.5 0.5t10 -0.5t10 -0.5q19 -3 36 -13t22 -30q0 -1 0.5 -2.5
t0.5 -2.5v-2.5v-2.5q0 -13 -7 -22.5t-21 -10.5v0v0h-1v0q-17 0 -29.5 14t-13.5 30v1.5v1.5v2.5t1 2.5q0 1 0.5 2.5t0.5 2.5h-2t-2 1h-2h-3h-2.5h-3.5q-7 -1 -13 -4.5t-6 -9.5q0 -3 7 -9.5t16 -13.5q1 -2 2.5 -3t3.5 -2q7 -6 14 -11t11 -8q23 -16 41.5 -32.5t18.5 -39.5v0z
" />
    <glyph glyph-name="t" unicode="t" horiz-adv-x="160" 
d="M147 60q0 -25 -17.5 -42t-41.5 -17t-41.5 17t-17.5 42v136h-28v29h28v168h69v-168h46v-29h-46v-39v-39v-39.5v-39.5q0 -1 1 -2.5t3 -1.5q1 -1 1.5 -1t1.5 1q6 4 9.5 11t3.5 14h29v0z" />
    <glyph glyph-name="u" unicode="u" horiz-adv-x="277" 
d="M259 59q0 -27 -18.5 -43t-41.5 -16q-15 0 -29 8t-22 25q-15 -14 -35 -23.5t-41 -8.5q-13 0 -25.5 4t-23.5 13q-10 8 -15.5 19.5t-5.5 24.5v163h70v-178q0 -6 4.5 -9.5t10.5 -4.5h0.5h1.5h2h2l1 0.5t2 0.5q14 5 26 15t19 23v153h70v-186v-0.5v-1.5v0v0v-1.5v-0.5
q2 -1 2.5 -1.5t1.5 0.5h0.5h0.5q0 1 0.5 1h0.5q7 3 10 10t3 14h29v0z" />
    <glyph glyph-name="v" unicode="v" horiz-adv-x="214" 
d="M192 111v-5.5v-4.5q-3 -38 -26.5 -69t-65.5 -31h-3h-3q-2 -1 -3.5 -1h-3.5q-15 1 -29.5 4.5t-25.5 11.5q-13 9 -21.5 25.5t-8.5 42.5v141h69v-172q0 -11 6 -17t18 -6h6t6 1q8 1 16.5 4.5t14.5 9.5q14 12 19.5 29.5t5.5 36.5q0 12 -2 24t-5 22q-4 -3 -8 -4t-9 -1
q-2 0 -4.5 0.5t-4.5 0.5q-3 1 -5.5 2t-4.5 2q-10 6 -17 17.5t-7 24.5q1 6 3 11.5t6 10.5q5 5 10.5 7t11.5 2h3.5t3.5 -1q5 -1 10 -3.5t9 -6.5l2 -2l2 -2t1.5 -2t1.5 -2q13 -16 22 -41t10 -52v-3.5v-3.5v0z" />
    <glyph glyph-name="w" unicode="w" horiz-adv-x="346" 
d="M300 211q14 -17 22.5 -41.5t9.5 -50.5v-4v-4q0 -25 -8 -48.5t-27 -39.5q-13 -11 -31 -17t-38 -6q-24 0 -45 9.5t-32 29.5q-14 -16 -36 -27.5t-45 -11.5q-26 0 -48 17t-22 45v163h69v-178q0 -7 5.5 -10.5t12.5 -3.5h2h2l1 0.5t2 0.5q4 0 8.5 2.5t9.5 5.5q5 4 9 8l8 8
q5 6 8 10.5t5 8.5v2v2q-1 1 -1 1.5v1.5v141h70v-172q0 -11 6 -17t18 -6h3q14 1 24 5t17 10q14 12 19.5 29.5t4.5 36.5q0 12 -2 24t-5 22q-2 -1 -4 -2.5t-4 -1.5q-3 -1 -5 -1.5t-4 -0.5q-13 1 -24.5 11t-15.5 22q0 1 -0.5 1.5t-0.5 1.5t-0.5 2.5t-0.5 2.5v2.5v2.5
q0 13 7.5 22.5t20.5 10.5q11 0 19.5 -5.5t15.5 -13.5v0z" />
    <glyph glyph-name="x" unicode="x" horiz-adv-x="266" 
d="M251 59q0 -25 -18.5 -42t-41.5 -17q-7 1 -13.5 2.5t-12.5 4.5q-10 5 -16 12t-11 16q-1 1 -1.5 2t-1.5 2q-10 -14 -27 -24.5t-36 -13.5h-5.5h-4.5h-3h-3q-2 0 -3.5 0.5t-3.5 0.5h-1.5t-1.5 1q-13 3 -23.5 13.5t-10.5 24.5v1.5t1 1.5v1.5v1.5q3 13 12 18.5t19 5.5h4t4 -1
q14 -2 25 -11t14 -22q8 5 15 12t11 16l-81 119q-2 -4 -4 -8.5t-2 -9.5h-29q0 26 18.5 42.5t40.5 16.5q7 0 13.5 -1.5t13.5 -5.5q9 -4 15 -10.5t11 -13.5q1 -2 2.5 -4t2.5 -4q10 14 26 24.5t33 13.5q3 1 6.5 1h7.5h7t6 -1q1 0 2.5 -0.5t2.5 -0.5q12 -4 22.5 -15t9.5 -25v-2
v-3q-3 -13 -12 -18t-20 -5h-3.5h-3.5q-8 1 -15.5 4.5t-13.5 9.5q-4 4 -6.5 9t-4.5 10q-8 -4 -15 -11.5t-11 -16.5l80 -119q2 3 3.5 6t1.5 6q1 1 1 3v3h29v0z" />
    <glyph glyph-name="y" unicode="y" horiz-adv-x="228" 
d="M206 -154q0 -28 -20.5 -48.5t-49.5 -20.5q-13 0 -26 5t-23 15l21 20q5 -4 12 -7.5t14 -3.5h1.5h1.5v218q-13 -10 -30.5 -17t-35.5 -7q-13 0 -25 4.5t-23 13.5q-10 8 -15.5 19.5t-5.5 24.5v163h70v-178q0 -7 5.5 -10.5t12.5 -3.5h2h2l1 0.5t2 0.5q12 5 22.5 13t17.5 18
v160h69v-379v0z" />
    <glyph glyph-name="z" unicode="z" horiz-adv-x="203" 
d="M193 62q0 -2 -0.5 -4.5t-1.5 -4.5q-2 -22 -18.5 -37t-39.5 -15q-12 0 -22.5 3.5t-21.5 6.5q-1 1 -1.5 1h-0.5q-8 3 -15.5 5.5t-15.5 3.5q-3 1 -5.5 1h-4.5q-6 0 -9.5 -1.5t-6.5 -4.5q-2 -2 -4 -4.5t-5 -5.5l-23 18h1l26 32.5t29 35.5l0.5 1t1.5 1q11 13 21 25.5t20 24.5
q-3 2 -6 3.5t-5 3.5q-3 1 -6 3l-6 4q-2 1 -3.5 2.5t-3.5 2.5q-5 4 -10 6.5t-9 3.5h-1.5t-1.5 1h-1.5h-1.5q-7 -1 -12 -5.5t-7 -11.5l-28 7q3 12 6.5 23t11.5 20q6 7 12.5 10.5t13.5 4.5q3 1 6.5 1.5t6.5 0.5q6 0 12 -1l12 -2q5 -2 11 -4l12 -4q2 -1 4 -1.5t3 -0.5
q6 -2 11.5 -3.5t9.5 -2.5q2 -1 4.5 -1h4.5q5 0 8.5 1.5t6.5 5.5q2 1 4 3.5t4 5.5l22 -19l-95 -115q4 -2 8 -4.5t8 -5.5q2 -1 4 -2.5t4 -2.5q3 -1 5.5 -3t5.5 -4q6 -4 12.5 -7.5t12.5 -3.5h2.5t2.5 1q1 0 2.5 0.5t2.5 1.5q3 2 5.5 6t3.5 8l28 -8v0z" />
    <glyph glyph-name="braceleft" unicode="{" horiz-adv-x="500" 
 />
    <glyph glyph-name="bar" unicode="|" horiz-adv-x="72" 
d="M68 -300h-55v996h55v-996v0z" />
    <glyph glyph-name="braceright" unicode="}" horiz-adv-x="500" 
 />
    <glyph glyph-name="asciitilde" unicode="~" horiz-adv-x="500" 
 />
    <glyph glyph-name="exclamdown" unicode="&#xa1;" horiz-adv-x="130" 
d="M5 -219l21 21q5 -4 12 -7.5t14 -3.5h1.5h1.5v411q0 2 -1.5 3.5t-3.5 1.5q-1 0 -1.5 -0.5l-0.5 -0.5l-2.5 -2.5l-3.5 -3.5l-14 27q8 7 17.5 10t19.5 3q25 0 42 -17t17 -41v-351q0 -28 -20 -48.5t-49 -20.5q-14 0 -27 5t-23 15v-1zM35 306q0 18 13 31t31 13q19 0 32 -13
t13 -31q0 -19 -13 -32t-32 -13q-18 0 -31 13t-13 32v0z" />
    <glyph glyph-name="cent" unicode="&#xa2;" horiz-adv-x="219" 
d="M209 240q-15 -23 -33.5 -34t-46.5 -12v-102h-28v105q-41 9 -66 41.5t-25 69.5v6.5t1 7.5q2 17 10.5 33.5t23.5 30.5q11 11 25.5 18.5t30.5 11.5v111h28v-108q2 0 4 -0.5t4 -0.5q4 0 8 -0.5t8 -1.5t8.5 -2.5t8.5 -2.5q5 -2 10.5 -4.5t9.5 -5.5q7 -5 10.5 -10.5t5.5 -11.5
q1 -3 1.5 -5.5t0.5 -5.5q0 -13 -9.5 -22.5t-23.5 -9.5q-4 0 -8.5 1t-9.5 3q-2 1 -4.5 2.5t-4.5 3.5q-7 6 -13 15.5t-6 19.5v2v2l0.5 1t0.5 2q-19 -6 -29 -30t-9 -52v-1.5v-1.5q1 -30 12.5 -55t34.5 -24h3.5t3.5 1q4 0 7.5 1.5t6.5 3.5t6.5 4.5t6.5 5.5q3 4 6.5 8t6.5 8
l23 -16v0z" />
    <glyph glyph-name="sterling" unicode="&#xa3;" horiz-adv-x="448" 
d="M428 128q-1 -5 -2 -10.5t-2 -10.5q-2 -10 -3 -20.5t-2 -21.5q-4 -36 -31.5 -53.5t-59.5 -17.5h-6.5t-6.5 1q-7 1 -13.5 2.5t-12.5 2.5q-20 7 -39.5 15.5t-38.5 18.5q-7 3 -13.5 6t-12.5 6q-16 -27 -42 -42t-58 -15q-28 0 -46.5 18.5t-17.5 41.5q0 3 0.5 5.5t0.5 5.5
q2 8 6.5 15.5t11.5 14.5q11 10 23.5 13.5t25.5 3.5q4 0 8.5 -0.5t8.5 -0.5q7 -1 13.5 -2.5t12.5 -3.5q2 0 4 -0.5t4 -1.5q2 19 2 37.5t-1 37.5v15.5v14.5v12.5v13.5q-1 6 -1 12.5v12.5h-66v29h65q-1 8 -1 15.5v15.5v19.5t1 19.5q3 69 28 126.5t97 57.5q44 0 75 -30.5
t31 -71.5q0 -7 -1.5 -14.5t-3.5 -15.5l-28 8l2 6t1 6q1 2 1 5v6q-1 23 -14.5 41.5t-35.5 26.5h-2h-2h-2h-2q-34 0 -49 -28t-20 -68q-1 -9 -1.5 -19.5t-1.5 -20.5v-10v-10q0 -17 0.5 -33.5t1.5 -30.5v-1v0h96v-29h-95v-22.5v-22.5v-16.5v-16.5q0 -28 -2 -52.5t-10 -44.5
q5 -2 9.5 -3.5t9.5 -3.5q8 -2 15 -4.5t15 -5.5q12 -4 24 -7.5t24 -6.5q5 -1 11 -2t12 -1q23 0 43 12.5t26 37.5q2 10 4.5 20t4.5 20l28 -7v0zM136 69q-2 1 -5 1.5t-6 1.5q-5 2 -10 3l-10 2t-9 1.5t-8 0.5q-8 -1 -15.5 -3t-13.5 -7q-3 -3 -5.5 -6.5t-3.5 -7.5q0 -2 -0.5 -3.5
t-0.5 -3.5q0 -13 11 -22.5t25 -9.5q22 0 34 15.5t16 34.5q1 1 1 1.5v1.5v0z" />
    <glyph glyph-name="yen" unicode="&#xa5;" horiz-adv-x="540" 
d="M515 498h-60l-136 -210h93v-29h-103v-20h103v-29h-103v-181h69v-29h-216v29h73v181h-96v29h96v9l-6 11h-90v29h74l-117 210h-71v29h215v-29h-59l110 -200l130 200h-58v29h152v-29v0z" />
    <glyph glyph-name="brokenbar" unicode="&#xa6;" horiz-adv-x="500" 
 />
    <glyph glyph-name="section" unicode="&#xa7;" horiz-adv-x="500" 
 />
    <glyph glyph-name="dieresis" unicode="&#xa8;" horiz-adv-x="219" 
d="M98 646q0 -11 -8 -18.5t-19 -7.5q-10 0 -18 7.5t-8 18.5t8 18.5t18 7.5q11 0 19 -7.5t8 -18.5v0zM174 646q0 -11 -8 -18.5t-19 -7.5q-10 0 -18 7.5t-8 18.5t8 18.5t18 7.5q11 0 19 -7.5t8 -18.5v0z" />
    <glyph glyph-name="copyright" unicode="&#xa9;" horiz-adv-x="500" 
 />
    <glyph glyph-name="ordfeminine" unicode="&#xaa;" horiz-adv-x="296" 
d="M282 370q0 -26 -18.5 -42t-41.5 -16q-13 0 -25 6t-21 19q-14 -13 -30 -19.5t-33 -5.5q-19 0 -38 8.5t-33 24.5q-12 14 -19.5 32t-8.5 36v5.5v5.5q0 21 7 41.5t21 36.5q14 17 33 25.5t39 7.5q4 0 8.5 -0.5t8.5 -1.5q9 -1 17.5 -4.5t16.5 -9.5v10h34.5h33.5v-89v-90
q0 -2 1.5 -3.5t3.5 -1.5q1 0 1.5 0.5t1.5 0.5q5 3 8.5 8.5t4.5 10.5v3v2h28v0zM165 367v113q-5 7 -12 12.5t-15 8.5q-2 1 -4 1.5t-4 0.5q-9 -1 -16 -7t-12 -14q-6 -10 -9.5 -23t-4.5 -27v-4.5v-4.5v-4.5v-4.5q1 -14 4.5 -27t9.5 -23q7 -10 14 -15t14 -5q9 0 18 6.5t17 16.5
v0z" />
    <glyph glyph-name="guillemotleft" unicode="&#xab;" horiz-adv-x="273" 
d="M128 137l-121 121l121 122v-76l-45 -46l45 -45v-76v0zM258 137l-121 121l121 122v-76l-45 -46l45 -45v-76v0z" />
    <glyph glyph-name="logicalnot" unicode="&#xac;" horiz-adv-x="500" 
 />
    <glyph glyph-name="sfthyphen" unicode="&#xad;" horiz-adv-x="500" 
 />
    <glyph glyph-name="registered" unicode="&#xae;" horiz-adv-x="500" 
 />
    <glyph glyph-name="overstore" unicode="&#xaf;" 
 />
    <glyph glyph-name="degree" unicode="&#xb0;" horiz-adv-x="500" 
 />
    <glyph glyph-name="plusminus" unicode="&#xb1;" horiz-adv-x="500" 
 />
    <glyph glyph-name="twosuperior" unicode="&#xb2;" horiz-adv-x="500" 
 />
    <glyph glyph-name="threesuperior" unicode="&#xb3;" horiz-adv-x="500" 
 />
    <glyph glyph-name="acute" unicode="&#xb4;" horiz-adv-x="219" 
d="M173 686l-111 -74l-16 24l111 74l16 -24v0z" />
    <glyph glyph-name="mu" unicode="&#xb5;" horiz-adv-x="500" 
 />
    <glyph glyph-name="paragraph" unicode="&#xb6;" horiz-adv-x="500" 
 />
    <glyph glyph-name="middot" unicode="&#xb7;" 
 />
    <glyph glyph-name="cedilla" unicode="&#xb8;" horiz-adv-x="219" 
d="M189 -57q0 -34 -26 -55.5t-58 -20.5q-14 0 -27.5 4.5t-24.5 15.5q-9 8 -15 20t-8 25v2.5v3.5q0 8 3 16t10 14q6 5 14 8t16 3q7 0 13 -2.5t11 -7.5t7.5 -11t2.5 -13v-1.5v-1.5q-1 -12 -10.5 -22t-24.5 -10h-0.5h-0.5h-0.5h-0.5q6 -6 13.5 -9.5t15.5 -4.5h4h4q20 0 36.5 13
t16.5 35q0 26 -20.5 42.5t-46.5 16.5v28q38 0 67 -24.5t29 -62.5v-1z" />
    <glyph glyph-name="onesuperior" unicode="&#xb9;" horiz-adv-x="500" 
 />
    <glyph glyph-name="ordmasculine" unicode="&#xba;" horiz-adv-x="220" 
d="M210 423q0 -42 -27.5 -77t-72.5 -35t-72.5 35t-27.5 77v1.5v1.5q1 41 28.5 75.5t71.5 34.5t71.5 -34.5t28.5 -75.5v-1.5v-1.5v0zM160 364q8 9 12.5 18.5t6.5 19.5q1 4 1.5 9t0.5 10q-1 30 -16 53.5t-33 25.5h-1.5h-1.5q-2 0 -4.5 -0.5t-4.5 -1.5q-5 -2 -9.5 -5.5
t-8.5 -10.5q-6 -9 -9.5 -23.5t-3.5 -35.5q0 -6 0.5 -13.5t1.5 -15.5q3 -17 12.5 -31.5t28.5 -14.5q8 0 15.5 5t12.5 11v0z" />
    <glyph glyph-name="guillemotright" unicode="&#xbb;" horiz-adv-x="259" 
d="M6 137v76l45 45l-45 46v76l121 -122l-121 -121v0zM136 137v76l45 45l-45 46v76l121 -122l-121 -121v0z" />
    <glyph glyph-name="onequarter" unicode="&#xbc;" horiz-adv-x="500" 
 />
    <glyph glyph-name="onehalf" unicode="&#xbd;" horiz-adv-x="500" 
 />
    <glyph glyph-name="threequarters" unicode="&#xbe;" horiz-adv-x="500" 
 />
    <glyph glyph-name="questiondown" unicode="&#xbf;" horiz-adv-x="337" 
d="M4 -59q0 10 1 20t3 19q6 32 24 62t49 43q7 3 15.5 7.5t17.5 8.5q23 13 42 32t19 45v10.5v16.5v15v11h29v-11v-15v-16.5v-10.5q0 -38 -20 -69.5t-49 -53.5q-28 -21 -40.5 -50t-12.5 -63q0 -31 7.5 -57.5t22.5 -45.5q11 -14 28 -24t36 -12q3 -1 5.5 -1h5.5h3.5t3.5 1
q2 0 3.5 0.5t3.5 0.5q37 8 65 35t31 66q-2 0 -4.5 0.5t-4.5 0.5q-13 4 -24.5 15.5t-14.5 24.5v2.5v2.5q1 4 2.5 8.5t4.5 8.5t7.5 6.5t9.5 3.5q1 1 3 1h3h4t3 -1q15 -3 26.5 -15.5t12.5 -27.5q1 -6 1.5 -11.5t0.5 -10.5q0 -62 -49.5 -101.5t-111.5 -39.5q-69 0 -115.5 51
t-46.5 119v-1zM140 316q0 18 13 31t32 13q18 0 31 -13t13 -31q0 -19 -13 -32t-31 -13q-19 0 -32 13t-13 32v0z" />
    <glyph glyph-name="Agrave" unicode="&#xc0;" horiz-adv-x="567" 
d="M555 0h-215v29h73v87q0 38 -9.5 73.5t-36.5 68.5q-19 23 -43.5 39.5t-51.5 25.5q-11 -35 -21 -70.5t-19 -71.5q-14 -51 -28.5 -102t-33.5 -100q17 -6 34 -9t34 -3v-29l-20 2t-19 2q-10 2 -20 4.5t-20 5.5q-30 -70 -75 -114t-114 -44q-47 0 -85.5 29t-38.5 79
q0 36 24.5 61t57.5 25q8 0 16.5 -2t16.5 -6q1 0 1.5 -0.5t1.5 -0.5q11 -6 20.5 -18.5t11.5 -25.5v-2v-2q-1 -7 -3.5 -13t-9.5 -11q-5 -3 -9.5 -4.5t-8.5 -1.5q-14 0 -26.5 12.5t-17.5 27.5q0 3 -0.5 6t-0.5 6v1.5v0.5v1.5v1.5q-21 -4 -33 -19.5t-12 -36.5q0 -36 27 -56
t60 -23h4h4q58 0 96.5 39.5t66.5 101.5q-56 28 -91.5 81.5t-35.5 116.5v9.5t1 8.5q8 83 68 132.5t137 49.5h10t11 -1q5 0 10 -1l10 -2q4 13 9 26t11 27q27 64 73 117.5t122 53.5h77v-29h-59v-524h69v-29v0zM244 330q-8 2 -16.5 2.5t-16.5 0.5q-66 0 -117.5 -42t-57.5 -113
v-4v-4q-1 -3 -1 -5v-4q1 -54 31 -100t78 -70q19 48 33.5 98.5t27.5 101.5q1 4 2 7.5t2 7.5q8 31 16.5 62t18.5 62v0zM412 244v297q-46 -21 -77 -72t-54 -119q41 -13 75 -40.5t56 -65.5v0zM498 616l-16 -24l-111 74l16 24l111 -74v0z" />
    <glyph glyph-name="Aacute" unicode="&#xc1;" horiz-adv-x="567" 
d="M555 0h-215v29h73v87q0 38 -9.5 73.5t-36.5 68.5q-19 23 -43.5 39.5t-51.5 25.5q-11 -35 -21 -70.5t-19 -71.5q-14 -51 -28.5 -102t-33.5 -100q17 -6 34 -9t34 -3v-29l-20 2t-19 2q-10 2 -20 4.5t-20 5.5q-30 -70 -75 -114t-114 -44q-47 0 -85.5 29t-38.5 79
q0 36 24.5 61t57.5 25q8 0 16.5 -2t16.5 -6q1 0 1.5 -0.5t1.5 -0.5q11 -6 20.5 -18.5t11.5 -25.5v-2v-2q-1 -7 -3.5 -13t-9.5 -11q-5 -3 -9.5 -4.5t-8.5 -1.5q-14 0 -26.5 12.5t-17.5 27.5q0 3 -0.5 6t-0.5 6v1.5v0.5v1.5v1.5q-21 -4 -33 -19.5t-12 -36.5q0 -36 27 -56
t60 -23h4h4q58 0 96.5 39.5t66.5 101.5q-56 28 -91.5 81.5t-35.5 116.5v9.5t1 8.5q8 83 68 132.5t137 49.5h10t11 -1q5 0 10 -1l10 -2q4 13 9 26t11 27q27 64 73 117.5t122 53.5h77v-29h-59v-524h69v-29v0zM244 330q-8 2 -16.5 2.5t-16.5 0.5q-66 0 -117.5 -42t-57.5 -113
v-4v-4q-1 -3 -1 -5v-4q1 -54 31 -100t78 -70q19 48 33.5 98.5t27.5 101.5q1 4 2 7.5t2 7.5q8 31 16.5 62t18.5 62v0zM412 244v297q-46 -21 -77 -72t-54 -119q41 -13 75 -40.5t56 -65.5v0zM559 664l-111 -74l-16 24l111 74l16 -24v0z" />
    <glyph glyph-name="Acircumflex" unicode="&#xc2;" horiz-adv-x="567" 
d="M555 0h-215v29h73v87q0 38 -9.5 73.5t-36.5 68.5q-19 23 -43.5 39.5t-51.5 25.5q-11 -35 -21 -70.5t-19 -71.5q-14 -51 -28.5 -102t-33.5 -100q17 -6 34 -9t34 -3v-29l-20 2t-19 2q-10 2 -20 4.5t-20 5.5q-30 -70 -75 -114t-114 -44q-47 0 -85.5 29t-38.5 79
q0 36 24.5 61t57.5 25q8 0 16.5 -2t16.5 -6q1 0 1.5 -0.5t1.5 -0.5q11 -6 20.5 -18.5t11.5 -25.5v-2v-2q-1 -7 -3.5 -13t-9.5 -11q-5 -3 -9.5 -4.5t-8.5 -1.5q-14 0 -26.5 12.5t-17.5 27.5q0 3 -0.5 6t-0.5 6v1.5v0.5v1.5v1.5q-21 -4 -33 -19.5t-12 -36.5q0 -36 27 -56
t60 -23h4h4q58 0 96.5 39.5t66.5 101.5q-56 28 -91.5 81.5t-35.5 116.5v9.5t1 8.5q8 83 68 132.5t137 49.5h10t11 -1q5 0 10 -1l10 -2q4 13 9 26t11 27q27 64 73 117.5t122 53.5h77v-29h-59v-524h69v-29v0zM244 330q-8 2 -16.5 2.5t-16.5 0.5q-66 0 -117.5 -42t-57.5 -113
v-4v-4q-1 -3 -1 -5v-4q1 -54 31 -100t78 -70q19 48 33.5 98.5t27.5 101.5q1 4 2 7.5t2 7.5q8 31 16.5 62t18.5 62v0zM412 244v297q-46 -21 -77 -72t-54 -119q41 -13 75 -40.5t56 -65.5v0zM536 615l-18 -22l-77 66l-76 -66l-19 22l95 82l95 -82v0z" />
    <glyph glyph-name="Atilde" unicode="&#xc3;" horiz-adv-x="567" 
d="M555 0h-215v29h73v87q0 38 -9.5 73.5t-36.5 68.5q-19 23 -43.5 39.5t-51.5 25.5q-11 -35 -21 -70.5t-19 -71.5q-14 -51 -28.5 -102t-33.5 -100q17 -6 34 -9t34 -3v-29l-20 2t-19 2q-10 2 -20 4.5t-20 5.5q-30 -70 -75 -114t-114 -44q-47 0 -85.5 29t-38.5 79
q0 36 24.5 61t57.5 25q8 0 16.5 -2t16.5 -6q1 0 1.5 -0.5t1.5 -0.5q11 -6 20.5 -18.5t11.5 -25.5v-2v-2q-1 -7 -3.5 -13t-9.5 -11q-5 -3 -9.5 -4.5t-8.5 -1.5q-14 0 -26.5 12.5t-17.5 27.5q0 3 -0.5 6t-0.5 6v1.5v0.5v1.5v1.5q-21 -4 -33 -19.5t-12 -36.5q0 -36 27 -56
t60 -23h4h4q58 0 96.5 39.5t66.5 101.5q-56 28 -91.5 81.5t-35.5 116.5v9.5t1 8.5q8 83 68 132.5t137 49.5h10t11 -1q5 0 10 -1l10 -2q4 13 9 26t11 27q27 64 73 117.5t122 53.5h77v-29h-59v-524h69v-29v0zM244 330q-8 2 -16.5 2.5t-16.5 0.5q-66 0 -117.5 -42t-57.5 -113
v-4v-4q-1 -3 -1 -5v-4q1 -54 31 -100t78 -70q19 48 33.5 98.5t27.5 101.5q1 4 2 7.5t2 7.5q8 31 16.5 62t18.5 62v0zM412 244v297q-46 -21 -77 -72t-54 -119q41 -13 75 -40.5t56 -65.5v0zM557 641q-3 -8 -6.5 -15.5t-9.5 -14.5q-7 -7 -16 -10.5t-18 -3.5q-4 0 -7.5 0.5
t-6.5 1.5q-10 2 -19.5 6t-17.5 9q-1 0 -2.5 0.5t-2.5 1.5q-2 1 -5 3t-7 4t-8 3.5t-9 3.5q-4 1 -7.5 1.5t-7.5 0.5t-7 -1t-5 -3q-3 -4 -5.5 -9.5t-4.5 -11.5l-27 11q3 8 6.5 15t9.5 14q8 8 16 11t17 3q3 0 6 -0.5t6 -0.5q10 -2 19.5 -6t18.5 -9l4 -2l4 -2q3 -1 6.5 -3t7.5 -4
t8 -3.5t8 -2.5q3 -1 6 -1.5t6 -0.5q4 0 7.5 1t5.5 4q3 3 5.5 8.5t4.5 11.5l27 -10v0z" />
    <glyph glyph-name="Adieresis" unicode="&#xc4;" horiz-adv-x="567" 
d="M555 0h-215v29h73v87q0 38 -9.5 73.5t-36.5 68.5q-19 23 -43.5 39.5t-51.5 25.5q-11 -35 -21 -70.5t-19 -71.5q-14 -51 -28.5 -102t-33.5 -100q17 -6 34 -9t34 -3v-29l-20 2t-19 2q-10 2 -20 4.5t-20 5.5q-30 -70 -75 -114t-114 -44q-47 0 -85.5 29t-38.5 79
q0 36 24.5 61t57.5 25q8 0 16.5 -2t16.5 -6q1 0 1.5 -0.5t1.5 -0.5q11 -6 20.5 -18.5t11.5 -25.5v-2v-2q-1 -7 -3.5 -13t-9.5 -11q-5 -3 -9.5 -4.5t-8.5 -1.5q-14 0 -26.5 12.5t-17.5 27.5q0 3 -0.5 6t-0.5 6v1.5v0.5v1.5v1.5q-21 -4 -33 -19.5t-12 -36.5q0 -36 27 -56
t60 -23h4h4q58 0 96.5 39.5t66.5 101.5q-56 28 -91.5 81.5t-35.5 116.5v9.5t1 8.5q8 83 68 132.5t137 49.5h10t11 -1q5 0 10 -1l10 -2q4 13 9 26t11 27q27 64 73 117.5t122 53.5h77v-29h-59v-524h69v-29v0zM244 330q-8 2 -16.5 2.5t-16.5 0.5q-66 0 -117.5 -42t-57.5 -113
v-4v-4q-1 -3 -1 -5v-4q1 -54 31 -100t78 -70q19 48 33.5 98.5t27.5 101.5q1 4 2 7.5t2 7.5q8 31 16.5 62t18.5 62v0zM412 244v297q-46 -21 -77 -72t-54 -119q41 -13 75 -40.5t56 -65.5v0zM452 620q0 -11 -8 -18.5t-19 -7.5q-10 0 -18 7.5t-8 18.5t8 18.5t18 7.5
q11 0 19 -7.5t8 -18.5v0zM528 620q0 -11 -8 -18.5t-19 -7.5q-10 0 -18 7.5t-8 18.5t8 18.5t18 7.5q11 0 19 -7.5t8 -18.5v0z" />
    <glyph glyph-name="Aring" unicode="&#xc5;" horiz-adv-x="567" 
d="M555 0h-215v29h73v87q0 38 -9.5 73.5t-36.5 68.5q-19 23 -43.5 39.5t-51.5 25.5q-11 -35 -21 -70.5t-19 -71.5q-14 -51 -28.5 -102t-33.5 -100q17 -6 34 -9t34 -3v-29l-20 2t-19 2q-10 2 -20 4.5t-20 5.5q-30 -70 -75 -114t-114 -44q-47 0 -85.5 29t-38.5 79
q0 36 24.5 61t57.5 25q8 0 16.5 -2t16.5 -6q1 0 1.5 -0.5t1.5 -0.5q11 -6 20.5 -18.5t11.5 -25.5v-2v-2q-1 -7 -3.5 -13t-9.5 -11q-5 -3 -9.5 -4.5t-8.5 -1.5q-14 0 -26.5 12.5t-17.5 27.5q0 3 -0.5 6t-0.5 6v1.5v0.5v1.5v1.5q-21 -4 -33 -19.5t-12 -36.5q0 -36 27 -56
t60 -23h4h4q58 0 96.5 39.5t66.5 101.5q-56 28 -91.5 81.5t-35.5 116.5v9.5t1 8.5q8 83 68 132.5t137 49.5h10t11 -1q5 0 10 -1l10 -2q4 13 9 26t11 27q27 64 73 117.5t122 53.5h77v-29h-59v-524h69v-29v0zM244 330q-8 2 -16.5 2.5t-16.5 0.5q-66 0 -117.5 -42t-57.5 -113
v-4v-4q-1 -3 -1 -5v-4q1 -54 31 -100t78 -70q19 48 33.5 98.5t27.5 101.5q1 4 2 7.5t2 7.5q8 31 16.5 62t18.5 62v0zM412 244v297q-46 -21 -77 -72t-54 -119q41 -13 75 -40.5t56 -65.5v0zM491 631q0 -15 -11 -25.5t-26 -10.5t-25.5 10.5t-10.5 25.5t10.5 26t25.5 11t26 -11
t11 -26v0zM466 619q3 3 4 6t1 7q0 6 -4.5 11t-12.5 5q-7 0 -12 -4.5t-5 -12.5q0 -7 5.5 -12t12.5 -5q3 0 6 1.5t5 3.5v0z" />
    <glyph glyph-name="AE" unicode="&#xc6;" horiz-adv-x="883" 
d="M869 135q-16 -67 -69.5 -101t-115.5 -34q-37 0 -73 12.5t-65 37.5q-27 23 -40.5 51.5t-16.5 57.5v6v6q0 40 20 77t58 62h-190q-6 -16 -11.5 -31.5t-10.5 -31.5q-1 -3 -2 -5.5t-2 -4.5q-13 -37 -26.5 -73.5t-30.5 -72.5q-21 -45 -62 -70t-86 -24q-26 0 -51.5 9t-48.5 28
q-22 20 -34 45t-12 52q0 20 7.5 40t21.5 37q13 15 28.5 23.5t31.5 10.5q3 1 5.5 1h5.5q21 0 40.5 -12t31.5 -36h-1q5 -8 7 -15t2 -12q0 -13 -9.5 -20.5t-22.5 -7.5h-2.5h-2.5q-14 2 -26 13.5t-13 33.5v1.5v1.5v0.5v1.5q0 6 2.5 11t6.5 9q-2 1 -4 1.5t-4 0.5h-4h-4
q-23 0 -40 -19t-24 -42q-2 -6 -3 -12.5t-1 -12.5q0 -42 32.5 -69.5t71.5 -33.5q4 0 8.5 -0.5t8.5 -0.5h4.5h4.5q34 3 64.5 26t44.5 53q16 33 29 68.5t25 71.5q1 2 1.5 4t1.5 4q42 125 105.5 228t227.5 103q53 0 95.5 -19.5t55.5 -80.5q1 -4 1 -7v-6q0 -16 -8.5 -23.5
t-19.5 -6.5q-3 0 -5.5 0.5t-5.5 1.5q-13 4 -24 15.5t-12 29.5v1.5v0.5q0 12 7 21t20 10q-12 15 -31.5 24t-40.5 10h-2.5h-3.5h-3.5h-3.5q-16 -1 -31.5 -7.5t-25.5 -19.5q-11 -13 -17 -28t-8 -30q-1 -4 -1 -7.5v-7.5q0 -42 28.5 -75.5t75.5 -33.5h12.5h13.5h29h13v-29h-10h-9
q-39 1 -73.5 -4t-65.5 -38q-19 -19 -29 -46t-12 -54v-5v-4q0 -52 29.5 -93.5t87.5 -41.5q56 0 99.5 28t57.5 85l28 -7v0zM592 339q-33 19 -50.5 49t-17.5 62v5.5t1 5.5q2 22 13.5 43.5t32.5 38.5q-76 -19 -116 -77.5t-67 -126.5h204v0z" />
    <glyph glyph-name="Ccedilla" unicode="&#xc7;" horiz-adv-x="478" 
d="M349 -59q0 -34 -26 -55.5t-58 -20.5q-14 0 -27.5 4.5t-24.5 15.5q-9 8 -15 20t-8 25v2.5v3.5q0 8 3 16t10 14q6 5 14 8t16 3q7 0 13 -2.5t11 -7.5t7.5 -11t2.5 -13v-1.5v-1.5q-1 -12 -10.5 -22t-24.5 -10h-0.5h-0.5h-0.5h-0.5q6 -6 13.5 -9.5t15.5 -4.5h4h4q20 0 36.5 13
t16.5 35q0 26 -20.5 42.5t-46.5 16.5v28q38 0 67 -24.5t29 -62.5v-1zM461 97q-32 -40 -76.5 -65.5t-95.5 -30.5h-6h-6q-3 -1 -6 -1h-6q-117 0 -190.5 90t-73.5 201q0 118 79 204.5t200 86.5q6 0 12 -0.5t12 -1.5q54 -7 99 -44.5t45 -96.5q0 -24 -14 -42t-33 -18q-4 0 -8.5 1
t-8.5 4q-4 2 -8.5 6t-8.5 10q-6 8 -8.5 15.5t-2.5 14.5q1 14 9.5 22t21.5 8q4 0 8 -1t8 -3l8 -6t8 -8q-1 44 -35.5 72.5t-74.5 36.5q-5 1 -10 1.5t-10 0.5v-1q-49 0 -87.5 -18.5t-64.5 -50.5q-30 -37 -45 -88t-15 -106v-1.5v-1.5q1 -97 51.5 -177.5t153.5 -79.5
q6 0 11.5 0.5t10.5 1.5q39 7 75.5 31.5t59.5 52.5l22 -18v0z" />
    <glyph glyph-name="Egrave" unicode="&#xc8;" horiz-adv-x="392" 
d="M384 135q-16 -67 -69.5 -101t-115.5 -34q-37 0 -73 12.5t-65 37.5q-26 23 -40 50.5t-16 55.5q-1 3 -1 7v7q0 51 32 95.5t87 65.5q-35 16 -59.5 46.5t-24.5 70.5q0 59 45.5 94.5t99.5 38.5h5.5h5.5q44 0 81.5 -23.5t47.5 -76.5q1 -3 1 -6v-6q0 -15 -8.5 -23t-20.5 -8
q-4 0 -7.5 1t-7.5 3q-6 2 -11 6t-9 10q-3 5 -5.5 11t-3.5 13q-1 2 -1 4v4q0 11 6 19.5t20 9.5q-14 17 -34 25t-42 9h-3.5h-3.5q-41 -1 -61.5 -31t-20.5 -67v-4v-4q1 -20 8.5 -38.5t21.5 -32.5q10 -10 25 -19t31 -12q4 0 8 -0.5t8 -0.5h3.5h2.5h61v-29h-10h-9q-39 1 -73.5 -4
t-66.5 -38q-19 -19 -29 -46t-11 -54v-5v-4q0 -51 29.5 -93t87.5 -42q56 0 99.5 28t57.5 85l28 -7v0zM228 616l-16 -24l-111 74l16 24l111 -74v0z" />
    <glyph glyph-name="Eacute" unicode="&#xc9;" horiz-adv-x="392" 
d="M384 135q-16 -67 -69.5 -101t-115.5 -34q-37 0 -73 12.5t-65 37.5q-26 23 -40 50.5t-16 55.5q-1 3 -1 7v7q0 51 32 95.5t87 65.5q-35 16 -59.5 46.5t-24.5 70.5q0 59 45.5 94.5t99.5 38.5h5.5h5.5q44 0 81.5 -23.5t47.5 -76.5q1 -3 1 -6v-6q0 -15 -8.5 -23t-20.5 -8
q-4 0 -7.5 1t-7.5 3q-6 2 -11 6t-9 10q-3 5 -5.5 11t-3.5 13q-1 2 -1 4v4q0 11 6 19.5t20 9.5q-14 17 -34 25t-42 9h-3.5h-3.5q-41 -1 -61.5 -31t-20.5 -67v-4v-4q1 -20 8.5 -38.5t21.5 -32.5q10 -10 25 -19t31 -12q4 0 8 -0.5t8 -0.5h3.5h2.5h61v-29h-10h-9q-39 1 -73.5 -4
t-66.5 -38q-19 -19 -29 -46t-11 -54v-5v-4q0 -51 29.5 -93t87.5 -42q56 0 99.5 28t57.5 85l28 -7v0zM303 668l-111 -74l-16 24l111 74l16 -24v0z" />
    <glyph glyph-name="Ecircumflex" unicode="&#xca;" horiz-adv-x="392" 
d="M384 135q-16 -67 -69.5 -101t-115.5 -34q-37 0 -73 12.5t-65 37.5q-26 23 -40 50.5t-16 55.5q-1 3 -1 7v7q0 51 32 95.5t87 65.5q-35 16 -59.5 46.5t-24.5 70.5q0 59 45.5 94.5t99.5 38.5h5.5h5.5q44 0 81.5 -23.5t47.5 -76.5q1 -3 1 -6v-6q0 -15 -8.5 -23t-20.5 -8
q-4 0 -7.5 1t-7.5 3q-6 2 -11 6t-9 10q-3 5 -5.5 11t-3.5 13q-1 2 -1 4v4q0 11 6 19.5t20 9.5q-14 17 -34 25t-42 9h-3.5h-3.5q-41 -1 -61.5 -31t-20.5 -67v-4v-4q1 -20 8.5 -38.5t21.5 -32.5q10 -10 25 -19t31 -12q4 0 8 -0.5t8 -0.5h3.5h2.5h61v-29h-10h-9q-39 1 -73.5 -4
t-66.5 -38q-19 -19 -29 -46t-11 -54v-5v-4q0 -51 29.5 -93t87.5 -42q56 0 99.5 28t57.5 85l28 -7v0zM284 601l-18 -22l-77 66l-76 -66l-19 22l95 82l95 -82v0z" />
    <glyph glyph-name="Edieresis" unicode="&#xcb;" horiz-adv-x="392" 
d="M384 135q-16 -67 -69.5 -101t-115.5 -34q-37 0 -73 12.5t-65 37.5q-26 23 -40 50.5t-16 55.5q-1 3 -1 7v7q0 51 32 95.5t87 65.5q-35 16 -59.5 46.5t-24.5 70.5q0 59 45.5 94.5t99.5 38.5h5.5h5.5q44 0 81.5 -23.5t47.5 -76.5q1 -3 1 -6v-6q0 -15 -8.5 -23t-20.5 -8
q-4 0 -7.5 1t-7.5 3q-6 2 -11 6t-9 10q-3 5 -5.5 11t-3.5 13q-1 2 -1 4v4q0 11 6 19.5t20 9.5q-14 17 -34 25t-42 9h-3.5h-3.5q-41 -1 -61.5 -31t-20.5 -67v-4v-4q1 -20 8.5 -38.5t21.5 -32.5q10 -10 25 -19t31 -12q4 0 8 -0.5t8 -0.5h3.5h2.5h61v-29h-10h-9q-39 1 -73.5 -4
t-66.5 -38q-19 -19 -29 -46t-11 -54v-5v-4q0 -51 29.5 -93t87.5 -42q56 0 99.5 28t57.5 85l28 -7v0zM180 622q0 -11 -8 -18.5t-19 -7.5q-10 0 -18 7.5t-8 18.5t8 18.5t18 7.5q11 0 19 -7.5t8 -18.5v0zM256 622q0 -11 -8 -18.5t-19 -7.5q-10 0 -18 7.5t-8 18.5t8 18.5t18 7.5
q11 0 19 -7.5t8 -18.5v0z" />
    <glyph glyph-name="Igrave" unicode="&#xcc;" horiz-adv-x="237" 
d="M216 0h-216v29h72v524h-72v29h216v-29h-69v-524h69v-29v0zM150 616l-16 -24l-111 74l16 24l111 -74v0z" />
    <glyph glyph-name="Iacute" unicode="&#xcd;" horiz-adv-x="237" 
d="M216 0h-216v29h72v524h-72v29h216v-29h-69v-524h69v-29v0zM209 668l-111 -74l-16 24l111 74l16 -24v0z" />
    <glyph glyph-name="Icircumflex" unicode="&#xce;" horiz-adv-x="237" 
d="M216 0h-216v29h72v524h-72v29h216v-29h-69v-524h69v-29v0zM204 611l-18 -22l-77 66l-76 -66l-19 22l95 82l95 -82v0z" />
    <glyph glyph-name="Idieresis" unicode="&#xcf;" horiz-adv-x="237" 
d="M216 0h-216v29h72v524h-72v29h216v-29h-69v-524h69v-29v0zM98 626q0 -11 -8 -18.5t-19 -7.5q-10 0 -18 7.5t-8 18.5t8 18.5t18 7.5q11 0 19 -7.5t8 -18.5v0zM174 626q0 -11 -8 -18.5t-19 -7.5q-10 0 -18 7.5t-8 18.5t8 18.5t18 7.5q11 0 19 -7.5t8 -18.5v0z" />
    <glyph glyph-name="Eth" unicode="&#xd0;" horiz-adv-x="609" 
d="M508 496q44 -44 64.5 -96.5t19.5 -106.5q0 -112 -79 -202.5t-210 -90.5h-216v29h73v126q-69 20 -114 77.5t-45 130.5q0 98 66 158t161 61q18 29 40 55.5t47 48.5l19 -21l-2.5 -2.5l-2.5 -2.5q-2 -1 -3 -2.5t-3 -2.5q-15 -19 -26.5 -37.5t-20.5 -35.5q68 0 125.5 -17.5
t106.5 -68.5v0zM516 291q0 98 -65 180t-170 82h-8.5h-9.5q-19 -44 -24 -90.5t-5 -93.5v-15.5v-15.5v-41.5v-40.5v-40.5v-41.5q28 1 54.5 9.5t48.5 23.5l16 -23q-26 -18 -56.5 -28t-62.5 -11v-116h47q105 0 170 81.5t65 180.5v0zM212 552q-78 -4 -130.5 -56.5t-52.5 -132.5
q0 -61 37 -109.5t94 -68.5v23.5v23.5q-1 83 5 162.5t47 157.5v0zM295 243h-198v29h198v-29v0z" />
    <glyph glyph-name="Ntilde" unicode="&#xd1;" horiz-adv-x="694" 
d="M845 671q2 -6 3 -12t1 -11q0 -28 -21 -45.5t-50 -17.5h-0.5h-0.5h-0.5h-0.5q-3 0 -6 1l-6 2q-14 5 -26 17t-12 26q0 5 1.5 9t4.5 8q5 7 11.5 10t13.5 3q2 0 4.5 -0.5t4.5 -0.5q14 -4 26 -14.5t15 -23.5q7 6 10 13.5t3 14.5v2v2q-2 12 -10 22.5t-20 15.5q-6 2 -12.5 3.5
t-14.5 1.5q-6 0 -12 -1t-12 -3q-41 -13 -57 -51.5t-20 -81.5q-2 -21 -2.5 -41.5t-0.5 -38.5v-5v-6v-470h-23l-269 492v-63.5v-63.5v-63.5v-63.5q0 -7 -0.5 -14t-0.5 -14q-8 -85 -61 -155.5t-147 -70.5q-59 0 -105.5 35.5t-46.5 98.5q0 46 29 73t63 31q4 1 7 1h6q30 0 54 -19
t27 -60q0 -27 -12.5 -39.5t-28.5 -12.5h-1.5h-1.5q-15 1 -28 14t-14 34v1.5v1.5q0 14 9 21.5t20 7.5q6 0 12 -2t11 -6q-7 17 -20 24.5t-27 7.5h-4.5t-5.5 -1q-25 -4 -45.5 -25.5t-20.5 -51.5q0 -51 38 -78.5t85 -27.5q79 0 123.5 59t54.5 130q1 9 1.5 18.5t0.5 18.5v315h-87
v29h151l4 -8l224 -410v306v1.5v1.5q0 19 0.5 41.5t2.5 44.5q5 52 25 98.5t73 63.5q8 3 17 4.5t18 1.5q26 -1 48 -14t31 -41v0zM599 635q-3 -8 -6.5 -15.5t-9.5 -14.5q-7 -7 -16 -10.5t-18 -3.5q-4 0 -7.5 0.5t-6.5 1.5q-10 2 -19.5 6t-17.5 9q-1 0 -2.5 0.5t-2.5 1.5
q-2 1 -5 3t-7 4t-8 3.5t-9 3.5q-4 1 -7.5 1.5t-7.5 0.5t-7 -1t-5 -3q-3 -4 -5.5 -9.5t-4.5 -11.5l-27 11q3 8 6.5 15t9.5 14q8 8 16 11t17 3q3 0 6 -0.5t6 -0.5q10 -2 19.5 -6t18.5 -9l4 -2l4 -2q3 -1 6.5 -3t7.5 -4t8 -3.5t8 -2.5q3 -1 6 -1.5t6 -0.5q4 0 7.5 1t5.5 4
q3 3 5.5 8.5t4.5 11.5l27 -10v0z" />
    <glyph glyph-name="Ograve" unicode="&#xd2;" 
 />
    <glyph glyph-name="Oacute" unicode="&#xd3;" horiz-adv-x="563" 
d="M543 292q0 -113 -75.5 -205.5t-195.5 -92.5t-195.5 92.5t-75.5 205.5t75 206t196 93q120 0 195.5 -92.5t75.5 -206.5v0zM408 99q29 41 44 91.5t14 102.5v6v6q-2 48 -16 95t-42 85q-26 36 -61 57t-75 21t-75 -21t-61 -57q-29 -40 -44 -90.5t-14 -103.5v-6v-6q2 -48 16 -95
t42 -85q29 -38 64 -57.5t72 -19.5t72.5 19.5t63.5 57.5v0zM367 676l-111 -74l-16 24l111 74l16 -24v0z" />
    <glyph glyph-name="Ocircumflex" unicode="&#xd4;" horiz-adv-x="563" 
d="M543 292q0 -113 -75.5 -205.5t-195.5 -92.5t-195.5 92.5t-75.5 205.5t75 206t196 93q120 0 195.5 -92.5t75.5 -206.5v0zM408 99q29 41 44 91.5t14 102.5v6v6q-2 48 -16 95t-42 85q-26 36 -61 57t-75 21t-75 -21t-61 -57q-29 -40 -44 -90.5t-14 -103.5v-6v-6q2 -48 16 -95
t42 -85q29 -38 64 -57.5t72 -19.5t72.5 19.5t63.5 57.5v0zM366 619l-18 -22l-77 66l-76 -66l-19 22l95 82l95 -82v0z" />
    <glyph glyph-name="Otilde" unicode="&#xd5;" horiz-adv-x="563" 
d="M543 292q0 -113 -75.5 -205.5t-195.5 -92.5t-195.5 92.5t-75.5 205.5t75 206t196 93q120 0 195.5 -92.5t75.5 -206.5v0zM408 99q29 41 44 91.5t14 102.5v6v6q-2 48 -16 95t-42 85q-26 36 -61 57t-75 21t-75 -21t-61 -57q-29 -40 -44 -90.5t-14 -103.5v-6v-6q2 -48 16 -95
t42 -85q29 -38 64 -57.5t72 -19.5t72.5 19.5t63.5 57.5v0zM379 649q-3 -8 -6.5 -15.5t-9.5 -14.5q-7 -7 -16 -10.5t-18 -3.5q-4 0 -7.5 0.5t-6.5 1.5q-10 2 -19.5 6t-17.5 9q-1 0 -2.5 0.5t-2.5 1.5q-2 1 -5 3t-7 4t-8 3.5t-9 3.5q-4 1 -7.5 1.5t-7.5 0.5t-7 -1t-5 -3
q-3 -4 -5.5 -9.5t-4.5 -11.5l-27 11q3 8 6.5 15t9.5 14q8 8 16 11t17 3q3 0 6 -0.5t6 -0.5q10 -2 19.5 -6t18.5 -9l4 -2l4 -2q3 -1 6.5 -3t7.5 -4t8 -3.5t8 -2.5q3 -1 6 -1.5t6 -0.5q4 0 7.5 1t5.5 4q3 3 5.5 8.5t4.5 11.5l27 -10v0z" />
    <glyph glyph-name="Odieresis" unicode="&#xd6;" horiz-adv-x="563" 
d="M543 292q0 -113 -75.5 -205.5t-195.5 -92.5t-195.5 92.5t-75.5 205.5t75 206t196 93q120 0 195.5 -92.5t75.5 -206.5v0zM408 99q29 41 44 91.5t14 102.5v6v6q-2 48 -16 95t-42 85q-26 36 -61 57t-75 21t-75 -21t-61 -57q-29 -40 -44 -90.5t-14 -103.5v-6v-6q2 -48 16 -95
t42 -85q29 -38 64 -57.5t72 -19.5t72.5 19.5t63.5 57.5v0zM262 634q0 -11 -8 -18.5t-19 -7.5q-10 0 -18 7.5t-8 18.5t8 18.5t18 7.5q11 0 19 -7.5t8 -18.5v0zM338 634q0 -11 -8 -18.5t-19 -7.5q-10 0 -18 7.5t-8 18.5t8 18.5t18 7.5q11 0 19 -7.5t8 -18.5v0z" />
    <glyph glyph-name="multiply" unicode="&#xd7;" horiz-adv-x="500" 
 />
    <glyph glyph-name="Oslash" unicode="&#xd8;" horiz-adv-x="560" 
d="M547 292q0 -113 -75.5 -205.5t-195.5 -92.5q-58 0 -107 23.5t-84 63.5l-38 -38l-21 20l41 40q-30 41 -46 89.5t-16 99.5q0 113 75 206t196 93q59 0 107.5 -23.5t83.5 -63.5l38 38l20 -21l-40 -40q29 -40 45.5 -89t16.5 -100v0zM440 436l-315 -315q2 -3 4 -5.5t4 -5.5
q1 -3 3 -5.5t4 -5.5q29 -38 64 -57.5t72 -19.5t72.5 19.5t63.5 57.5q29 41 43.5 91t14.5 102q0 38 -7.5 74.5t-22.5 69.5v0zM426 463q-3 6 -6.5 11.5t-7.5 10.5q-26 36 -61 57t-75 21t-75 -21t-61 -57q-29 -40 -44 -90.5t-15 -103.5q0 -37 7.5 -74t22.5 -69l315 315v0z" />
    <glyph glyph-name="Ugrave" unicode="&#xd9;" horiz-adv-x="679" 
d="M664 553h-71v-196.5v-196.5q0 -70 -54 -115t-118 -52q-2 -1 -3.5 -1h-2.5q-3 0 -5.5 -0.5t-5.5 -0.5h-5.5h-5.5q-82 0 -140.5 50t-58.5 136q-78 14 -134 73t-56 135q0 19 4.5 38t12.5 38q26 58 80.5 89.5t115.5 31.5h88h88v-29h-125v-348q65 9 107.5 54t42.5 106v10.5
t-1 10.5l29 8q0 -3 0.5 -6t0.5 -6q1 -4 1 -7v-6q-1 -73 -52 -127.5t-128 -65.5q0 -37 6 -66.5t38 -56.5q20 -16 44.5 -24t49.5 -8h2.5h3.5q57 3 104.5 40.5t47.5 98.5v196.5v196.5h-59v29h159v-29v0zM194 207v345q-68 -6 -114.5 -52.5t-46.5 -110.5q0 -16 4 -33.5t12 -35.5
q20 -44 59.5 -73.5t85.5 -39.5v0zM458 618l-16 -24l-111 74l16 24l111 -74v0z" />
    <glyph glyph-name="Uacute" unicode="&#xda;" horiz-adv-x="679" 
d="M664 553h-71v-196.5v-196.5q0 -70 -54 -115t-118 -52q-2 -1 -3.5 -1h-2.5q-3 0 -5.5 -0.5t-5.5 -0.5h-5.5h-5.5q-82 0 -140.5 50t-58.5 136q-78 14 -134 73t-56 135q0 19 4.5 38t12.5 38q26 58 80.5 89.5t115.5 31.5h88h88v-29h-125v-348q65 9 107.5 54t42.5 106v10.5
t-1 10.5l29 8q0 -3 0.5 -6t0.5 -6q1 -4 1 -7v-6q-1 -73 -52 -127.5t-128 -65.5q0 -37 6 -66.5t38 -56.5q20 -16 44.5 -24t49.5 -8h2.5h3.5q57 3 104.5 40.5t47.5 98.5v196.5v196.5h-59v29h159v-29v0zM194 207v345q-68 -6 -114.5 -52.5t-46.5 -110.5q0 -16 4 -33.5t12 -35.5
q20 -44 59.5 -73.5t85.5 -39.5v0zM529 668l-111 -74l-16 24l111 74l16 -24v0z" />
    <glyph glyph-name="Ucircumflex" unicode="&#xdb;" horiz-adv-x="679" 
d="M664 553h-71v-196.5v-196.5q0 -70 -54 -115t-118 -52q-2 -1 -3.5 -1h-2.5q-3 0 -5.5 -0.5t-5.5 -0.5h-5.5h-5.5q-82 0 -140.5 50t-58.5 136q-78 14 -134 73t-56 135q0 19 4.5 38t12.5 38q26 58 80.5 89.5t115.5 31.5h88h88v-29h-125v-348q65 9 107.5 54t42.5 106v10.5
t-1 10.5l29 8q0 -3 0.5 -6t0.5 -6q1 -4 1 -7v-6q-1 -73 -52 -127.5t-128 -65.5q0 -37 6 -66.5t38 -56.5q20 -16 44.5 -24t49.5 -8h2.5h3.5q57 3 104.5 40.5t47.5 98.5v196.5v196.5h-59v29h159v-29v0zM194 207v345q-68 -6 -114.5 -52.5t-46.5 -110.5q0 -16 4 -33.5t12 -35.5
q20 -44 59.5 -73.5t85.5 -39.5v0zM510 611l-18 -22l-77 66l-76 -66l-19 22l95 82l95 -82v0z" />
    <glyph glyph-name="Udieresis" unicode="&#xdc;" horiz-adv-x="679" 
d="M664 553h-71v-196.5v-196.5q0 -70 -54 -115t-118 -52q-2 -1 -3.5 -1h-2.5q-3 0 -5.5 -0.5t-5.5 -0.5h-5.5h-5.5q-82 0 -140.5 50t-58.5 136q-78 14 -134 73t-56 135q0 19 4.5 38t12.5 38q26 58 80.5 89.5t115.5 31.5h88h88v-29h-125v-348q65 9 107.5 54t42.5 106v10.5
t-1 10.5l29 8q0 -3 0.5 -6t0.5 -6q1 -4 1 -7v-6q-1 -73 -52 -127.5t-128 -65.5q0 -37 6 -66.5t38 -56.5q20 -16 44.5 -24t49.5 -8h2.5h3.5q57 3 104.5 40.5t47.5 98.5v196.5v196.5h-59v29h159v-29v0zM194 207v345q-68 -6 -114.5 -52.5t-46.5 -110.5q0 -16 4 -33.5t12 -35.5
q20 -44 59.5 -73.5t85.5 -39.5v0zM412 620q0 -11 -8 -18.5t-19 -7.5q-10 0 -18 7.5t-8 18.5t8 18.5t18 7.5q11 0 19 -7.5t8 -18.5v0zM488 620q0 -11 -8 -18.5t-19 -7.5q-10 0 -18 7.5t-8 18.5t8 18.5t18 7.5q11 0 19 -7.5t8 -18.5v0z" />
    <glyph glyph-name="Yacute" unicode="&#xdd;" 
 />
    <glyph glyph-name="Thorn" unicode="&#xde;" horiz-adv-x="488" 
d="M467 308q-7 -28 -22.5 -50.5t-38.5 -37.5q-22 -15 -47 -22.5t-50 -9.5h-7.5h-7.5h-9.5t-9.5 1q-10 0 -19.5 1.5t-18.5 3.5v-88q24 0 47.5 6t44.5 18l14 -25q-24 -13 -51 -20.5t-55 -7.5v-48h69v-29h-216v29h73v60q-70 24 -116 84t-46 135q0 89 54.5 151t136.5 76
q19 46 51 85t77 68l15 -24q-27 -27 -50 -57.5t-34 -67.5q57 -1 97.5 -15t67.5 -37q26 -24 40.5 -58t15.5 -70v-4v-4q0 -11 -1.5 -21.5t-3.5 -21.5v0zM180 503q-65 -16 -107.5 -68.5t-42.5 -126.5q0 -63 37.5 -114t95.5 -74v262q0 32 4.5 62.5t12.5 58.5v0zM390 358
q0 33 -10.5 62t-33.5 49q-17 16 -42.5 26t-59.5 12q-4 -25 -5.5 -56t-1.5 -69v-156q11 -1 20 -2t18 -1q27 0 46.5 6.5t32.5 18.5t20.5 28.5t11.5 35.5q2 11 3 22.5t1 23.5v0z" />
    <glyph glyph-name="germandbls" unicode="&#xdf;" horiz-adv-x="304" 
d="M293 63q0 -24 -18.5 -39t-40.5 -21q-7 -1 -13 -2t-12 -1v1h-1.5h-1.5q-7 0 -14 1t-14 3q-20 5 -37 16.5t-22 30.5q0 2 -0.5 3t-0.5 3v2.5v2.5q0 13 7.5 22.5t21.5 10.5h1.5h1.5q17 0 29.5 -14t14.5 -31v-2.5v-2.5q0 -4 -1 -7.5t-3 -7.5q4 -1 8.5 -1.5t8.5 0.5h3.5h2.5
q5 1 9.5 2t7.5 3q2 1 3 2.5t2 2.5q0 1 0.5 2.5t0.5 2.5q0 4 -7 11t-16 15q-2 1 -3.5 2.5t-3.5 2.5q-8 7 -15.5 12.5t-11.5 8.5t-7.5 6t-7.5 5q-16 13 -28 26.5t-12 30.5q0 12 7 20t15 16q2 1 3 2l2 2q5 4 10 8.5t9 10.5q12 17 20.5 49.5t8.5 73.5v13.5t-1 13.5v1
q-2 38 -11 71t-23 58q-11 22 -25 35.5t-37 13.5h-0.5h-0.5h-0.5h-0.5v-680l-69 -20v343h-33v29h33v144v143q0 32 22 51t49 19h3h3q1 0 2.5 -0.5t2.5 -0.5q29 -4 46.5 -21t30.5 -43q14 -27 24 -63.5t13 -77.5v1q1 -8 1 -15.5v-15.5q0 -49 -11.5 -89t-31.5 -63q-2 -2 -4 -4.5
t-2 -5.5t7 -9.5t16 -13.5q1 -2 3 -3t3 -2q8 -6 15 -11t11 -8q23 -16 41 -33.5t18 -40.5v0z" />
    <glyph glyph-name="agrave" unicode="&#xe0;" horiz-adv-x="283" 
d="M274 60q0 -27 -18.5 -43t-41.5 -16q-13 0 -25 6t-21 19q-14 -13 -30 -19.5t-33 -5.5q-19 0 -38 8.5t-33 24.5q-14 17 -21.5 37.5t-6.5 42.5q0 21 7 41t21 36q14 17 33 25.5t38 8.5q14 0 27 -4.5t25 -12.5v11h34.5h33.5v-90v-90q0 -2 1.5 -3.5t3.5 -1.5q1 0 1.5 0.5
t1.5 0.5q6 4 9.5 11t3.5 14h28v0zM157 57v112q-5 7 -12 12.5t-15 9.5q-2 1 -4 1.5t-4 0.5q-9 -1 -16 -7t-12 -14q-7 -13 -10.5 -28t-3.5 -32q0 -16 3.5 -31t10.5 -27q7 -10 14 -15t14 -5q9 0 18 6.5t17 16.5v0zM162 262l-16 -24l-111 74l16 24l111 -74v0z" />
    <glyph glyph-name="aacute" unicode="&#xe1;" horiz-adv-x="283" 
d="M274 60q0 -27 -18.5 -43t-41.5 -16q-13 0 -25 6t-21 19q-14 -13 -30 -19.5t-33 -5.5q-19 0 -38 8.5t-33 24.5q-14 17 -21.5 37.5t-6.5 42.5q0 21 7 41t21 36q14 17 33 25.5t38 8.5q14 0 27 -4.5t25 -12.5v11h34.5h33.5v-90v-90q0 -2 1.5 -3.5t3.5 -1.5q1 0 1.5 0.5
t1.5 0.5q6 4 9.5 11t3.5 14h28v0zM157 57v112q-5 7 -12 12.5t-15 9.5q-2 1 -4 1.5t-4 0.5q-9 -1 -16 -7t-12 -14q-7 -13 -10.5 -28t-3.5 -32q0 -16 3.5 -31t10.5 -27q7 -10 14 -15t14 -5q9 0 18 6.5t17 16.5v0zM239 314l-111 -74l-16 24l111 74l16 -24v0z" />
    <glyph glyph-name="acircumflex" unicode="&#xe2;" horiz-adv-x="283" 
d="M274 60q0 -27 -18.5 -43t-41.5 -16q-13 0 -25 6t-21 19q-14 -13 -30 -19.5t-33 -5.5q-19 0 -38 8.5t-33 24.5q-14 17 -21.5 37.5t-6.5 42.5q0 21 7 41t21 36q14 17 33 25.5t38 8.5q14 0 27 -4.5t25 -12.5v11h34.5h33.5v-90v-90q0 -2 1.5 -3.5t3.5 -1.5q1 0 1.5 0.5
t1.5 0.5q6 4 9.5 11t3.5 14h28v0zM157 57v112q-5 7 -12 12.5t-15 9.5q-2 1 -4 1.5t-4 0.5q-9 -1 -16 -7t-12 -14q-7 -13 -10.5 -28t-3.5 -32q0 -16 3.5 -31t10.5 -27q7 -10 14 -15t14 -5q9 0 18 6.5t17 16.5v0zM214 253l-18 -22l-77 66l-76 -66l-19 22l95 82l95 -82v0z" />
    <glyph glyph-name="atilde" unicode="&#xe3;" horiz-adv-x="283" 
d="M274 60q0 -27 -18.5 -43t-41.5 -16q-13 0 -25 6t-21 19q-14 -13 -30 -19.5t-33 -5.5q-19 0 -38 8.5t-33 24.5q-14 17 -21.5 37.5t-6.5 42.5q0 21 7 41t21 36q14 17 33 25.5t38 8.5q14 0 27 -4.5t25 -12.5v11h34.5h33.5v-90v-90q0 -2 1.5 -3.5t3.5 -1.5q1 0 1.5 0.5
t1.5 0.5q6 4 9.5 11t3.5 14h28v0zM157 57v112q-5 7 -12 12.5t-15 9.5q-2 1 -4 1.5t-4 0.5q-9 -1 -16 -7t-12 -14q-7 -13 -10.5 -28t-3.5 -32q0 -16 3.5 -31t10.5 -27q7 -10 14 -15t14 -5q9 0 18 6.5t17 16.5v0zM235 283q-3 -8 -6.5 -15.5t-9.5 -14.5q-7 -7 -16 -10.5
t-18 -3.5q-4 0 -7.5 0.5t-6.5 1.5q-10 2 -19.5 6t-17.5 9q-1 0 -2.5 0.5t-2.5 1.5q-2 1 -5 3t-7 4t-8 3.5t-9 3.5q-4 1 -7.5 1.5t-7.5 0.5t-7 -1t-5 -3q-3 -4 -5.5 -9.5t-4.5 -11.5l-27 11q3 8 6.5 15t9.5 14q8 8 16 11t17 3q3 0 6 -0.5t6 -0.5q10 -2 19.5 -6t18.5 -9l4 -2
l4 -2q3 -1 6.5 -3t7.5 -4t8 -3.5t8 -2.5q3 -1 6 -1.5t6 -0.5q4 0 7.5 1t5.5 4q3 3 5.5 8.5t4.5 11.5l27 -10v0z" />
    <glyph glyph-name="adieresis" unicode="&#xe4;" horiz-adv-x="283" 
d="M274 60q0 -27 -18.5 -43t-41.5 -16q-13 0 -25 6t-21 19q-14 -13 -30 -19.5t-33 -5.5q-19 0 -38 8.5t-33 24.5q-14 17 -21.5 37.5t-6.5 42.5q0 21 7 41t21 36q14 17 33 25.5t38 8.5q14 0 27 -4.5t25 -12.5v11h34.5h33.5v-90v-90q0 -2 1.5 -3.5t3.5 -1.5q1 0 1.5 0.5
t1.5 0.5q6 4 9.5 11t3.5 14h28v0zM157 57v112q-5 7 -12 12.5t-15 9.5q-2 1 -4 1.5t-4 0.5q-9 -1 -16 -7t-12 -14q-7 -13 -10.5 -28t-3.5 -32q0 -16 3.5 -31t10.5 -27q7 -10 14 -15t14 -5q9 0 18 6.5t17 16.5v0zM132 262q0 -11 -8 -18.5t-19 -7.5q-10 0 -18 7.5t-8 18.5
t8 18.5t18 7.5q11 0 19 -7.5t8 -18.5v0zM208 262q0 -11 -8 -18.5t-19 -7.5q-10 0 -18 7.5t-8 18.5t8 18.5t18 7.5q11 0 19 -7.5t8 -18.5v0z" />
    <glyph glyph-name="aring" unicode="&#xe5;" horiz-adv-x="283" 
d="M274 60q0 -27 -18.5 -43t-41.5 -16q-13 0 -25 6t-21 19q-14 -13 -30 -19.5t-33 -5.5q-19 0 -38 8.5t-33 24.5q-14 17 -21.5 37.5t-6.5 42.5q0 21 7 41t21 36q14 17 33 25.5t38 8.5q14 0 27 -4.5t25 -12.5v11h34.5h33.5v-90v-90q0 -2 1.5 -3.5t3.5 -1.5q1 0 1.5 0.5
t1.5 0.5q6 4 9.5 11t3.5 14h28v0zM157 57v112q-5 7 -12 12.5t-15 9.5q-2 1 -4 1.5t-4 0.5q-9 -1 -16 -7t-12 -14q-7 -13 -10.5 -28t-3.5 -32q0 -16 3.5 -31t10.5 -27q7 -10 14 -15t14 -5q9 0 18 6.5t17 16.5v0zM149 274q0 -15 -11 -25.5t-26 -10.5t-25.5 10.5t-10.5 25.5
t10.5 26t25.5 11t26 -11t11 -26v0zM124 262q3 3 4 6t1 7q0 6 -4.5 11t-12.5 5q-7 0 -12 -4.5t-5 -12.5q0 -7 5.5 -12t12.5 -5q3 0 6 1.5t5 3.5v0z" />
    <glyph glyph-name="ae" unicode="&#xe6;" horiz-adv-x="373" 
d="M362 45q-16 -20 -38.5 -31t-45.5 -13h-5h-4q-24 0 -47 10t-41 30l-2.5 -2.5t-3.5 -2.5q-3 -2 -5.5 -4.5t-6.5 -5.5q-14 -13 -30 -19.5t-33 -5.5q-19 0 -38 8.5t-33 24.5q-14 17 -21 37.5t-7 42.5q0 21 7.5 41t20.5 36q14 17 33 25.5t38 8.5q14 0 27 -4.5t25 -12.5v11
h34.5h34.5v-1.5v-0.5v-1.5v-1.5q11 5 23.5 8t25.5 3h3.5h2.5q25 -1 46 -13t24 -40v-2t1 -2v-3v-2q-1 -30 -23 -48t-48 -28q-9 -3 -17 -5.5t-16 -4.5l-4 -1q1 -4 2.5 -8t2.5 -8q5 -12 13 -21.5t21 -8.5h1.5h1.5q17 2 32 11t26 22l23 -18v0zM152 57v112q-5 7 -12 12.5t-15 9.5
q-1 0 -2 0.5t-2 0.5q-1 1 -2 1h-2q-8 -1 -15 -7t-12 -14q-7 -13 -11 -28t-4 -32q0 -16 4 -31t11 -27q4 -7 8.5 -11.5t9.5 -6.5q2 -1 4.5 -1.5t4.5 -0.5q10 0 19 6.5t16 16.5v0zM318 169q-1 12 -10.5 18t-21.5 8h-3h-4q-16 0 -26 -16t-14 -36q-2 -9 -3 -17.5t-1 -15.5v-2v-3
q7 2 16 4.5t18 6.5q19 7 34 19t15 30v2.5v1.5v0z" />
    <glyph glyph-name="ccedilla" unicode="&#xe7;" horiz-adv-x="212" 
d="M191 -56q0 -34 -26 -55.5t-58 -20.5q-14 0 -27.5 4.5t-24.5 15.5q-9 8 -15 20t-8 25v2.5v3.5q0 8 3 16t10 14q6 5 14 8t16 3q7 0 13 -2.5t11 -7.5t7.5 -11t2.5 -13v-1.5v-1.5q-1 -12 -10.5 -22t-24.5 -10h-0.5h-0.5h-0.5h-0.5q6 -6 13.5 -9.5t15.5 -4.5h4h4q20 0 36.5 13
t16.5 35q0 26 -20.5 42.5t-46.5 16.5v28q38 0 67 -24.5t29 -62.5v-1zM202 46q-16 -23 -35 -34.5t-48 -11.5q-52 0 -84.5 35.5t-32.5 78.5v6.5t1 7.5q2 17 10.5 33.5t23.5 30.5q17 17 39 25t44 8h6t7 -1q3 0 6 -0.5t6 -1.5q4 -1 8.5 -2t8.5 -3q5 -2 10.5 -4.5t9.5 -5.5
q7 -5 11 -10.5t6 -11.5q1 -3 1.5 -5.5t0.5 -5.5q0 -13 -9.5 -22.5t-23.5 -9.5q-4 0 -8.5 1t-9.5 3q-2 1 -4.5 2.5t-4.5 3.5q-8 5 -13.5 14.5t-5.5 19.5v4t1 4q-19 -5 -28.5 -28.5t-10.5 -50.5v-1v-2q0 -31 12 -56.5t35 -25.5q6 0 11.5 2t10.5 4q6 4 12 10.5t13 15.5l24 -16
v0z" />
    <glyph glyph-name="egrave" unicode="&#xe8;" horiz-adv-x="221" 
d="M213 45q-18 -22 -43 -33.5t-51 -11.5h-6t-6 1q-18 2 -35.5 10t-32.5 22q-18 17 -26.5 37.5t-8.5 41.5q1 44 33.5 78t84.5 35h1.5h1.5q26 -1 47.5 -13t25.5 -40v-2v-2v-2v-2q0 -30 -22.5 -48.5t-50.5 -28.5q-8 -3 -16 -5.5t-15 -4.5l-3 -1q1 -4 2.5 -8t2.5 -8
q5 -12 12.5 -21.5t20.5 -8.5h1.5h1.5q17 2 32.5 11t26.5 22l22 -18v0zM169 169q-1 12 -10 18t-19 7q-2 1 -4.5 1h-4.5q-16 0 -26 -16t-14 -35q-3 -10 -4 -19.5t-1 -16.5v-1.5v-1.5q7 2 16 4.5t18 6.5q19 7 34 19t15 30v2v2v0zM172 262l-16 -24l-111 74l16 24l111 -74v0z" />
    <glyph glyph-name="eacute" unicode="&#xe9;" horiz-adv-x="221" 
d="M213 45q-18 -22 -43 -33.5t-51 -11.5h-6t-6 1q-18 2 -35.5 10t-32.5 22q-18 17 -26.5 37.5t-8.5 41.5q1 44 33.5 78t84.5 35h1.5h1.5q26 -1 47.5 -13t25.5 -40v-2v-2v-2v-2q0 -30 -22.5 -48.5t-50.5 -28.5q-8 -3 -16 -5.5t-15 -4.5l-3 -1q1 -4 2.5 -8t2.5 -8
q5 -12 12.5 -21.5t20.5 -8.5h1.5h1.5q17 2 32.5 11t26.5 22l22 -18v0zM169 169q-1 12 -10 18t-19 7q-2 1 -4.5 1h-4.5q-16 0 -26 -16t-14 -35q-3 -10 -4 -19.5t-1 -16.5v-1.5v-1.5q7 2 16 4.5t18 6.5q19 7 34 19t15 30v2v2v0zM207 312l-111 -74l-16 24l111 74l16 -24v0z" />
    <glyph glyph-name="ecircumflex" unicode="&#xea;" horiz-adv-x="221" 
d="M213 45q-18 -22 -43 -33.5t-51 -11.5h-6t-6 1q-18 2 -35.5 10t-32.5 22q-18 17 -26.5 37.5t-8.5 41.5q1 44 33.5 78t84.5 35h1.5h1.5q26 -1 47.5 -13t25.5 -40v-2v-2v-2v-2q0 -30 -22.5 -48.5t-50.5 -28.5q-8 -3 -16 -5.5t-15 -4.5l-3 -1q1 -4 2.5 -8t2.5 -8
q5 -12 12.5 -21.5t20.5 -8.5h1.5h1.5q17 2 32.5 11t26.5 22l22 -18v0zM169 169q-1 12 -10 18t-19 7q-2 1 -4.5 1h-4.5q-16 0 -26 -16t-14 -35q-3 -10 -4 -19.5t-1 -16.5v-1.5v-1.5q7 2 16 4.5t18 6.5q19 7 34 19t15 30v2v2v0zM210 243l-18 -22l-77 66l-76 -66l-19 22l95 82
l95 -82v0z" />
    <glyph glyph-name="edieresis" unicode="&#xeb;" horiz-adv-x="221" 
d="M213 45q-18 -22 -43 -33.5t-51 -11.5h-6t-6 1q-18 2 -35.5 10t-32.5 22q-18 17 -26.5 37.5t-8.5 41.5q1 44 33.5 78t84.5 35h1.5h1.5q26 -1 47.5 -13t25.5 -40v-2v-2v-2v-2q0 -30 -22.5 -48.5t-50.5 -28.5q-8 -3 -16 -5.5t-15 -4.5l-3 -1q1 -4 2.5 -8t2.5 -8
q5 -12 12.5 -21.5t20.5 -8.5h1.5h1.5q17 2 32.5 11t26.5 22l22 -18v0zM169 169q-1 12 -10 18t-19 7q-2 1 -4.5 1h-4.5q-16 0 -26 -16t-14 -35q-3 -10 -4 -19.5t-1 -16.5v-1.5v-1.5q7 2 16 4.5t18 6.5q19 7 34 19t15 30v2v2v0zM106 264q0 -11 -8 -18.5t-19 -7.5
q-10 0 -18 7.5t-8 18.5t8 18.5t18 7.5q11 0 19 -7.5t8 -18.5v0zM182 264q0 -11 -8 -18.5t-19 -7.5q-10 0 -18 7.5t-8 18.5t8 18.5t18 7.5q11 0 19 -7.5t8 -18.5v0z" />
    <glyph glyph-name="igrave" unicode="&#xec;" horiz-adv-x="135" 
d="M123 60q0 -25 -17.5 -42t-41.5 -17t-41 17t-17 42v159h68v-180q0 -2 1.5 -3.5t3.5 -1.5q1 0 1.5 0.5l0.5 0.5q6 5 9.5 11.5t3.5 13.5h29v0zM60 260l-16 -24l-111 74l16 24l111 -74v0z" />
    <glyph glyph-name="iacute" unicode="&#xed;" horiz-adv-x="135" 
d="M123 60q0 -25 -17.5 -42t-41.5 -17t-41 17t-17 42v159h68v-180q0 -2 1.5 -3.5t3.5 -1.5q1 0 1.5 0.5l0.5 0.5q6 5 9.5 11.5t3.5 13.5h29v0zM151 310l-111 -74l-16 24l111 74l16 -24v0z" />
    <glyph glyph-name="icircumflex" unicode="&#xee;" horiz-adv-x="135" 
d="M123 60q0 -25 -17.5 -42t-41.5 -17t-41 17t-17 42v159h68v-180q0 -2 1.5 -3.5t3.5 -1.5q1 0 1.5 0.5l0.5 0.5q6 5 9.5 11.5t3.5 13.5h29v0zM134 235l-18 -22l-77 66l-76 -66l-19 22l95 82l95 -82v0z" />
    <glyph glyph-name="idieresis" unicode="&#xef;" horiz-adv-x="135" 
d="M123 60q0 -25 -17.5 -42t-41.5 -17t-41 17t-17 42v159h68v-180q0 -2 1.5 -3.5t3.5 -1.5q1 0 1.5 0.5l0.5 0.5q6 5 9.5 11.5t3.5 13.5h29v0zM30 262q0 -11 -8 -18.5t-19 -7.5q-10 0 -17.5 7.5t-7.5 18.5t7.5 18.5t17.5 7.5q11 0 19 -7.5t8 -18.5v0zM106 262
q0 -11 -8 -18.5t-19 -7.5q-10 0 -18 7.5t-8 18.5t8 18.5t18 7.5q11 0 19 -7.5t8 -18.5v0z" />
    <glyph glyph-name="eth" unicode="&#xf0;" horiz-adv-x="257" 
d="M275 542l-39 -23v-2v-1v-2v-2v-397q0 -58 -36 -86t-80 -28h-1.5h-1.5q-43 2 -78.5 30t-35.5 82q0 47 35 79.5t81 32.5h8.5t7.5 -1h1.5t1.5 -1q8 -1 15.5 -3t14.5 -5v262l-23 -13l-13 21l36 22v46h-1.5h-2.5q-7 0 -13.5 -3t-12.5 -9l-20 21q11 11 23 15.5t25 4.5
q20 0 37 -10.5t26 -27.5l33 19l13 -21v0zM168 71v111q-8 5 -17.5 8.5t-19.5 4.5h-1.5h-0.5q-9 0 -15.5 -5t-11.5 -13q-9 -13 -13.5 -30t-4.5 -35q0 -17 4.5 -33.5t13.5 -30.5q5 -7 11.5 -12.5t15.5 -5.5h0.5h0.5h0.5h0.5h2t2 1h1h2q14 5 22 16t8 24v0z" />
    <glyph glyph-name="ntilde" unicode="&#xf1;" horiz-adv-x="322" 
d="M309 60q0 -25 -17.5 -42t-41.5 -17t-41.5 17t-17.5 42v118q0 8 -5.5 11.5t-12.5 3.5h-2.5t-3.5 -1q-1 1 -5 -1.5t-8 -5.5q-1 0 -1.5 -0.5l-1.5 -1.5q-4 -2 -7 -4.5t-4 -3.5q-8 -7 -14 -16t-8 -19v-140h-69v187v0.5v1.5q-1 0 -2 1t-1 2h-1.5h-0.5h-0.5h-0.5q0 -1 -0.5 -1
h-0.5q-6 -4 -9.5 -10.5t-3.5 -14.5h-29q0 27 18 42.5t40 16.5h1.5h1.5q16 0 30.5 -8.5t21.5 -27.5q9 10 20 17.5t23 11.5q8 3 17 5t18 2q13 0 25.5 -4.5t22.5 -12.5t16 -19.5t6 -25.5v-124v-0.5v-0.5q0 -2 0.5 -3t3.5 -1q4 0 7.5 4.5t4.5 9.5q2 4 2.5 7t0.5 5h29v0zM247 285
q-3 -8 -6.5 -15.5t-9.5 -14.5q-7 -7 -16 -10.5t-18 -3.5q-4 0 -7.5 0.5t-6.5 1.5q-10 2 -19.5 6t-17.5 9q-1 0 -2.5 0.5t-2.5 1.5q-2 1 -5 3t-7 4t-8 3.5t-9 3.5q-4 1 -7.5 1.5t-7.5 0.5t-7 -1t-5 -3q-3 -4 -5.5 -9.5t-4.5 -11.5l-27 11q3 8 6.5 15t9.5 14q8 8 16 11t17 3
q3 0 6 -0.5t6 -0.5q10 -2 19.5 -6t18.5 -9l4 -2l4 -2q3 -1 6.5 -3t7.5 -4t8 -3.5t8 -2.5q3 -1 6 -1.5t6 -0.5q4 0 7.5 1t5.5 4q3 3 5.5 8.5t4.5 11.5l27 -10v0z" />
    <glyph glyph-name="ograve" unicode="&#xf2;" horiz-adv-x="220" 
d="M202 113v-1.5v-1.5q-1 -41 -28.5 -75.5t-71.5 -34.5t-71.5 34.5t-28.5 75.5v1.5v1.5q0 42 27.5 77t72.5 35t72.5 -35t27.5 -77v0zM152 53q9 10 14 22t6 24q1 3 1 6v6q-1 31 -16.5 55t-35.5 23q-2 0 -4.5 -0.5t-4.5 -1.5q-5 -2 -9.5 -5.5t-8.5 -10.5q-6 -9 -9.5 -23.5
t-3.5 -34.5q0 -6 0.5 -13.5t1.5 -14.5q3 -18 12 -33t29 -15q8 0 15.5 5t12.5 11v0zM156 256l-16 -24l-111 74l16 24l111 -74v0z" />
    <glyph glyph-name="oacute" unicode="&#xf3;" horiz-adv-x="220" 
d="M202 113v-1.5v-1.5q-1 -41 -28.5 -75.5t-71.5 -34.5t-71.5 34.5t-28.5 75.5v1.5v1.5q0 42 27.5 77t72.5 35t72.5 -35t27.5 -77v0zM152 53q9 10 14 22t6 24q1 3 1 6v6q-1 31 -16.5 55t-35.5 23q-2 0 -4.5 -0.5t-4.5 -1.5q-5 -2 -9.5 -5.5t-8.5 -10.5q-6 -9 -9.5 -23.5
t-3.5 -34.5q0 -6 0.5 -13.5t1.5 -14.5q3 -18 12 -33t29 -15q8 0 15.5 5t12.5 11v0zM211 312l-111 -74l-16 24l111 74l16 -24v0z" />
    <glyph glyph-name="ocircumflex" unicode="&#xf4;" horiz-adv-x="220" 
d="M202 113v-1.5v-1.5q-1 -41 -28.5 -75.5t-71.5 -34.5t-71.5 34.5t-28.5 75.5v1.5v1.5q0 42 27.5 77t72.5 35t72.5 -35t27.5 -77v0zM152 53q9 10 14 22t6 24q1 3 1 6v6q-1 31 -16.5 55t-35.5 23q-2 0 -4.5 -0.5t-4.5 -1.5q-5 -2 -9.5 -5.5t-8.5 -10.5q-6 -9 -9.5 -23.5
t-3.5 -34.5q0 -6 0.5 -13.5t1.5 -14.5q3 -18 12 -33t29 -15q8 0 15.5 5t12.5 11v0zM190 237l-18 -22l-77 66l-76 -66l-19 22l95 82l95 -82v0z" />
    <glyph glyph-name="otilde" unicode="&#xf5;" horiz-adv-x="220" 
d="M202 113v-1.5v-1.5q-1 -41 -28.5 -75.5t-71.5 -34.5t-71.5 34.5t-28.5 75.5v1.5v1.5q0 42 27.5 77t72.5 35t72.5 -35t27.5 -77v0zM152 53q9 10 14 22t6 24q1 3 1 6v6q-1 31 -16.5 55t-35.5 23q-2 0 -4.5 -0.5t-4.5 -1.5q-5 -2 -9.5 -5.5t-8.5 -10.5q-6 -9 -9.5 -23.5
t-3.5 -34.5q0 -6 0.5 -13.5t1.5 -14.5q3 -18 12 -33t29 -15q8 0 15.5 5t12.5 11v0zM205 279q-3 -8 -6.5 -15.5t-9.5 -14.5q-7 -7 -16 -10.5t-18 -3.5q-4 0 -7.5 0.5t-6.5 1.5q-10 2 -19.5 6t-17.5 9q-1 0 -2.5 0.5t-2.5 1.5q-2 1 -5 3t-7 4t-8 3.5t-9 3.5q-4 1 -7.5 1.5
t-7.5 0.5t-7 -1t-5 -3q-3 -4 -5.5 -9.5t-4.5 -11.5l-27 11q3 8 6.5 15t9.5 14q8 8 16 11t17 3q3 0 6 -0.5t6 -0.5q10 -2 19.5 -6t18.5 -9l4 -2l4 -2q3 -1 6.5 -3t7.5 -4t8 -3.5t8 -2.5q3 -1 6 -1.5t6 -0.5q4 0 7.5 1t5.5 4q3 3 5.5 8.5t4.5 11.5l27 -10v0z" />
    <glyph glyph-name="odieresis" unicode="&#xf6;" horiz-adv-x="220" 
d="M202 113v-1.5v-1.5q-1 -41 -28.5 -75.5t-71.5 -34.5t-71.5 34.5t-28.5 75.5v1.5v1.5q0 42 27.5 77t72.5 35t72.5 -35t27.5 -77v0zM152 53q9 10 14 22t6 24q1 3 1 6v6q-1 31 -16.5 55t-35.5 23q-2 0 -4.5 -0.5t-4.5 -1.5q-5 -2 -9.5 -5.5t-8.5 -10.5q-6 -9 -9.5 -23.5
t-3.5 -34.5q0 -6 0.5 -13.5t1.5 -14.5q3 -18 12 -33t29 -15q8 0 15.5 5t12.5 11v0zM94 266q0 -11 -8 -18.5t-19 -7.5q-10 0 -18 7.5t-8 18.5t8 18.5t18 7.5q11 0 19 -7.5t8 -18.5v0zM170 266q0 -11 -8 -18.5t-19 -7.5q-10 0 -18 7.5t-8 18.5t8 18.5t18 7.5q11 0 19 -7.5
t8 -18.5v0z" />
    <glyph glyph-name="divide" unicode="&#xf7;" horiz-adv-x="500" 
 />
    <glyph glyph-name="oslash" unicode="&#xf8;" horiz-adv-x="212" 
d="M202 113v-1.5v-1.5q-1 -41 -28.5 -75.5t-71.5 -34.5q-10 0 -18.5 2t-16.5 5l-13 -26h-31l20 41q-19 16 -30 40.5t-11 50.5q0 42 27.5 77t72.5 35q11 0 20.5 -2t17.5 -6l14 27h30l-21 -42q17 -15 27 -36.5t12 -44.5v-4v-4v0zM152 53q11 13 15.5 27.5t4.5 29.5q0 19 -6 36
t-17 28l-57 -117q5 -9 12.5 -14.5t19.5 -5.5q8 0 15.5 5t12.5 11v0zM126 189h-1.5h-0.5h-1.5h-1.5q-2 0 -4.5 -0.5t-4.5 -1.5q-5 -2 -9.5 -5.5t-8.5 -10.5q-6 -9 -9.5 -23.5t-3.5 -34.5v-3.5v-3.5t0.5 -3.5t0.5 -3.5l44 90v0z" />
    <glyph glyph-name="ugrave" unicode="&#xf9;" horiz-adv-x="277" 
d="M259 59q0 -27 -18.5 -43t-41.5 -16q-15 0 -29 8t-22 25q-15 -14 -35 -23.5t-41 -8.5q-13 0 -25.5 4t-23.5 13q-10 8 -15.5 19.5t-5.5 24.5v163h70v-178q0 -6 4.5 -9.5t10.5 -4.5h0.5h1.5h2h2l1 0.5t2 0.5q14 5 26 15t19 23v153h70v-186v-0.5v-1.5v0v0v-1.5v-0.5
q2 -1 2.5 -1.5t1.5 0.5h0.5h0.5q0 1 0.5 1h0.5q7 3 10 10t3 14h29v0zM154 264l-16 -24l-111 74l16 24l111 -74v0z" />
    <glyph glyph-name="uacute" unicode="&#xfa;" horiz-adv-x="277" 
d="M259 59q0 -27 -18.5 -43t-41.5 -16q-15 0 -29 8t-22 25q-15 -14 -35 -23.5t-41 -8.5q-13 0 -25.5 4t-23.5 13q-10 8 -15.5 19.5t-5.5 24.5v163h70v-178q0 -6 4.5 -9.5t10.5 -4.5h0.5h1.5h2h2l1 0.5t2 0.5q14 5 26 15t19 23v153h70v-186v-0.5v-1.5v0v0v-1.5v-0.5
q2 -1 2.5 -1.5t1.5 0.5h0.5h0.5q0 1 0.5 1h0.5q7 3 10 10t3 14h29v0zM209 312l-111 -74l-16 24l111 74l16 -24v0z" />
    <glyph glyph-name="ucircumflex" unicode="&#xfb;" horiz-adv-x="277" 
d="M259 59q0 -27 -18.5 -43t-41.5 -16q-15 0 -29 8t-22 25q-15 -14 -35 -23.5t-41 -8.5q-13 0 -25.5 4t-23.5 13q-10 8 -15.5 19.5t-5.5 24.5v163h70v-178q0 -6 4.5 -9.5t10.5 -4.5h0.5h1.5h2h2l1 0.5t2 0.5q14 5 26 15t19 23v153h70v-186v-0.5v-1.5v0v0v-1.5v-0.5
q2 -1 2.5 -1.5t1.5 0.5h0.5h0.5q0 1 0.5 1h0.5q7 3 10 10t3 14h29v0zM202 259l-18 -22l-77 66l-76 -66l-19 22l95 82l95 -82v0z" />
    <glyph glyph-name="udieresis" unicode="&#xfc;" horiz-adv-x="277" 
d="M259 59q0 -27 -18.5 -43t-41.5 -16q-15 0 -29 8t-22 25q-15 -14 -35 -23.5t-41 -8.5q-13 0 -25.5 4t-23.5 13q-10 8 -15.5 19.5t-5.5 24.5v163h70v-178q0 -6 4.5 -9.5t10.5 -4.5h0.5h1.5h2h2l1 0.5t2 0.5q14 5 26 15t19 23v153h70v-186v-0.5v-1.5v0v0v-1.5v-0.5
q2 -1 2.5 -1.5t1.5 0.5h0.5h0.5q0 1 0.5 1h0.5q7 3 10 10t3 14h29v0zM98 266q0 -11 -8 -18.5t-19 -7.5q-10 0 -18 7.5t-8 18.5t8 18.5t18 7.5q11 0 19 -7.5t8 -18.5v0zM174 266q0 -11 -8 -18.5t-19 -7.5q-10 0 -18 7.5t-8 18.5t8 18.5t18 7.5q11 0 19 -7.5t8 -18.5v0z" />
    <glyph glyph-name="yacute" unicode="&#xfd;" 
 />
    <glyph glyph-name="thorn" unicode="&#xfe;" horiz-adv-x="225" 
d="M186 34q-14 -16 -33 -24.5t-39 -8.5q-4 0 -7.5 0.5t-7.5 0.5q-8 2 -15.5 5t-14.5 7v-238h-69v686h34.5h34.5v-250q6 3 11.5 5.5t11.5 4.5q6 1 11.5 2t11.5 1q20 0 38.5 -8.5t32.5 -25.5q14 -16 21.5 -36.5t6.5 -42.5q0 -21 -7 -41t-21 -37v0zM126 54q6 10 9.5 23t4.5 27
v4.5v4.5v4.5v4.5q-1 14 -4.5 27t-9.5 23q0 1 -0.5 1.5l-1.5 1.5q-5 6 -12 12t-15 6h-2t-1 -1q-1 0 -2 -0.5t-2 -0.5q-6 -3 -11 -7t-10 -9v-125q8 -7 15.5 -12t14.5 -5t13.5 5t13.5 16v0z" />
    <glyph glyph-name="ydieresis" unicode="&#xff;" horiz-adv-x="228" 
d="M206 -154q0 -28 -20.5 -48.5t-49.5 -20.5q-13 0 -26 5t-23 15l21 20q5 -4 12 -7.5t14 -3.5h1.5h1.5v218q-13 -10 -30.5 -17t-35.5 -7q-13 0 -25 4.5t-23 13.5q-10 8 -15.5 19.5t-5.5 24.5v163h70v-178q0 -7 5.5 -10.5t12.5 -3.5h2h2l1 0.5t2 0.5q12 5 22.5 13t17.5 18
v160h69v-379v0zM96 264q0 -11 -8 -18.5t-19 -7.5q-10 0 -18 7.5t-8 18.5t8 18.5t18 7.5q11 0 19 -7.5t8 -18.5v0zM172 264q0 -11 -8 -18.5t-19 -7.5q-10 0 -18 7.5t-8 18.5t8 18.5t18 7.5q11 0 19 -7.5t8 -18.5v0z" />
    <glyph glyph-name="Abreve" unicode="&#x102;" 
 />
    <glyph glyph-name="abreve" unicode="&#x103;" 
 />
    <glyph glyph-name="Aogonek" unicode="&#x104;" 
 />
    <glyph glyph-name="aogonek" unicode="&#x105;" 
 />
    <glyph glyph-name="Cacute" unicode="&#x106;" 
 />
    <glyph glyph-name="cacute" unicode="&#x107;" 
 />
    <glyph glyph-name="Ccaron" unicode="&#x10c;" 
 />
    <glyph glyph-name="ccaron" unicode="&#x10d;" 
 />
    <glyph glyph-name="Dcaron" unicode="&#x10e;" 
 />
    <glyph glyph-name="dcaron" unicode="&#x10f;" 
 />
    <glyph glyph-name="Dslash" unicode="&#x110;" 
 />
    <glyph glyph-name="dslash" unicode="&#x111;" 
 />
    <glyph glyph-name="Eogonek" unicode="&#x118;" 
 />
    <glyph glyph-name="eogonek" unicode="&#x119;" 
 />
    <glyph glyph-name="Ecaron" unicode="&#x11a;" 
 />
    <glyph glyph-name="ecaron" unicode="&#x11b;" 
 />
    <glyph glyph-name="Gbreve" unicode="&#x11e;" 
 />
    <glyph glyph-name="gbreve" unicode="&#x11f;" 
 />
    <glyph glyph-name="Idotaccent" unicode="&#x130;" 
 />
    <glyph glyph-name="dotlessi" unicode="&#x131;" horiz-adv-x="135" 
d="M123 60q0 -25 -17.5 -42t-41.5 -17t-41 17t-17 42v159h68v-180q0 -2 1.5 -3.5t3.5 -1.5q1 0 1.5 0.5l0.5 0.5q6 5 9.5 11.5t3.5 13.5h29v0z" />
    <glyph glyph-name="Lacute" unicode="&#x139;" 
 />
    <glyph glyph-name="lacute" unicode="&#x13a;" 
 />
    <glyph glyph-name="Lcaron" unicode="&#x13d;" 
 />
    <glyph glyph-name="lcaron" unicode="&#x13e;" 
 />
    <glyph glyph-name="Ldot" unicode="&#x13f;" 
 />
    <glyph glyph-name="ldot" unicode="&#x140;" 
 />
    <glyph glyph-name="Lslash" unicode="&#x141;" horiz-adv-x="500" 
 />
    <glyph glyph-name="lslash" unicode="&#x142;" horiz-adv-x="500" 
 />
    <glyph glyph-name="Nacute" unicode="&#x143;" 
 />
    <glyph glyph-name="nacute" unicode="&#x144;" 
 />
    <glyph glyph-name="Ncaron" unicode="&#x147;" 
 />
    <glyph glyph-name="ncaron" unicode="&#x148;" 
 />
    <glyph glyph-name="Odblacute" unicode="&#x150;" 
 />
    <glyph glyph-name="odblacute" unicode="&#x151;" 
 />
    <glyph glyph-name="OE" unicode="&#x152;" horiz-adv-x="751" 
d="M747 135q-16 -67 -70 -101t-116 -34h-6h-6q-32 2 -63.5 13.5t-56.5 32.5q-32 -25 -71 -38.5t-83 -13.5q-120 0 -195.5 92.5t-75.5 205.5t75 206t196 93q47 0 87.5 -15.5t73.5 -43.5q20 21 48.5 34t59.5 15q3 1 6.5 1h7.5q44 0 81 -24t47 -77q1 -4 1 -7v-6
q0 -15 -8.5 -22.5t-19.5 -7.5q-2 0 -4.5 0.5t-4.5 0.5q-7 2 -13.5 7t-12.5 12q-3 5 -5.5 11t-3.5 13q-1 2 -1 4v4q0 11 6 19.5t20 9.5q-14 17 -34 25t-42 9h-3.5h-3.5q-41 -1 -62 -31.5t-21 -67.5q0 -22 7.5 -42.5t22.5 -35.5q11 -10 25.5 -18.5t30.5 -11.5q4 -1 8.5 -1.5
t8.5 -0.5h3.5h2.5h61v-29h-10h-10q-38 1 -72.5 -4t-66.5 -38q-19 -19 -29 -46t-12 -54v-5v-4q0 -51 30 -93t88 -42q56 0 99.5 28t57.5 85l28 -7v0zM485 331q-34 16 -58.5 46.5t-24.5 70.5q0 11 1.5 21t5.5 19q-26 35 -61 55t-73 20q-40 0 -75 -21t-61 -57q-29 -40 -44 -90.5
t-14 -103.5v-6v-6q2 -48 16 -95t42 -85q26 -36 58.5 -55t66.5 -22h5.5h5.5q32 0 63.5 15t57.5 44q-15 21 -22 44t-7 46q0 50 31.5 95t86.5 65v0z" />
    <glyph glyph-name="oe" unicode="&#x153;" horiz-adv-x="334" 
d="M329 45q-18 -22 -43 -33.5t-51 -11.5h-7.5t-6.5 1q-15 2 -29 8t-27 16q-12 -11 -27.5 -18t-34.5 -7q-44 0 -71.5 34.5t-28.5 75.5v1.5v1.5q0 42 27.5 77t72.5 35q19 0 34.5 -7t28.5 -18q14 11 32.5 18t39.5 7h4.5h4.5q23 -2 43.5 -14t23.5 -39v-2v-2v-2v-2
q0 -30 -22.5 -48.5t-50.5 -28.5q-8 -3 -16 -5.5t-15 -4.5l-3 -1l2 -8t3 -8q4 -12 12 -21.5t21 -8.5h1.5h1.5q17 2 32.5 11t26.5 22l22 -18v0zM145 180q-5 5 -11 7t-12 2q-2 0 -4.5 -0.5t-4.5 -1.5q-5 -2 -9.5 -5.5t-8.5 -10.5q-6 -9 -9.5 -23.5t-3.5 -34.5q0 -6 0.5 -13.5
t1.5 -14.5q3 -18 12 -33t29 -15q6 0 10.5 2t8.5 6q-12 16 -18 33t-6 34q1 18 7 35.5t18 32.5v0zM285 169q-1 12 -10 18t-19 7q-2 1 -4.5 1h-4.5q-16 0 -26 -16t-14 -35q-3 -10 -4 -19.5t-1 -16.5v-1.5v-1.5q7 2 16 4.5t18 6.5q19 7 34 19t15 30v2.5v1.5v0z" />
    <glyph glyph-name="Racute" unicode="&#x154;" 
 />
    <glyph glyph-name="racute" unicode="&#x155;" 
 />
    <glyph glyph-name="Rcaron" unicode="&#x158;" 
 />
    <glyph glyph-name="rcaron" unicode="&#x159;" 
 />
    <glyph glyph-name="Sacute" unicode="&#x15a;" 
 />
    <glyph glyph-name="sacute" unicode="&#x15b;" 
 />
    <glyph glyph-name="Scedilla" unicode="&#x15e;" 
 />
    <glyph glyph-name="scedilla" unicode="&#x15f;" 
 />
    <glyph glyph-name="Scaron" unicode="&#x160;" horiz-adv-x="394" 
d="M371 133q0 -71 -55.5 -105.5t-121.5 -36.5h-5.5h-5.5q-26 0 -51.5 4.5t-46.5 14.5q-35 16 -58 51.5t-25 74.5v4.5v4.5q0 20 6 38t19 34q14 17 31.5 25t36.5 8q24 -1 44.5 -15.5t25.5 -44.5q1 -3 1 -6v-5q0 -24 -15 -41.5t-36 -16.5q-4 0 -7.5 0.5t-6.5 1.5q-4 2 -7.5 3.5
t-7.5 4.5q-11 8 -16 17t-5 18q0 13 9 21.5t23 8.5q7 0 14 -2.5t14 -7.5q4 -2 7 -5t5 -6v0.5v1.5v1.5v0.5q0 21 -13 31.5t-30 10.5h-4t-4 -1q-10 -1 -19.5 -6.5t-17.5 -14.5q-10 -12 -14.5 -26t-4.5 -29v-4.5v-4.5q3 -31 21.5 -58.5t45.5 -40.5q19 -9 40 -13.5t43 -4.5
q45 0 81 23.5t36 78.5q0 53 -35 92t-77 75l-2.5 2.5t-3.5 2.5q-45 38 -81 80.5t-36 102.5q0 62 43 94t96 32h5.5h5.5q24 -2 47.5 -10.5t42.5 -24.5v19h29v-153h-29v91q-13 21 -35 32.5t-46 13.5q-3 1 -5.5 1h-5.5q-31 0 -55.5 -18.5t-24.5 -58.5q0 -38 21 -64t47 -49
q1 -1 2 -2.5t3 -2.5q6 -5 11.5 -10.5l11.5 -11.5q9 -10 19 -19.5t20 -19.5q1 -1 2 -1.5t2 -1.5q38 -37 70 -77.5t32 -100.5v0zM312 689l-95 -82l-95 82l18 22l77 -66l76 66l19 -22v0z" />
    <glyph glyph-name="scaron" unicode="&#x161;" horiz-adv-x="193" 
d="M178 63q0 -24 -18.5 -39t-40.5 -21q-7 -1 -13 -2t-12 -1v1h-1.5h-1.5q-7 0 -14 1t-14 3q-20 5 -37 16.5t-22 30.5q0 2 -0.5 3t-0.5 3v2.5v2.5q0 13 7.5 22.5t21.5 10.5h1.5h1.5q17 0 30 -14.5t14 -31.5v-1.5v-1.5v-4t-1 -4q0 -2 -1 -4l-2 -4q4 -1 8.5 -1.5t8.5 0.5h3.5
h2.5q5 1 9.5 2t7.5 3q2 1 3 2.5t2 2.5q0 1 0.5 2.5t0.5 2.5q0 4 -7 11t-16 15q-2 1 -3.5 2.5t-3.5 2.5q-8 7 -15.5 12.5t-11.5 8.5t-7.5 6t-7.5 5q-16 13 -28 26.5t-12 30.5q0 23 18 37.5t40 19.5q6 2 11.5 2.5t10.5 0.5t10 -0.5t10 -0.5q19 -3 36 -13t22 -30q0 -1 0.5 -2.5
t0.5 -2.5v-2.5v-2.5q0 -13 -7 -22.5t-21 -10.5v0v0h-1v0q-17 0 -29.5 14t-13.5 30v1.5v1.5v2.5t1 2.5q0 1 0.5 2.5t0.5 2.5h-2t-2 1h-2h-3h-2.5h-3.5q-7 -1 -13 -4.5t-6 -9.5q0 -3 7 -9.5t16 -13.5q1 -2 2.5 -3t3.5 -2q7 -6 14 -11t11 -8q23 -16 41.5 -32.5t18.5 -39.5v0z
M192 314l-95 -82l-95 82l18 22l77 -66l76 66l19 -22v0z" />
    <glyph glyph-name="Tcedilla" unicode="&#x162;" 
 />
    <glyph glyph-name="tcedilla" unicode="&#x163;" 
 />
    <glyph glyph-name="Tcaron" unicode="&#x164;" 
 />
    <glyph glyph-name="tcaron" unicode="&#x165;" 
 />
    <glyph glyph-name="Uring" unicode="&#x16e;" 
 />
    <glyph glyph-name="uring" unicode="&#x16f;" 
 />
    <glyph glyph-name="udblacute" unicode="&#x170;" 
 />
    <glyph glyph-name="Udblacute" unicode="&#x171;" 
 />
    <glyph glyph-name="Ydieresis" unicode="&#x178;" horiz-adv-x="527" 
d="M494 328q-9 -32 -21.5 -65.5t-28.5 -66.5q-38 -83 -92.5 -161t-116.5 -133q-3 -3 -6 -5.5t-7 -4.5q-19 -15 -41.5 -28.5t-45.5 -19.5q-4 -1 -8.5 -2t-9.5 -1h-4h-4q-5 0 -9.5 0.5t-9.5 0.5q-35 4 -63.5 24.5t-28.5 58.5v0.5v0.5v0.5v0.5q1 28 14 40.5t30 14.5q3 1 5.5 1
h5.5q11 0 20 -2.5t13 -6.5q8 -7 14.5 -16.5t8.5 -20.5v-3v-3q0 -7 -2.5 -13t-8.5 -11q-4 -4 -8 -5.5t-9 -0.5h-3.5t-2.5 1q-12 2 -22 11.5t-16 20.5q-2 2 -3 5l-2 6q-3 -4 -4.5 -9t-1.5 -11q0 -3 0.5 -6t1.5 -6q5 -17 24 -30.5t55 -12.5h4.5h4.5q6 0 12.5 1.5t12.5 4.5
q15 5 29 14t27 19q5 4 10 7.5t9 7.5q14 11 26.5 24t25.5 27l-194 578h-77v29h216v-29h-59l170 -509q27 38 51 80t44 84q15 32 27 64t21 63q5 17 8.5 36t6.5 39q1 10 1.5 20t0.5 19q0 52 -23 90.5t-87 38.5q-37 0 -62 -27.5t-25 -60.5v-1.5v-1.5q0 -13 4 -26t14 -24l-22 -19
q-11 13 -17 27.5t-7 29.5q-1 3 -1 6v6q0 45 33 82.5t84 37.5q79 0 108.5 -48t28.5 -111q0 -10 -0.5 -20t-1.5 -21q-2 -20 -6 -40t-10 -39v0zM233 622q0 -11 -8 -18.5t-19 -7.5q-10 0 -18 7.5t-8 18.5t8 18.5t18 7.5q11 0 19 -7.5t8 -18.5v0zM309 622q0 -11 -8 -18.5
t-19 -7.5q-10 0 -18 7.5t-8 18.5t8 18.5t18 7.5q11 0 19 -7.5t8 -18.5v0z" />
    <glyph glyph-name="Zacute" unicode="&#x179;" 
 />
    <glyph glyph-name="zacute" unicode="&#x17a;" 
 />
    <glyph glyph-name="Zdot" unicode="&#x17b;" 
 />
    <glyph glyph-name="zdot" unicode="&#x17c;" 
 />
    <glyph glyph-name="Zcaron" unicode="&#x17d;" horiz-adv-x="500" 
 />
    <glyph glyph-name="zcaron" unicode="&#x17e;" horiz-adv-x="500" 
 />
    <glyph glyph-name="florin" unicode="&#x192;" horiz-adv-x="500" 
 />
    <glyph glyph-name="hungarumlaut" unicode="&#x2ba;" horiz-adv-x="500" 
 />
    <glyph glyph-name="tilde" unicode="&#x2c6;" horiz-adv-x="219" 
d="M209 693q-3 -8 -6.5 -15.5t-9.5 -14.5q-7 -7 -16 -10.5t-18 -3.5q-4 0 -7.5 0.5t-6.5 1.5q-10 2 -19.5 6t-17.5 9q-1 0 -2.5 0.5t-2.5 1.5q-2 1 -5 3t-7 4t-8 3.5t-9 3.5q-4 1 -7.5 1.5t-7.5 0.5t-7 -1t-5 -3q-3 -4 -5.5 -9.5t-4.5 -11.5l-27 11q3 8 6.5 15t9.5 14
q8 8 16 11t17 3q3 0 6 -0.5t6 -0.5q10 -2 19.5 -6t18.5 -9l4 -2l4 -2q3 -1 6.5 -3t7.5 -4t8 -3.5t8 -2.5q3 -1 6 -1.5t6 -0.5q4 0 7.5 1t5.5 4q3 3 5.5 8.5t4.5 11.5l27 -10v0z" />
    <glyph glyph-name="caron" unicode="&#x2c7;" horiz-adv-x="219" 
d="M204 677l-95 -82l-95 82l18 22l77 -66l76 66l19 -22v0z" />
    <glyph glyph-name="macron" unicode="&#x2c9;" horiz-adv-x="500" 
 />
    <glyph glyph-name="breve" unicode="&#x2d8;" horiz-adv-x="500" 
 />
    <glyph glyph-name="dotaccent" unicode="&#x2d9;" horiz-adv-x="500" 
 />
    <glyph glyph-name="ring" unicode="&#x2da;" horiz-adv-x="219" 
d="M143 661q0 -15 -11 -25.5t-26 -10.5t-25.5 10.5t-10.5 25.5t10.5 26t25.5 11t26 -11t11 -26v0zM118 649q3 3 4 6t1 7q0 6 -4.5 11t-12.5 5q-7 0 -12 -4.5t-5 -12.5q0 -7 5.5 -12t12.5 -5q3 0 6 1.5t5 3.5v0z" />
    <glyph glyph-name="ogonek" unicode="&#x2db;" horiz-adv-x="500" 
 />
    <glyph glyph-name="circumflex" unicode="&#x2dc;" horiz-adv-x="219" 
d="M204 601l-18 -22l-77 66l-76 -66l-19 22l95 82l95 -82v0z" />
    <glyph glyph-name="Gamma" unicode="&#x393;" horiz-adv-x="500" 
 />
    <glyph glyph-name="Theta" unicode="&#x398;" horiz-adv-x="500" 
 />
    <glyph glyph-name="summation" unicode="&#x3a3;" horiz-adv-x="500" 
 />
    <glyph glyph-name="Phi" unicode="&#x3a6;" horiz-adv-x="500" 
 />
    <glyph glyph-name="Omega" unicode="&#x3a9;" horiz-adv-x="500" 
 />
    <glyph glyph-name="alpha" unicode="&#x3b1;" horiz-adv-x="500" 
 />
    <glyph glyph-name="delta" unicode="&#x3b4;" horiz-adv-x="500" 
 />
    <glyph glyph-name="epsilon" unicode="&#x3b5;" horiz-adv-x="500" 
 />
    <glyph glyph-name="pi" unicode="&#x3c0;" horiz-adv-x="500" 
 />
    <glyph glyph-name="sigma" unicode="&#x3c3;" 
 />
    <glyph glyph-name="tau" unicode="&#x3c4;" horiz-adv-x="500" 
 />
    <glyph glyph-name="phi" unicode="&#x3c6;" 
 />
    <glyph glyph-name="endash" unicode="&#x2013;" horiz-adv-x="308" 
d="M300 207h-296v66h296v-66v0z" />
    <glyph glyph-name="emdash" unicode="&#x2014;" horiz-adv-x="474" 
d="M476 227h-476v66h476v-66v0z" />
    <glyph glyph-name="underscoredbl" unicode="&#x2017;" horiz-adv-x="500" 
 />
    <glyph glyph-name="quoteleft" unicode="&#x2018;" horiz-adv-x="98" 
d="M12 534l42 56l23 -17l-17 -23q2 0 3.5 -1t3.5 -2t3.5 -2t3.5 -2q8 -7 12.5 -16t4.5 -20q0 -7 -1.5 -13.5t-6.5 -12.5q-7 -9 -16 -13.5t-20 -4.5q-2 0 -4.5 0.5t-4.5 0.5q-5 1 -9.5 3t-8.5 5q-8 7 -12.5 16.5t-4.5 19.5q0 7 2.5 13.5t6.5 12.5v0z" />
    <glyph glyph-name="quoteright" unicode="&#x2019;" horiz-adv-x="98" 
d="M84 520l-42 -56l-23 17l17 23q-2 0 -3.5 1t-3.5 2t-3.5 2t-3.5 2q-8 7 -12.5 16.5t-4.5 19.5q0 7 2 13.5t6 12.5q7 9 16.5 13.5t19.5 4.5h4.5t4.5 -1q5 -1 9.5 -3t8.5 -5q8 -7 12.5 -16t4.5 -20q0 -7 -2 -13.5t-7 -12.5v0z" />
    <glyph glyph-name="quotesinglbase" unicode="&#x201a;" horiz-adv-x="98" 
d="M84 10l-42 -56l-23 17l17 23q-2 1 -3.5 2t-3.5 2t-3.5 1.5t-3.5 1.5q-8 7 -12.5 16.5t-4.5 19.5q0 7 2 13.5t6 12.5q7 9 16.5 13.5t19.5 4.5h4.5t4.5 -1q5 -1 9.5 -3t8.5 -5q8 -7 12.5 -16t4.5 -20q0 -7 -2 -13.5t-7 -12.5v0z" />
    <glyph glyph-name="quotedblleft" unicode="&#x201c;" horiz-adv-x="187" 
d="M12 534l42 56l23 -17l-17 -23q2 0 3.5 -1t3.5 -2t3.5 -2t3.5 -2q8 -7 12.5 -16t4.5 -20q0 -7 -1.5 -13.5t-6.5 -12.5q-7 -9 -16 -13.5t-20 -4.5q-2 0 -4.5 0.5t-4.5 0.5q-5 1 -9.5 3t-8.5 5q-8 7 -12.5 16.5t-4.5 19.5q0 7 2.5 13.5t6.5 12.5v0zM102 534l42 56l23 -17
l-17 -23q2 0 3.5 -1t3.5 -2t3.5 -2t3.5 -2q8 -7 12.5 -16t4.5 -20q0 -7 -1.5 -13.5t-6.5 -12.5q-7 -9 -16 -13.5t-20 -4.5q-2 0 -4.5 0.5t-4.5 0.5q-5 1 -9.5 3t-8.5 5q-8 7 -12.5 16.5t-4.5 19.5q0 7 2.5 13.5t6.5 12.5v0z" />
    <glyph glyph-name="quotedblright" unicode="&#x201d;" horiz-adv-x="187" 
d="M84 520l-42 -56l-23 17l17 23q-2 0 -3.5 1t-3.5 2t-3.5 2t-3.5 2q-8 7 -12.5 16.5t-4.5 19.5q0 7 2 13.5t6 12.5q7 9 16.5 13.5t19.5 4.5h4.5t4.5 -1q5 -1 9.5 -3t8.5 -5q8 -7 12.5 -16t4.5 -20q0 -7 -2 -13.5t-7 -12.5v0zM174 520l-42 -56l-23 17l17 23q-2 0 -3.5 1
t-3.5 2t-3.5 2t-3.5 2q-8 7 -12.5 16.5t-4.5 19.5q0 7 2 13.5t6 12.5q7 9 16.5 13.5t19.5 4.5h4.5t4.5 -1q5 -1 9.5 -3t8.5 -5q8 -7 12.5 -16t4.5 -20q0 -7 -2 -13.5t-7 -12.5v0z" />
    <glyph glyph-name="quotedblbase" unicode="&#x201e;" horiz-adv-x="187" 
d="M84 10l-42 -56l-23 17l17 23q-2 1 -3.5 2t-3.5 2t-3.5 1.5t-3.5 1.5q-8 7 -12.5 16.5t-4.5 19.5q0 7 2 13.5t6 12.5q7 9 16.5 13.5t19.5 4.5h4.5t4.5 -1q5 -1 9.5 -3t8.5 -5q8 -7 12.5 -16t4.5 -20q0 -7 -2 -13.5t-7 -12.5v0zM174 10l-42 -56l-23 17l17 23q-2 1 -3.5 2
t-3.5 2t-3.5 1.5t-3.5 1.5q-8 7 -12.5 16.5t-4.5 19.5q0 7 2 13.5t6 12.5q7 9 16.5 13.5t19.5 4.5h4.5t4.5 -1q5 -1 9.5 -3t8.5 -5q8 -7 12.5 -16t4.5 -20q0 -7 -2 -13.5t-7 -12.5v0z" />
    <glyph glyph-name="dagger" unicode="&#x2020;" horiz-adv-x="500" 
 />
    <glyph glyph-name="daggerdbl" unicode="&#x2021;" horiz-adv-x="500" 
 />
    <glyph glyph-name="bullet" unicode="&#x2022;" horiz-adv-x="203" 
d="M194 304q0 -38 -27 -64.5t-65 -26.5t-65 26.5t-27 64.5t27 65t65 27t65 -27t27 -65v0z" />
    <glyph glyph-name="ellipsis" unicode="&#x2026;" horiz-adv-x="500" 
 />
    <glyph glyph-name="perthousand" unicode="&#x2030;" horiz-adv-x="500" 
 />
    <glyph glyph-name="guilsinglleft" unicode="&#x2039;" horiz-adv-x="152" 
d="M128 137l-121 121l121 122v-76l-45 -46l45 -45v-76v0z" />
    <glyph glyph-name="guilsinglright" unicode="&#x203a;" horiz-adv-x="152" 
d="M6 137v76l45 45l-45 46v76l121 -122l-121 -121v0z" />
    <glyph glyph-name="exclamdbl" unicode="&#x203c;" horiz-adv-x="500" 
 />
    <glyph glyph-name="nsuperior" unicode="&#x207f;" horiz-adv-x="500" 
 />
    <glyph glyph-name="franc" unicode="&#x20a3;" horiz-adv-x="500" 
 />
    <glyph glyph-name="peseta" unicode="&#x20a7;" horiz-adv-x="500" 
 />
    <glyph glyph-name="currency" unicode="&#x20ac;" horiz-adv-x="507" 
d="M484 432l-12 -28q-31 29 -70.5 45t-82.5 16q-73 0 -117.5 -55t-56.5 -121v-1.5v-1.5h277l-12 -29h-267q-1 -3 -1 -5.5v-4.5v-2.5v-2.5t0.5 -2.5t0.5 -2.5h259l-13 -29h-244v-1.5v-1.5q12 -66 56.5 -121t117.5 -55q32 0 63 9t58 26l15 -24q-27 -18 -57 -27.5t-61 -11.5
q-5 -1 -9.5 -1h-8.5q-48 0 -94 18t-82 54q-29 29 -46.5 64t-23.5 72h-50l12 29h35v5.5v4.5v4.5v5.5h-45l12 29h36q6 37 23.5 72t46.5 63q37 37 83 55t94 18q44 0 86.5 -15.5t77.5 -46.5v0z" />
    <glyph glyph-name="trademark" unicode="&#x2122;" horiz-adv-x="500" 
 />
    <glyph glyph-name="arrowleft" unicode="&#x2190;" 
 />
    <glyph glyph-name="arrowup" unicode="&#x2191;" 
 />
    <glyph glyph-name="arrowright" unicode="&#x2192;" horiz-adv-x="500" 
 />
    <glyph glyph-name="arrowdown" unicode="&#x2193;" 
 />
    <glyph glyph-name="arrowboth" unicode="&#x2194;" 
 />
    <glyph glyph-name="arrowupdn" unicode="&#x2195;" 
 />
    <glyph glyph-name="arrowupdnbase" unicode="&#x21a8;" 
 />
    <glyph glyph-name="partialdiff" unicode="&#x2202;" horiz-adv-x="500" 
 />
    <glyph glyph-name="Delta" unicode="&#x2206;" horiz-adv-x="500" 
 />
    <glyph glyph-name="product" unicode="&#x220f;" 
 />
    <glyph glyph-name="minus" unicode="&#x2212;" horiz-adv-x="500" 
 />
    <glyph glyph-name="fraction" unicode="&#x2215;" horiz-adv-x="500" 
 />
    <glyph glyph-name="periodcentered" unicode="&#x2219;" horiz-adv-x="500" 
 />
    <glyph glyph-name="radical" unicode="&#x221a;" horiz-adv-x="500" 
 />
    <glyph glyph-name="infinity" unicode="&#x221e;" 
 />
    <glyph glyph-name="orthogonal" unicode="&#x221f;" 
 />
    <glyph glyph-name="intersection" unicode="&#x2229;" 
 />
    <glyph glyph-name="integral" unicode="&#x222b;" 
 />
    <glyph glyph-name="approxequal" unicode="&#x2248;" horiz-adv-x="500" 
 />
    <glyph glyph-name="notequal" unicode="&#x2260;" horiz-adv-x="500" 
 />
    <glyph glyph-name="equivalence" unicode="&#x2261;" 
 />
    <glyph glyph-name="lessequal" unicode="&#x2264;" horiz-adv-x="500" 
 />
    <glyph glyph-name="greaterequal" unicode="&#x2265;" horiz-adv-x="500" 
 />
    <glyph glyph-name="house" unicode="&#x2302;" 
 />
    <glyph glyph-name="revlogicalnot" unicode="&#x2310;" 
 />
    <glyph glyph-name="integraltp" unicode="&#x2320;" 
 />
    <glyph glyph-name="integralbt" unicode="&#x2321;" 
 />
    <glyph glyph-name="2500" unicode="&#x2500;" 
 />
    <glyph glyph-name="2502" unicode="&#x2502;" 
 />
    <glyph glyph-name="250c" unicode="&#x250c;" 
 />
    <glyph glyph-name="2510" unicode="&#x2510;" 
 />
    <glyph glyph-name="2514" unicode="&#x2514;" 
 />
    <glyph glyph-name="2518" unicode="&#x2518;" 
 />
    <glyph glyph-name="251c" unicode="&#x251c;" 
 />
    <glyph glyph-name="2524" unicode="&#x2524;" 
 />
    <glyph glyph-name="252c" unicode="&#x252c;" 
 />
    <glyph glyph-name="2534" unicode="&#x2534;" 
 />
    <glyph glyph-name="253c" unicode="&#x253c;" 
 />
    <glyph glyph-name="2550" unicode="&#x2550;" 
 />
    <glyph glyph-name="2551" unicode="&#x2551;" 
 />
    <glyph glyph-name="2552" unicode="&#x2552;" 
 />
    <glyph glyph-name="2553" unicode="&#x2553;" 
 />
    <glyph glyph-name="2554" unicode="&#x2554;" 
 />
    <glyph glyph-name="2555" unicode="&#x2555;" 
 />
    <glyph glyph-name="2556" unicode="&#x2556;" 
 />
    <glyph glyph-name="2557" unicode="&#x2557;" 
 />
    <glyph glyph-name="2558" unicode="&#x2558;" 
 />
    <glyph glyph-name="2559" unicode="&#x2559;" 
 />
    <glyph glyph-name="255a" unicode="&#x255a;" 
 />
    <glyph glyph-name="255b" unicode="&#x255b;" 
 />
    <glyph glyph-name="255c" unicode="&#x255c;" 
 />
    <glyph glyph-name="255d" unicode="&#x255d;" 
 />
    <glyph glyph-name="255e" unicode="&#x255e;" 
 />
    <glyph glyph-name="255f" unicode="&#x255f;" 
 />
    <glyph glyph-name="2560" unicode="&#x2560;" 
 />
    <glyph glyph-name="2561" unicode="&#x2561;" 
 />
    <glyph glyph-name="2562" unicode="&#x2562;" 
 />
    <glyph glyph-name="2563" unicode="&#x2563;" 
 />
    <glyph glyph-name="2564" unicode="&#x2564;" 
 />
    <glyph glyph-name="2565" unicode="&#x2565;" 
 />
    <glyph glyph-name="2566" unicode="&#x2566;" 
 />
    <glyph glyph-name="2567" unicode="&#x2567;" 
 />
    <glyph glyph-name="2568" unicode="&#x2568;" 
 />
    <glyph glyph-name="2569" unicode="&#x2569;" 
 />
    <glyph glyph-name="256a" unicode="&#x256a;" 
 />
    <glyph glyph-name="256b" unicode="&#x256b;" 
 />
    <glyph glyph-name="256c" unicode="&#x256c;" 
 />
    <glyph glyph-name="upblock" unicode="&#x2580;" 
 />
    <glyph glyph-name="dnblock" unicode="&#x2584;" 
 />
    <glyph glyph-name="block" unicode="&#x2588;" 
 />
    <glyph glyph-name="lfblock" unicode="&#x258c;" 
 />
    <glyph glyph-name="rtblock" unicode="&#x2590;" 
 />
    <glyph glyph-name="ltshade" unicode="&#x2591;" 
 />
    <glyph glyph-name="shade" unicode="&#x2592;" 
 />
    <glyph glyph-name="dkshade" unicode="&#x2593;" 
 />
    <glyph glyph-name="filledbox" unicode="&#x25a0;" horiz-adv-x="500" 
 />
    <glyph glyph-name="filledrect" unicode="&#x25ac;" 
 />
    <glyph glyph-name="triagup" unicode="&#x25b2;" 
 />
    <glyph glyph-name="triagrt" unicode="&#x25ba;" 
 />
    <glyph glyph-name="triagdn" unicode="&#x25bc;" 
 />
    <glyph glyph-name="triaglf" unicode="&#x25c4;" 
 />
    <glyph glyph-name="lozenge" unicode="&#x25ca;" horiz-adv-x="500" 
 />
    <glyph glyph-name="circle" unicode="&#x25cb;" 
 />
    <glyph glyph-name="invbullet" unicode="&#x25d8;" 
 />
    <glyph glyph-name="invcircle" unicode="&#x25d9;" 
 />
    <glyph glyph-name="smileface" unicode="&#x263a;" 
 />
    <glyph glyph-name="invsmileface" unicode="&#x263b;" 
 />
    <glyph glyph-name="sun" unicode="&#x263c;" 
 />
    <glyph glyph-name="female" unicode="&#x2640;" 
 />
    <glyph glyph-name="male" unicode="&#x2642;" 
 />
    <glyph glyph-name="spade" unicode="&#x2660;" 
 />
    <glyph glyph-name="club" unicode="&#x2663;" 
 />
    <glyph glyph-name="heart" unicode="&#x2665;" 
 />
    <glyph glyph-name="diamond" unicode="&#x2666;" 
 />
    <glyph glyph-name="musicalnote" unicode="&#x266a;" 
 />
    <glyph glyph-name="musicalnotedbl" unicode="&#x266b;" 
 />
    <glyph glyph-name="apple" unicode="&#xf000;" 
 />
    <glyph glyph-name="fi" unicode="&#xf001;" horiz-adv-x="500" 
 />
    <glyph glyph-name="fl" unicode="&#xf002;" horiz-adv-x="500" 
 />
    <glyph glyph-name="glyph131" horiz-adv-x="500" 
 />
    <glyph glyph-name="glyph135" horiz-adv-x="203" 
d="M194 304q0 -38 -27 -64.5t-65 -26.5t-65 26.5t-27 64.5t27 65t65 27t65 -27t27 -65v0z" />
    <glyph glyph-name="glyph177" horiz-adv-x="308" 
d="M300 207h-296v66h296v-66v0z" />
    </font>
</defs>
</svg>
