<?xml version="1.0" standalone="no"?>
<!DOCTYPE svg PUBLIC "-//W3C//DTD SVG 1.1//EN" "http://www.w3.org/Graphics/SVG/1.1/DTD/svg11.dtd" >
<svg xmlns="http://www.w3.org/2000/svg">
<metadata></metadata>
<defs>
<font id="avantgarde_md_btmedium" horiz-adv-x="1024" >
<font-face units-per-em="2048" ascent="1638" descent="-410" />
<missing-glyph horiz-adv-x="586" />
<glyph horiz-adv-x="2048" />
<glyph horiz-adv-x="2048" />
<glyph unicode="&#xd;" horiz-adv-x="586" />
<glyph unicode=" "  horiz-adv-x="586" />
<glyph unicode="&#x09;" horiz-adv-x="586" />
<glyph unicode="&#xa0;" horiz-adv-x="586" />
<glyph unicode="!" horiz-adv-x="594" d="M199 0v233h196v-233h-196zM199 360v1096h196v-1096h-196z" />
<glyph unicode="&#x22;" horiz-adv-x="614" d="M90 881v555h139v-555h-139zM385 881v555h139v-555h-139z" />
<glyph unicode="#" horiz-adv-x="1575" d="M88 449l53 147h310l92 262h-330l51 146h332l162 454h166l-162 -454h256l164 454h164l-160 -454h301l-51 -146h-303l-93 -262h322l-51 -147h-322l-162 -453h-165l161 453h-258l-162 -453h-165l159 453h-309zM616 594h261l92 264h-260z" />
<glyph unicode="$" horiz-adv-x="1171" d="M136 432h185q6 -119 66.5 -179t175.5 -60q105 0 167.5 64t62.5 171q0 38 -7.5 70t-21.5 55q-47 77 -194 112l-36 9q-183 47 -269.5 138t-86.5 237q0 159 82.5 265t226.5 132v211h179v-213q129 -20 207 -116.5t87 -248.5h-192q-6 86 -59 136.5t-138 50.5q-91 0 -145.5 -56 t-54.5 -149q0 -34 9.5 -62t29.5 -51q40 -47 171 -76q78 -17 119 -32q143 -51 217 -150t74 -237q0 -175 -90.5 -297t-234.5 -142v-256h-179v246q-161 22 -255.5 136.5t-95.5 291.5z" />
<glyph unicode="%" horiz-adv-x="1796" d="M82 1126q0 73 27 138.5t77 115.5q51 51 116.5 78t137.5 27q73 0 138.5 -27t115.5 -78q51 -50 78 -115.5t27 -138.5t-27 -137.5t-78 -116.5q-50 -50 -115.5 -77t-138.5 -27q-72 0 -137.5 27t-116.5 77q-50 51 -77 116.5t-27 137.5zM240 1126q0 -82 57.5 -139t140.5 -57 t140 56.5t57 139.5t-57 140t-140 57t-140.5 -57t-57.5 -140zM436 -31l781 1516h141l-776 -1516h-146zM997 330q0 72 27 137.5t78 116.5q50 50 115.5 77t138.5 27q72 0 137.5 -27t116.5 -77q50 -51 77 -116.5t27 -137.5q0 -73 -26.5 -138t-77.5 -116t-116.5 -78t-137.5 -27 q-73 0 -138.5 27t-115.5 78q-51 50 -78 115.5t-27 138.5zM1155 330q0 -83 58 -141t141 -58q82 0 139 57.5t57 141.5q0 83 -56.5 139.5t-139.5 56.5q-84 0 -141.5 -57t-57.5 -139z" />
<glyph unicode="&#x26;" horiz-adv-x="1421" d="M131 406q0 127 66 227.5t209 189.5q-88 69 -128 141.5t-40 159.5q0 150 101.5 250.5t254.5 100.5q136 0 236 -102.5t100 -239.5q0 -100 -58 -181.5t-174 -146.5l222 -209l141 362h213l-199 -499l342 -307l-127 -144l-297 266q-81 -151 -190 -227t-244 -76 q-176 0 -302 128t-126 307zM336 410q0 -100 63 -166t158 -66q89 0 159.5 58.5t123.5 175.5l-301 284q-106 -61 -154.5 -130t-48.5 -156zM434 1133q0 -60 30 -107t105 -104q83 43 123.5 95t40.5 113q0 64 -42.5 109t-104.5 45q-64 0 -108 -43t-44 -108z" />
<glyph unicode="'" horiz-adv-x="317" d="M90 881v555h139v-555h-139z" />
<glyph unicode="(" horiz-adv-x="569" d="M125 195v679q0 230 95.5 379.5t295.5 231.5v-244q-101 -51 -142.5 -134t-41.5 -265v-590q0 -206 41 -296t143 -146v-238q-211 86 -301 227.5t-90 395.5z" />
<glyph unicode=")" horiz-adv-x="569" d="M51 -190q103 56 145 147.5t42 294.5v590q0 179 -42 263t-145 136v244q201 -83 297 -232.5t96 -378.5v-679q0 -253 -90.5 -395t-302.5 -228v238z" />
<glyph unicode="*" d="M109 1098l53 157l272 -94v295h154v-295l274 94l56 -157l-289 -78l196 -244l-135 -96l-178 254l-176 -254l-137 94l194 246z" />
<glyph unicode="+" horiz-adv-x="1706" d="M254 541v139h528v541h142v-541h528v-139h-528v-541h-142v541h-528z" />
<glyph unicode="," horiz-adv-x="586" d="M195 12v234h196v-215q0 -121 -47.5 -187t-148.5 -86v125q37 8 53 33t16 76v20h-69z" />
<glyph unicode="-" horiz-adv-x="678" d="M90 457v184h498v-184h-498z" />
<glyph unicode="." horiz-adv-x="586" d="M193 0v246h200v-246h-200z" />
<glyph unicode="/" horiz-adv-x="569" d="M-57 -190l479 1675h147l-477 -1675h-149z" />
<glyph unicode="0" horiz-adv-x="1171" d="M88 512v430q0 135 20.5 208.5t67.5 135.5q73 96 178 146.5t232 50.5q132 0 239.5 -54t180.5 -157q40 -58 58.5 -134t18.5 -188v-444q0 -119 -19 -197t-60 -135q-70 -97 -179 -150t-239 -53q-126 0 -232 50.5t-182 146.5q-44 56 -64 136.5t-20 207.5zM305 453 q0 -70 8 -103.5t27 -60.5q37 -55 101.5 -86t140.5 -31q142 0 212 77t70 234v488q0 91 -8 127.5t-27 64.5q-37 56 -102 87.5t-143 31.5q-76 0 -139 -29.5t-101 -83.5q-21 -29 -30 -70.5t-9 -125.5v-498v-22z" />
<glyph unicode="1" horiz-adv-x="1171" d="M244 1284v172h467v-1456h-213v1284h-254z" />
<glyph unicode="2" horiz-adv-x="1171" d="M123 0v203l510 489l8 8q201 194 201 322q0 112 -75 187t-189 75q-121 0 -188.5 -77t-67.5 -214v-16h-199v4q0 227 130 364.5t343 137.5q190 0 321.5 -132.5t131.5 -320.5q0 -106 -49.5 -201t-161.5 -200l-453 -426h659v-203h-921z" />
<glyph unicode="3" horiz-adv-x="1171" d="M104 446h197q5 -123 79 -200.5t185 -77.5q120 0 200.5 81.5t80.5 201.5q0 135 -82.5 209.5t-233.5 74.5q-21 0 -32 -0.5t-19 -0.5v197q7 0 16.5 -0.5t26.5 -0.5q112 0 169 45.5t57 136.5q0 77 -48 127.5t-120 50.5q-81 0 -128 -47t-51 -131h-192q6 170 109 271.5 t268 101.5q151 0 256.5 -106t105.5 -255q0 -90 -34 -156t-107 -116q117 -46 179.5 -147t62.5 -242q0 -208 -135.5 -350t-335.5 -142q-217 0 -343 126.5t-131 348.5z" />
<glyph unicode="4" horiz-adv-x="1171" d="M88 254v186l641 1016h203v-1016h147v-186h-147v-254h-203v254h-641zM293 440h436v715z" />
<glyph unicode="5" horiz-adv-x="1171" d="M78 444h205q16 -122 95.5 -195t194.5 -73q133 0 220.5 90t87.5 228q0 136 -86 220.5t-226 84.5q-83 0 -145 -32t-98 -93l-181 39l136 743h673v-205h-524l-70 -342q50 46 111.5 68t136.5 22q204 0 344 -147t140 -360q0 -222 -151.5 -371.5t-381.5 -149.5 q-211 0 -340.5 127.5t-140.5 345.5z" />
<glyph unicode="6" horiz-adv-x="1171" d="M80 467q0 188 217 511v1l319 477h232l-330 -495q31 12 59 18t54 6q190 0 324.5 -143.5t134.5 -345.5q0 -68 -18.5 -135.5t-55.5 -133.5q-69 -126 -179.5 -191t-254.5 -65q-103 0 -193.5 38t-161.5 110q-70 72 -108.5 163t-38.5 185zM279 498q0 -134 88.5 -228t212.5 -94 q131 0 216 87.5t85 223.5t-83.5 223t-211.5 87t-217.5 -88.5t-89.5 -210.5z" />
<glyph unicode="7" horiz-adv-x="1171" d="M197 1255v201h819v-221l-533 -1235h-223l555 1255h-618z" />
<glyph unicode="8" horiz-adv-x="1171" d="M133 438q0 132 52.5 222.5t162.5 146.5q-74 51 -112.5 125.5t-38.5 165.5q0 159 112 272t273 113q168 0 280.5 -111.5t112.5 -275.5q0 -92 -40.5 -166t-117.5 -123q109 -48 165 -139.5t56 -221.5q0 -207 -129 -341t-331 -134q-188 0 -316.5 135.5t-128.5 331.5zM332 440 q0 -117 71 -193.5t177 -76.5q112 0 185 75t73 191q0 120 -69.5 193t-182.5 73q-115 0 -184.5 -71.5t-69.5 -190.5zM403 1100q0 -91 49 -145t132 -54q86 0 135 51.5t49 143.5q0 85 -50.5 139.5t-129.5 54.5q-80 0 -132.5 -54t-52.5 -136z" />
<glyph unicode="9" horiz-adv-x="1171" d="M78 958q0 68 19 137t57 136q67 122 179.5 188t252.5 66q103 0 193 -37.5t161 -110.5t110.5 -164t39.5 -184q0 -187 -210 -501l-5 -8l-320 -480h-236l330 494q-31 -13 -59 -19t-53 -6q-191 0 -325 143.5t-134 345.5zM287 967q0 -135 83.5 -221.5t213.5 -86.5q129 0 218 87 t89 210q0 135 -88 228.5t-213 93.5q-137 0 -220 -85t-83 -226z" />
<glyph unicode=":" horiz-adv-x="592" d="M195 0v246h202v-246h-202zM195 807v246h202v-246h-202z" />
<glyph unicode=";" horiz-adv-x="592" d="M197 10v236h200v-217q0 -119 -49 -185.5t-149 -85.5v125q37 8 53 32.5t16 74.5v20h-71zM197 807v246h200v-246h-200z" />
<glyph unicode="&#x3c;" horiz-adv-x="1706" d="M264 547v129l1178 483v-153l-969 -396l969 -393v-154z" />
<glyph unicode="=" horiz-adv-x="1706" d="M254 342v139h1198v-139h-1198zM254 739v140h1198v-140h-1198z" />
<glyph unicode="&#x3e;" horiz-adv-x="1706" d="M264 63v154l971 393l-971 396v153l1178 -483v-129z" />
<glyph unicode="?" horiz-adv-x="995" d="M23 1036q3 197 126 323t308 126q186 0 311 -122t125 -304q0 -169 -174 -350l-14 -14q-87 -90 -118 -157.5t-37 -156.5h-201q1 104 36.5 198t103.5 177q23 27 70 73q121 119 121 226q0 105 -65.5 170t-172.5 65q-98 0 -159 -69t-64 -184zM348 0v236h197v-236h-197z" />
<glyph unicode="@" horiz-adv-x="2048" d="M106 522q0 165 52 313t151 269q146 178 351.5 270t455.5 92q163 0 310 -45t253 -127q130 -100 197.5 -231t67.5 -283q0 -175 -63.5 -315t-184.5 -236q-68 -54 -149.5 -83t-166.5 -29q-99 0 -149.5 39.5t-50.5 117.5v19q-55 -89 -129 -131.5t-172 -42.5q-153 0 -233.5 85 t-80.5 247q0 235 138 394t339 159q85 0 145.5 -37.5t96.5 -112.5l57 115h132l-146 -576q-4 -16 -6 -31t-2 -28q0 -46 25.5 -70t74.5 -24q48 0 102.5 26.5t106.5 75.5q80 76 125 186.5t45 233.5q0 259 -190.5 420t-499.5 161q-133 0 -246 -28t-211 -86q-191 -114 -296 -299.5 t-105 -409.5q0 -177 61.5 -308t192.5 -230q100 -77 236.5 -118.5t287.5 -41.5q169 0 328.5 49t292.5 141l55 -82q-148 -111 -314.5 -167t-349.5 -56q-190 0 -348 47t-280 140q-154 118 -230 274t-76 354zM725 446q0 -105 48.5 -162t137.5 -57q97 0 174.5 69t104.5 179 l59 236q-17 88 -68.5 136t-129.5 48q-138 0 -232 -130t-94 -319z" />
<glyph unicode="A" horiz-adv-x="1233" d="M-63 0l569 1456h205l569 -1456h-231l-160 424h-565l-164 -424h-223zM399 629h414l-205 553z" />
<glyph unicode="B" horiz-adv-x="1053" d="M127 0v1456h313q233 0 354 -102t121 -297q0 -90 -39.5 -159t-115.5 -114q107 -32 169 -123t62 -217q0 -102 -38 -191.5t-105 -148.5q-66 -56 -149.5 -80t-235.5 -24h-336zM334 197h166q146 0 215 54.5t69 168.5q0 124 -72 188t-212 64h-166v-475zM336 846h67 q163 0 232.5 49.5t69.5 163.5q0 101 -63 149.5t-193 48.5h-113v-411z" />
<glyph unicode="C" horiz-adv-x="1540" d="M61 737q0 152 58 288.5t170 248.5q106 104 235.5 157.5t278.5 53.5q224 0 393.5 -106t255.5 -300h-248q-70 97 -172 146t-231 49q-103 0 -196 -39t-165 -113q-75 -77 -117 -179t-42 -208q0 -114 38 -215.5t109 -175.5q75 -78 173 -121t200 -43q125 0 225.5 47.5 t165.5 137.5h260q-95 -191 -262.5 -292.5t-388.5 -101.5q-164 0 -302.5 63t-248.5 187q-93 103 -141 234.5t-48 281.5z" />
<glyph unicode="D" horiz-adv-x="1384" d="M117 0v1456h469q328 0 529.5 -203t201.5 -530q0 -186 -75.5 -339t-217.5 -255q-96 -69 -205 -99t-293 -30h-409zM322 195h256q243 0 384.5 141.5t141.5 384.5q0 252 -150 394t-415 142h-217v-1062z" />
<glyph unicode="E" horiz-adv-x="1014" d="M127 0v1456h756v-194h-545v-435h545v-190h-545v-436h545v-201h-756z" />
<glyph unicode="F" horiz-adv-x="977" d="M123 0v1456h717v-194h-508v-435h508v-190h-508v-637h-209z" />
<glyph unicode="G" horiz-adv-x="1612" d="M61 737q0 153 58 290t170 247q106 106 237 158.5t291 52.5q221 0 387.5 -103.5t251.5 -294.5h-260q-72 93 -172 140t-223 47q-103 0 -196 -39t-165 -113q-75 -77 -117 -179t-42 -208q0 -114 38 -215.5t109 -175.5q75 -78 173 -121t200 -43q166 0 293 88.5t209 261.5h-660 v205h901q-15 -341 -221 -552.5t-522 -211.5q-164 0 -302.5 63t-248.5 187q-93 103 -141 234.5t-48 281.5z" />
<glyph unicode="H" horiz-adv-x="1270" d="M127 0v1456h211v-618h594v618h211v-1456h-211v631h-594v-631h-211z" />
<glyph unicode="I" horiz-adv-x="465" d="M127 0v1456h211v-1456h-211z" />
<glyph unicode="J" horiz-adv-x="905" d="M4 329l208 1q11 -81 53.5 -121.5t117.5 -40.5q110 0 152.5 65.5t42.5 294.5v928h210v-956q0 -154 -14.5 -226.5t-48.5 -126.5q-54 -85 -143 -130.5t-203 -45.5q-171 0 -271.5 96.5t-103.5 261.5z" />
<glyph unicode="K" horiz-adv-x="1118" d="M127 0v1456h211v-1456h-211zM346 723l549 733h254l-565 -723l551 -733h-265z" />
<glyph unicode="L" horiz-adv-x="858" d="M127 0v1456h211v-1255h477v-201h-688z" />
<glyph unicode="M" horiz-adv-x="1724" d="M127 0v1456h313l422 -1126l422 1126h309v-1456h-198l14 1264l-473 -1264h-150l-471 1264l15 -1264h-203z" />
<glyph unicode="N" horiz-adv-x="1384" d="M127 0v1456h217l715 -1102l-10 1102h208v-1456h-202l-731 1135l14 -1135h-211z" />
<glyph unicode="O" horiz-adv-x="1612" d="M61 737q0 153 58 290t170 247q106 104 235.5 157.5t278.5 53.5q153 0 283.5 -53.5t238.5 -159.5q111 -109 167 -244t56 -291q0 -155 -48 -285.5t-144 -234.5q-113 -122 -252.5 -184t-302.5 -62q-164 0 -302.5 63t-248.5 187q-93 103 -141 234.5t-48 281.5zM281 735 q0 -114 38 -215.5t109 -175.5q75 -78 173 -121t200 -43q226 0 378 160.5t152 398.5q0 101 -36.5 192.5t-106.5 168.5q-83 89 -177.5 131.5t-209.5 42.5q-103 0 -196 -39t-165 -113q-75 -77 -117 -179t-42 -208z" />
<glyph unicode="P" horiz-adv-x="1053" d="M127 0v1456h338q143 0 217.5 -14t130.5 -47q91 -53 145 -151.5t54 -213.5q0 -203 -137 -323.5t-371 -120.5h-168v-586h-209zM336 780h153q163 0 236.5 57t73.5 181t-74.5 184t-228.5 60h-160v-482z" />
<glyph unicode="Q" horiz-adv-x="1612" d="M61 737q0 152 58 288.5t170 248.5q106 104 235.5 157.5t278.5 53.5q153 0 283.5 -53.5t238.5 -159.5q112 -111 168.5 -250t56.5 -303q0 -143 -45 -264t-137 -226q39 -18 80 -27t88 -9h27v-203h-19q-81 0 -165 25t-171 75q-91 -59 -192.5 -89t-212.5 -30q-128 0 -245.5 41 t-215.5 119q-136 110 -208.5 266t-72.5 340zM279 727q0 -34 5.5 -72t16.5 -80q48 25 106 36.5t134 11.5q163 0 327.5 -72t311.5 -207q79 89 115 182.5t36 212.5q0 101 -36.5 193.5t-106.5 167.5q-82 89 -176.5 131.5t-210.5 42.5q-103 0 -196 -39t-165 -113 q-78 -79 -119.5 -181.5t-41.5 -213.5zM375 414q78 -112 192 -173t246 -61q48 0 99 11t108 34q-112 103 -240.5 157t-261.5 54q-38 0 -73.5 -5.5t-69.5 -16.5z" />
<glyph unicode="R" horiz-adv-x="1157" d="M127 0v1456h420q262 0 400 -121t138 -350q0 -178 -115.5 -297.5t-297.5 -128.5l413 -559h-264l-483 676v-676h-211zM338 700h108q219 0 326 71t107 216q0 141 -92 207t-291 66h-158v-560z" />
<glyph unicode="S" horiz-adv-x="973" d="M50 420h189q5 -113 67 -180.5t161 -67.5q109 0 174.5 67.5t65.5 180.5q0 99 -48 153t-201 101q-8 2 -27 7q-183 49 -265 161q-37 49 -55.5 104.5t-18.5 118.5q0 187 111 302.5t291 115.5q167 0 269.5 -103.5t113.5 -283.5h-197q-5 87 -58.5 140.5t-134.5 53.5 q-87 0 -141.5 -59.5t-54.5 -153.5q0 -33 10 -62t31 -54q43 -51 184 -88q65 -17 100 -29q144 -54 218.5 -157t74.5 -247q0 -211 -120 -340t-318 -129q-186 0 -302.5 123.5t-118.5 325.5z" />
<glyph unicode="T" horiz-adv-x="786" d="M16 1260v196h756v-196h-272v-1260h-211v1260h-273z" />
<glyph unicode="U" horiz-adv-x="1157" d="M113 532v924h211v-926q0 -198 59 -275t201 -77q135 0 191 78.5t56 273.5v926h211v-924q0 -148 -16.5 -227t-54.5 -137q-66 -100 -160.5 -148.5t-222.5 -48.5q-140 0 -236 47t-166 148q-39 58 -56 130t-17 236z" />
<glyph unicode="V" horiz-adv-x="1161" d="M-43 1456h223l400 -1085l401 1085h221l-559 -1456h-125z" />
<glyph unicode="W" horiz-adv-x="1726" d="M-31 1456h215l316 -1122l284 1122h158l283 -1122l315 1122h215l-440 -1456h-191l-262 1087l-264 -1087h-188z" />
<glyph unicode="X" horiz-adv-x="1200" d="M-6 0l485 735l-473 721h246l348 -563l344 563h250l-473 -721l483 -735h-246l-358 569l-362 -569h-244z" />
<glyph unicode="Y" horiz-adv-x="1010" d="M-49 1456h235l320 -700l319 700h234l-451 -932v-524h-211v537z" />
<glyph unicode="Z" horiz-adv-x="973" d="M39 0v207l637 1044h-596v205h840v-184l-660 -1071h672v-201h-893z" />
<glyph unicode="[" horiz-adv-x="569" d="M125 -414v1870h385v-160h-193v-1548h193v-162h-385z" />
<glyph unicode="\" horiz-adv-x="569" d="M0 1485h147l480 -1675h-148z" />
<glyph unicode="]" horiz-adv-x="569" d="M59 -252h191v1548h-191v160h385v-1870h-385v162z" />
<glyph unicode="^" horiz-adv-x="2048" d="M420 901l510 557h186l510 -557h-180l-422 420l-424 -420h-180z" />
<glyph unicode="_" d="M0 -340h1024v-143h-1024v143z" />
<glyph unicode="`" d="M250 1589h201l204 -348h-120z" />
<glyph unicode="a" horiz-adv-x="1319" d="M61 555q0 116 41 220t117 183q83 87 181.5 128.5t224.5 41.5q113 0 208 -40t173 -121v133h200v-1100h-200v135q-76 -79 -169.5 -119.5t-199.5 -40.5q-248 0 -412 165.5t-164 414.5zM266 557q0 -167 110.5 -280t270.5 -113q146 0 257.5 113.5t111.5 265.5 q0 162 -110.5 277.5t-262.5 115.5q-156 0 -266.5 -110t-110.5 -269z" />
<glyph unicode="b" horiz-adv-x="1319" d="M111 0v1456h198v-489q80 81 175.5 121t207.5 40q126 0 224.5 -41.5t181.5 -128.5q77 -80 118 -184t41 -219q0 -249 -164 -414.5t-413 -165.5q-106 0 -199.5 40.5t-169.5 119.5v-135h-200zM303 543q0 -152 111.5 -265.5t257.5 -113.5q159 0 269 112.5t110 280.5 q0 158 -111 268.5t-266 110.5q-152 0 -261.5 -115t-109.5 -278z" />
<glyph unicode="c" horiz-adv-x="1241" d="M57 549q0 115 39.5 215.5t116.5 183.5q85 91 191 138t227 47q189 0 328 -104.5t202 -293.5h-217q-52 101 -134 151t-196 50q-147 0 -249.5 -111t-102.5 -274q0 -165 104 -275t259 -110q104 0 188 54.5t131 154.5h217q-69 -199 -205 -301.5t-331 -102.5q-123 0 -223 42.5 t-181 127.5q-77 81 -120.5 188.5t-43.5 219.5z" />
<glyph unicode="d" horiz-adv-x="1319" d="M61 555q0 116 41 220t117 183q83 87 181.5 128.5t224.5 41.5q112 0 207.5 -40t175.5 -121v489h198v-1456h-200v135q-76 -79 -169.5 -119.5t-199.5 -40.5q-248 0 -412 165.5t-164 414.5zM266 557q0 -167 110.5 -280t270.5 -113q146 0 257.5 113.5t111.5 265.5 q0 162 -110.5 277.5t-262.5 115.5q-156 0 -266.5 -110t-110.5 -269z" />
<glyph unicode="e" horiz-adv-x="1245" d="M55 551q0 116 39.5 217t116.5 184q82 90 185 135.5t225 45.5q145 0 269.5 -67.5t205.5 -188.5q48 -75 71 -164.5t23 -204.5v-31h-926q25 -138 124.5 -223.5t236.5 -85.5q98 0 178.5 47t128.5 133h223q-76 -183 -212.5 -280t-317.5 -97q-122 0 -223 43t-183 129 q-77 81 -120.5 188.5t-43.5 219.5zM270 655h703q-37 136 -128 210.5t-218 74.5q-130 0 -225.5 -76.5t-131.5 -208.5z" />
<glyph unicode="f" horiz-adv-x="569" d="M41 928v172h125v33q0 169 94 254.5t281 85.5v-183h-17q-88 0 -126 -40t-38 -134v-16h181v-172h-172v-928h-197v928h-131z" />
<glyph unicode="g" horiz-adv-x="1319" d="M61 555q0 116 41 220t117 183q83 87 181.5 128.5t224.5 41.5q112 0 207.5 -40t175.5 -121v133h198v-918q0 -287 -149 -449.5t-410 -162.5q-189 0 -323 89.5t-191 252.5h211q46 -77 120.5 -117.5t170.5 -40.5q167 0 269 100.5t102 266.5v14q-76 -79 -169.5 -119.5 t-199.5 -40.5q-248 0 -412 165.5t-164 414.5zM266 557q0 -167 110.5 -280t270.5 -113q146 0 257.5 113.5t111.5 265.5q0 162 -110.5 277.5t-262.5 115.5q-156 0 -266.5 -110t-110.5 -269z" />
<glyph unicode="h" horiz-adv-x="1157" d="M117 0v1456h198v-481q48 71 124.5 107t178.5 36q200 0 311 -128t111 -359v-631h-198v567q0 183 -62 272t-190 89q-78 0 -138 -36t-96 -104q-22 -41 -31.5 -100t-9.5 -188v-500h-198z" />
<glyph unicode="i" horiz-adv-x="432" d="M117 0v1100h196v-1100h-196zM117 1229v227h196v-227h-196z" />
<glyph unicode="j" horiz-adv-x="455" d="M-6 -160q80 0 107.5 27.5t27.5 132.5v57v1043h197v-1110q0 -187 -67.5 -266.5t-221.5 -79.5q-7 0 -21.5 1t-21.5 1v194zM129 1229v227h197v-227h-197z" />
<glyph unicode="k" horiz-adv-x="977" d="M117 0v1456h196v-866l392 510h231l-404 -522l478 -578h-254l-443 559v-559h-196z" />
<glyph unicode="l" horiz-adv-x="432" d="M117 0v1456h196v-1456h-196z" />
<glyph unicode="m" horiz-adv-x="1778" d="M119 0v1100h176v-129q55 74 124.5 110.5t158.5 36.5q120 0 200 -46t131 -144q51 96 135 143t205 47q186 0 298 -121.5t112 -324.5v-672h-199v641q0 141 -61.5 219t-171.5 78q-128 0 -184 -83t-56 -280v-575h-192v555q0 201 -57 292t-181 91q-128 0 -189 -91.5t-61 -283.5 v-563h-188z" />
<glyph unicode="n" horiz-adv-x="1176" d="M117 0v1100h190v-125q62 74 136.5 108.5t170.5 34.5q216 0 331.5 -127t115.5 -364v-627h-199v584q0 175 -65 259.5t-201 84.5q-148 0 -214.5 -99.5t-66.5 -328.5v-500h-198z" />
<glyph unicode="o" horiz-adv-x="1241" d="M53 549q0 117 39.5 218.5t116.5 182.5q83 89 187 137t216 48q120 0 222.5 -43t185.5 -127q81 -83 124.5 -187t43.5 -215q0 -113 -40.5 -220t-113.5 -187q-84 -92 -188.5 -139.5t-222.5 -47.5q-121 0 -223 43.5t-183 128.5q-77 81 -120.5 188.5t-43.5 219.5zM258 551 q0 -165 104.5 -275t260.5 -110q153 0 256.5 110.5t103.5 276.5q0 167 -103.5 276t-258.5 109q-154 0 -258.5 -110.5t-104.5 -276.5z" />
<glyph unicode="p" horiz-adv-x="1319" d="M111 -356v1456h200v-135q76 78 169.5 118.5t199.5 40.5q249 0 413 -165t164 -414q0 -115 -41 -219t-118 -185q-83 -87 -181.5 -128.5t-224.5 -41.5q-112 0 -207.5 40.5t-175.5 121.5v-489h-198zM303 557q0 -163 109.5 -278t261.5 -115q155 0 266 110.5t111 268.5 q0 167 -110 280t-269 113q-146 0 -257.5 -113.5t-111.5 -265.5z" />
<glyph unicode="q" horiz-adv-x="1319" d="M61 545q0 249 164.5 414t413.5 165q106 0 199.5 -40.5t169.5 -118.5v135h200v-1456h-200v489q-78 -81 -173 -121.5t-208 -40.5q-126 0 -224.5 41.5t-181.5 128.5q-77 81 -118.5 185t-41.5 219zM268 543q0 -159 110.5 -269t266.5 -110q152 0 261.5 115t109.5 278 q0 152 -111.5 265.5t-257.5 113.5q-159 0 -269 -113t-110 -280z" />
<glyph unicode="r" horiz-adv-x="592" d="M119 0v1100h186v-127q49 73 112.5 108.5t147.5 36.5v-207q-133 -10 -190.5 -78.5t-57.5 -220.5v-612h-198z" />
<glyph unicode="s" horiz-adv-x="797" d="M41 356h186q0 -87 48.5 -143.5t121.5 -56.5q69 0 113.5 42.5t44.5 108.5q0 58 -31.5 98t-101.5 68q-24 10 -68 26q-117 44 -149 70q-59 47 -87 106.5t-28 137.5q0 134 93.5 228t228.5 94q141 0 224 -82.5t91 -231.5h-190q-5 61 -40 95t-94 34q-53 0 -88.5 -36.5 t-35.5 -90.5q0 -92 160 -151q45 -17 71 -27q126 -51 179.5 -127t53.5 -203q0 -148 -100 -246t-252 -98q-153 0 -247 103t-103 282z" />
<glyph unicode="t" horiz-adv-x="563" d="M29 920v180h155v356h197v-356h156v-180h-156v-920h-197v920h-155z" />
<glyph unicode="u" horiz-adv-x="1157" d="M111 467v633h198v-576q0 -178 63 -267t189 -89q78 0 139 36.5t97 104.5q22 42 31.5 100t9.5 187v504h196v-1100h-190v123q-59 -75 -132.5 -111.5t-164.5 -36.5q-208 0 -322 129t-114 363z" />
<glyph unicode="v" horiz-adv-x="1014" d="M4 1100h213l289 -803l297 803h209l-441 -1100h-149z" />
<glyph unicode="w" horiz-adv-x="1460" d="M12 1100h211l226 -727l223 727h121l221 -727l227 727h209l-383 -1100h-111l-227 745l-225 -745h-111z" />
<glyph unicode="x" horiz-adv-x="934" d="M-20 0l372 571l-329 529h221l229 -377l234 377h229l-348 -522l352 -578h-221l-254 416l-266 -416h-219z" />
<glyph unicode="y" horiz-adv-x="1049" d="M6 1100h213l297 -819l322 819h213l-592 -1456h-209l153 387z" />
<glyph unicode="z" horiz-adv-x="825" d="M20 0v160l531 760h-467v180h666v-203l-496 -711h526v-186h-760z" />
<glyph unicode="{" d="M168 457v149q8 0 23 -1t22 -1q130 0 184 60.5t54 207.5v246q0 148 22.5 210.5t77.5 96.5q45 28 108.5 40t169.5 12h37v-150h-41q-120 0 -161 -44.5t-41 -184.5v-242q0 -160 -44.5 -228t-156.5 -98q113 -28 157 -96t44 -229v-242q0 -141 41.5 -185t162.5 -44h39v-148h-43 q-108 0 -169 11.5t-103 37.5q-55 34 -77.5 97t-22.5 211v245q0 149 -54.5 210t-185.5 61q-7 0 -21.5 -1t-21.5 -1z" />
<glyph unicode="|" d="M438 -483v2048h150v-2048h-150z" />
<glyph unicode="}" d="M160 -266h39q120 0 162 45t42 186v240q0 160 44.5 228t156.5 97q-112 30 -156.5 98t-44.5 228v242q0 140 -42 184.5t-162 44.5h-39v150h37q107 0 171 -12.5t107 -39.5q55 -34 77.5 -96.5t22.5 -210.5v-246q0 -147 54 -207.5t184 -60.5q7 0 22 1t23 1v-149q-7 0 -22 1 t-21 1q-132 0 -186 -60.5t-54 -210.5v-245q0 -148 -22.5 -211t-77.5 -97q-42 -26 -103 -37.5t-169 -11.5h-43v148z" />
<glyph unicode="~" horiz-adv-x="1706" d="M178 451v155q106 72 202 108t185 36q62 0 127.5 -13.5t163.5 -48.5q16 -5 47 -17q159 -57 240 -57q88 0 179.5 37t207.5 119v-156q-104 -72 -199 -106.5t-190 -34.5q-93 0 -256 58q-22 8 -34 12q-5 2 -15 5q-176 60 -273 60q-84 0 -175 -37t-210 -120z" />
<glyph unicode="&#xa1;" horiz-adv-x="594" d="M199 0v1096h196v-1096h-196zM199 1223v233h196v-233h-196z" />
<glyph unicode="&#xa2;" horiz-adv-x="1171" d="M59 723q0 218 123.5 375.5t329.5 199.5v211h168v-209q155 -20 265 -120t165 -271h-209q-47 102 -125.5 152.5t-185.5 50.5q-141 0 -238.5 -111.5t-97.5 -277.5q0 -165 99 -274t247 -109q102 0 180.5 54.5t120.5 154.5h209q-55 -172 -165 -275t-265 -127v-229h-168v232 q-199 37 -326 198.5t-127 374.5z" />
<glyph unicode="&#xa3;" horiz-adv-x="1171" d="M111 662v190h108q-22 49 -32.5 93t-10.5 87q0 184 141.5 316.5t339.5 132.5q170 0 289 -103t154 -280h-215q-26 83 -89.5 130.5t-148.5 47.5q-114 0 -185 -72.5t-71 -187.5q0 -38 10.5 -78.5t32.5 -85.5h449v-190h-320q41 -78 58.5 -136.5t17.5 -117.5q0 -66 -18 -119 t-56 -99q9 -2 19.5 -3t31.5 -1h33q144 0 215.5 56t71.5 168q0 26 -3.5 53.5t-10.5 56.5h204q7 -31 10 -56t3 -46q0 -120 -50.5 -217t-138.5 -148q-51 -30 -124 -42.5t-259 -12.5h-35h-405v197h227q43 42 63.5 91t20.5 107q0 67 -24 128t-84 141h-219z" />
<glyph unicode="&#xa4;" horiz-adv-x="1241" d="M80 428l207 205q-41 51 -62.5 116t-21.5 136q0 70 21 133t63 119l-207 206l82 80l205 -204q57 43 120 64.5t134 21.5t134.5 -21.5t121.5 -64.5l204 204l82 -80l-205 -206q41 -55 61.5 -118t20.5 -134q0 -73 -20 -135.5t-62 -116.5l205 -205l-82 -82l-204 205 q-59 -44 -122 -65t-132 -21q-72 0 -135.5 21.5t-120.5 64.5l-205 -205zM319 887q0 -126 89 -215.5t215 -89.5q125 0 214 89.5t89 215.5q0 125 -89 214t-214 89q-126 0 -215 -89t-89 -214z" />
<glyph unicode="&#xa5;" horiz-adv-x="1171" d="M35 1448h233l320 -696l315 696h232l-226 -461h170v-143h-239l-82 -166h321v-141h-391v-537h-209v537h-391v141h322l-82 166h-240v143h170z" />
<glyph unicode="&#xa6;" d="M438 -350v758h150v-758h-150zM438 674v758h150v-758h-150z" />
<glyph unicode="&#xa7;" d="M80 684q0 84 44 155t134 132q-46 38 -69 88t-23 112q0 139 93.5 226.5t242.5 87.5q161 0 253.5 -85.5t92.5 -234.5v-10h-170q-3 81 -50.5 129.5t-125.5 48.5q-73 0 -115.5 -36.5t-42.5 -100.5q0 -55 39 -97t182 -118l176 -94q109 -58 156 -128t47 -171q0 -89 -51 -165.5 t-133 -111.5q52 -44 77 -97.5t25 -119.5q0 -138 -101.5 -228.5t-260.5 -90.5t-254.5 91t-95.5 243v4h174v-11q0 -81 50.5 -126.5t141.5 -45.5q79 0 125.5 39t46.5 105q0 58 -45.5 106t-179.5 121l-182 98q-102 56 -151.5 126t-49.5 159zM258 737q0 -56 34 -98t144 -104 l221 -127q48 28 75.5 70.5t27.5 86.5q0 55 -41.5 103t-136.5 100l-217 119q-54 -32 -80.5 -69t-26.5 -81z" />
<glyph unicode="&#xa8;" d="M242 1300v209h184v-209h-184zM598 1300v209h184v-209h-184z" />
<glyph unicode="&#xa9;" horiz-adv-x="1706" d="M117 727q0 147 56 281.5t163 242.5q104 104 236 158.5t280 54.5q152 0 285.5 -54.5t238.5 -160.5q104 -103 159.5 -238.5t55.5 -283.5q0 -149 -54.5 -281.5t-158.5 -234.5q-110 -107 -245.5 -164t-280.5 -57t-278.5 56t-239.5 163q-106 105 -161.5 238.5t-55.5 279.5z M213 727q0 -126 49 -242t141 -209q92 -91 207.5 -139.5t243.5 -48.5q125 0 242 49t213 142q90 88 137 202.5t47 245.5q0 130 -47.5 246.5t-136.5 206.5q-93 92 -209 140t-246 48q-129 0 -243.5 -47t-204.5 -137q-93 -93 -143 -211.5t-50 -245.5zM463 733q0 200 109 322.5 t286 122.5q142 0 236.5 -75t105.5 -196h-147q-13 77 -66 118.5t-139 41.5q-105 0 -165 -90.5t-60 -249.5q0 -157 62 -244.5t173 -87.5q82 0 136.5 47t68.5 129h145q-9 -130 -107.5 -211t-248.5 -81q-182 0 -285.5 120t-103.5 334z" />
<glyph unicode="&#xaa;" horiz-adv-x="989" d="M47 1075q0 80 30 153t87 130q62 61 136.5 90t168.5 29q85 0 156 -28.5t129 -86.5v94h151v-770h-151v94q-56 -54 -126.5 -82t-150.5 -28q-186 0 -308 115t-122 290zM201 1075q0 -117 82.5 -195.5t201.5 -78.5q110 0 193.5 80t83.5 186q0 114 -82.5 194t-196.5 80 q-117 0 -199.5 -77t-82.5 -189z" />
<glyph unicode="&#xab;" horiz-adv-x="1032" d="M127 551l248 311h149l-241 -313l241 -311h-149zM481 551l248 311h152l-244 -313l244 -311h-152z" />
<glyph unicode="&#xac;" horiz-adv-x="1706" d="M254 721v139h1198v-502h-137v363h-1061z" />
<glyph unicode="&#xad;" horiz-adv-x="678" d="M90 457v184h498v-184h-498z" />
<glyph unicode="&#xae;" horiz-adv-x="1706" d="M117 727q0 146 57.5 282.5t165.5 245.5q101 103 231.5 156t280.5 53q151 0 286 -56t240 -163q103 -104 158 -238t55 -280q0 -151 -55 -283.5t-160 -234.5q-109 -106 -244.5 -162.5t-279.5 -56.5q-147 0 -280.5 56.5t-239.5 164.5q-105 106 -160 238.5t-55 277.5zM213 727 q0 -125 48.5 -240.5t139.5 -207.5q90 -92 206.5 -141.5t240.5 -49.5q130 0 246.5 48t212.5 140q90 88 138 202.5t48 242.5q0 134 -46.5 251t-135.5 206q-92 93 -208.5 141.5t-248.5 48.5q-130 0 -245 -47t-201 -135q-94 -95 -144.5 -214t-50.5 -245zM557 324v835h315 q174 0 261.5 -57.5t87.5 -171.5q0 -89 -50 -148t-141 -77l187 -381h-177l-170 356h-155v-356h-158zM715 780h133q113 0 162 31.5t49 101.5q0 76 -51 110t-164 34h-129v-277z" />
<glyph unicode="&#xaf;" d="M242 1335v140h540v-140h-540z" />
<glyph unicode="&#xb0;" horiz-adv-x="674" d="M49 1167q0 120 84.5 204.5t204.5 84.5q118 0 202.5 -84.5t84.5 -204.5q0 -119 -84 -202.5t-205 -83.5t-204 83t-83 203zM143 1169q0 -81 57 -138.5t138 -57.5t136.5 57.5t55.5 138.5t-55.5 137t-136.5 56t-138 -56t-57 -137z" />
<glyph unicode="&#xb1;" horiz-adv-x="1706" d="M254 29v141h1198v-141h-1198zM254 713v139h528v340h142v-340h528v-139h-528v-340h-142v340h-528z" />
<glyph unicode="&#xb2;" horiz-adv-x="774" d="M82 582v120l335 295l4 3q134 117 134 194q0 67 -49.5 112.5t-124.5 45.5q-79 0 -123.5 -46t-44.5 -128v-11h-131v2q0 137 85.5 219t225.5 82q126 0 212.5 -78.5t86.5 -191.5q0 -64 -32 -120.5t-107 -121.5l-299 -256h436v-120h-608z" />
<glyph unicode="&#xb3;" horiz-adv-x="774" d="M70 850h128q4 -74 52.5 -121t122.5 -47q79 0 132.5 48.5t53.5 121.5q0 80 -55 125t-154 45h-35l1 119q4 -1 10.5 -1.5t17.5 -0.5q74 0 112 27.5t38 82.5q0 46 -32 76.5t-79 30.5q-54 0 -85 -28t-34 -78h-127q5 101 73 162t177 61q100 0 170 -64t70 -154q0 -53 -23.5 -93 t-71.5 -68q77 -28 118.5 -88.5t41.5 -145.5q0 -125 -89.5 -210t-221.5 -85q-143 0 -225.5 75.5t-85.5 209.5z" />
<glyph unicode="&#xb4;" d="M369 1241l204 348h201l-285 -348h-120z" />
<glyph unicode="&#xb5;" horiz-adv-x="1151" d="M-113 -428l318 1499h180l-129 -600q-7 -32 -10.5 -64.5t-3.5 -68.5q0 -99 52 -153t148 -54q132 0 208.5 92.5t123.5 311.5l115 536h178l-156 -732q-1 -6 -4 -20q-18 -87 -18 -112q0 -37 16.5 -52.5t55.5 -15.5q12 0 18.5 0.5t13.5 1.5l-31 -143q-24 -5 -50 -7.5t-58 -2.5 q-63 0 -97 29t-52 100q-45 -66 -112.5 -98.5t-158.5 -32.5q-82 0 -143 27.5t-113 88.5l-110 -530h-181z" />
<glyph unicode="&#xb6;" d="M66 1130q0 157 107.5 253t285.5 96h499v-86h-120v-1393h-111v1393h-176v-1393h-113v782q-170 8 -271 102.5t-101 245.5z" />
<glyph unicode="&#xb7;" horiz-adv-x="586" d="M180 729q0 46 33 78.5t80 32.5q46 0 78 -32.5t32 -78.5q0 -47 -32 -80t-78 -33q-47 0 -80 33t-33 80z" />
<glyph unicode="&#xb8;" d="M256 -326q79 -18 143 -28.5t103 -10.5q60 0 90.5 20.5t30.5 61.5q0 44 -32.5 65t-101.5 21q-20 0 -31 -0.5t-22 -0.5v198h76v-102h29q109 0 166 -46t57 -135q0 -91 -64 -139.5t-186 -48.5q-50 0 -115.5 11.5t-142.5 33.5v100z" />
<glyph unicode="&#xb9;" horiz-adv-x="772" d="M160 1352v104h309v-874h-141v770h-168z" />
<glyph unicode="&#xba;" horiz-adv-x="932" d="M41 1071q0 83 29.5 154t87.5 127q62 62 140 95.5t161 33.5q89 0 166 -30t141 -89q60 -59 92.5 -131.5t32.5 -149.5q0 -78 -30 -153.5t-85 -132.5q-64 -64 -142 -96.5t-167 -32.5q-91 0 -167.5 30t-135.5 88q-59 56 -91 131.5t-32 155.5zM195 1071q0 -115 77.5 -191.5 t194.5 -76.5q115 0 192.5 77t77.5 193q0 118 -77.5 194t-194.5 76q-114 0 -192 -77.5t-78 -194.5z" />
<glyph unicode="&#xbb;" horiz-adv-x="1032" d="M152 238l243 311l-243 313h151l248 -311l-248 -313h-151zM508 238l242 311l-242 313h149l248 -311l-248 -313h-149z" />
<glyph unicode="&#xbc;" horiz-adv-x="1819" d="M154 1360v96h295v-815h-136v719h-159zM395 -29l881 1514h143l-878 -1514h-146zM1135 141v105l403 569h129v-569h92v-105h-92v-141h-129v141h-403zM1264 246h274v401z" />
<glyph unicode="&#xbd;" horiz-adv-x="1819" d="M154 1360v96h295v-815h-136v719h-159zM395 -29l881 1514h143l-878 -1514h-146zM1157 0v113l322 274l2 2q129 111 129 182q0 64 -47 106t-119 42q-76 0 -119 -43t-43 -119v-10h-125v2q0 127 81.5 203.5t215.5 76.5q120 0 203.5 -73.5t83.5 -177.5q0 -61 -31 -113.5 t-102 -112.5l-287 -239h416v-113h-580z" />
<glyph unicode="&#xbe;" horiz-adv-x="1819" d="M66 891h124q4 -69 50.5 -112.5t115.5 -43.5q75 0 125.5 45.5t50.5 112.5q0 76 -51.5 118t-146.5 42q-14 0 -20.5 -0.5t-12.5 -1.5v112q6 -1 12 -1.5t17 -0.5q70 0 105.5 26t35.5 77q0 43 -30.5 71.5t-75.5 28.5q-50 0 -80 -27t-33 -73h-121q5 95 69.5 152t168.5 57 q96 0 162.5 -60t66.5 -143q0 -50 -22 -87t-68 -65q74 -26 114 -82.5t40 -134.5q0 -116 -85.5 -196t-211.5 -80q-138 0 -217 70t-82 196zM395 -29l881 1514h143l-878 -1514h-146zM1135 141v105l403 569h129v-569h92v-105h-92v-141h-129v141h-403zM1264 246h274v401z" />
<glyph unicode="&#xbf;" horiz-adv-x="995" d="M92 397q0 171 175 353l12 12q88 91 119.5 159t35.5 154h203q-2 -103 -38 -197t-105 -178q-23 -26 -68 -72q-123 -122 -123 -229q0 -104 66 -168.5t174 -64.5q98 0 158 68t63 183l198 1q-3 -196 -126.5 -321.5t-309.5 -125.5t-310 122t-124 304zM440 1221v235h197v-235 h-197z" />
<glyph unicode="&#xc0;" horiz-adv-x="1233" d="M-63 0l569 1456h205l569 -1456h-231l-160 424h-565l-164 -424h-223zM346 1939h201l204 -348h-120zM399 629h414l-205 553z" />
<glyph unicode="&#xc1;" horiz-adv-x="1233" d="M-63 0l569 1456h205l569 -1456h-231l-160 424h-565l-164 -424h-223zM399 629h414l-205 553zM465 1591l204 348h201l-285 -348h-120z" />
<glyph unicode="&#xc2;" horiz-adv-x="1233" d="M-63 0l569 1456h205l569 -1456h-231l-160 424h-565l-164 -424h-223zM313 1591l197 348h196l197 -348h-123l-172 229l-174 -229h-121zM399 629h414l-205 553z" />
<glyph unicode="&#xc3;" horiz-adv-x="1233" d="M-63 0l569 1456h205l569 -1456h-231l-160 424h-565l-164 -424h-223zM315 1636q18 100 68 153.5t125 53.5q17 0 32 -2t27 -6l99 -29q15 -4 28 -6t25 -2q33 0 56.5 17t37.5 53h88q-20 -101 -70.5 -154t-126.5 -53q-14 0 -30.5 2.5t-34.5 7.5l-97 27q-13 4 -25.5 6t-23.5 2 q-31 0 -53.5 -17.5t-36.5 -52.5h-88zM399 629h414l-205 553z" />
<glyph unicode="&#xc4;" horiz-adv-x="1233" d="M-63 0l569 1456h205l569 -1456h-231l-160 424h-565l-164 -424h-223zM338 1650v209h184v-209h-184zM399 629h414l-205 553zM694 1650v209h184v-209h-184z" />
<glyph unicode="&#xc5;" horiz-adv-x="1233" d="M-63 0l567 1448h207l569 -1448h-236l-155 424h-565l-164 -424h-223zM367 1739q0 97 68 165t165 68t165.5 -68t68.5 -165t-68.5 -165.5t-165.5 -68.5q-98 0 -165.5 68t-67.5 166zM399 629h414l-207 553zM485 1741q0 -50 34 -84.5t83 -34.5q50 0 85.5 35t35.5 84 q0 48 -36 84.5t-85 36.5q-47 0 -82 -36t-35 -85z" />
<glyph unicode="&#xc6;" horiz-adv-x="1720" d="M-123 0l807 1456h905v-194h-547v-435h547v-190h-547v-436h547v-201h-755v406h-502l-221 -406h-234zM444 606h390v656h-33z" />
<glyph unicode="&#xc7;" horiz-adv-x="1540" d="M61 737q0 152 58 288.5t170 248.5q106 104 235.5 157.5t278.5 53.5q224 0 393.5 -106t255.5 -300h-248q-70 97 -172 146t-231 49q-103 0 -196 -39t-165 -113q-75 -77 -117 -179t-42 -208q0 -114 38 -215.5t109 -175.5q75 -78 173 -121t200 -43q125 0 225.5 47.5 t165.5 137.5h260q-95 -191 -262.5 -292.5t-388.5 -101.5q-164 0 -302.5 63t-248.5 187q-93 103 -141 234.5t-48 281.5zM535 -326q79 -18 143 -28.5t103 -10.5q60 0 90.5 20.5t30.5 61.5q0 44 -32.5 65t-101.5 21q-20 0 -31 -0.5t-22 -0.5v198h76v-102h29q109 0 166 -46 t57 -135q0 -91 -64 -139.5t-186 -48.5q-50 0 -115.5 11.5t-142.5 33.5v100z" />
<glyph unicode="&#xc8;" horiz-adv-x="1014" d="M127 0v1456h756v-194h-545v-435h545v-190h-545v-436h545v-201h-756zM242 1939h201l204 -348h-120z" />
<glyph unicode="&#xc9;" horiz-adv-x="1014" d="M127 0v1456h756v-194h-545v-435h545v-190h-545v-436h545v-201h-756zM361 1591l204 348h201l-285 -348h-120z" />
<glyph unicode="&#xca;" horiz-adv-x="1014" d="M127 0v1456h756v-194h-545v-435h545v-190h-545v-436h545v-201h-756zM209 1591l197 348h196l197 -348h-123l-172 229l-174 -229h-121z" />
<glyph unicode="&#xcb;" horiz-adv-x="1014" d="M127 0v1456h756v-194h-545v-435h545v-190h-545v-436h545v-201h-756zM234 1650v209h184v-209h-184zM590 1650v209h184v-209h-184z" />
<glyph unicode="&#xcc;" horiz-adv-x="465" d="M-29 1939h201l204 -348h-120zM127 0v1456h211v-1456h-211z" />
<glyph unicode="&#xcd;" horiz-adv-x="465" d="M90 1591l204 348h201l-285 -348h-120zM127 0v1456h211v-1456h-211z" />
<glyph unicode="&#xce;" horiz-adv-x="465" d="M-62 1591l197 348h196l197 -348h-123l-172 229l-174 -229h-121zM127 0v1456h211v-1456h-211z" />
<glyph unicode="&#xcf;" horiz-adv-x="465" d="M-37 1650v209h184v-209h-184zM127 0v1456h211v-1456h-211zM319 1650v209h184v-209h-184z" />
<glyph unicode="&#xd0;" horiz-adv-x="1407" d="M-10 647v176h151v633h467q329 0 530 -203t201 -530q0 -187 -74.5 -340t-215.5 -254q-96 -69 -205 -99t-293 -30h-410v647h-151zM346 195h256q244 0 385 141.5t141 384.5q0 251 -150.5 393.5t-416.5 142.5h-215v-434h340v-176h-340v-452z" />
<glyph unicode="&#xd1;" horiz-adv-x="1384" d="M127 0v1456h217l715 -1102l-10 1102h208v-1456h-202l-731 1135l14 -1135h-211zM399 1636q18 100 68 153.5t125 53.5q17 0 32 -2t27 -6l99 -29q15 -4 28 -6t25 -2q33 0 56.5 17t37.5 53h88q-20 -101 -70.5 -154t-126.5 -53q-14 0 -30.5 2.5t-34.5 7.5l-97 27 q-13 4 -25.5 6t-23.5 2q-31 0 -53.5 -17.5t-36.5 -52.5h-88z" />
<glyph unicode="&#xd2;" horiz-adv-x="1612" d="M61 737q0 153 58 290t170 247q106 104 235.5 157.5t278.5 53.5q153 0 283.5 -53.5t238.5 -159.5q111 -109 167 -244t56 -291q0 -155 -48 -285.5t-144 -234.5q-113 -122 -252.5 -184t-302.5 -62q-164 0 -302.5 63t-248.5 187q-93 103 -141 234.5t-48 281.5zM281 735 q0 -114 38 -215.5t109 -175.5q75 -78 173 -121t200 -43q226 0 378 160.5t152 398.5q0 101 -36.5 192.5t-106.5 168.5q-83 89 -177.5 131.5t-209.5 42.5q-103 0 -196 -39t-165 -113q-75 -77 -117 -179t-42 -208zM545 1939h201l204 -348h-120z" />
<glyph unicode="&#xd3;" horiz-adv-x="1612" d="M61 737q0 153 58 290t170 247q106 104 235.5 157.5t278.5 53.5q153 0 283.5 -53.5t238.5 -159.5q111 -109 167 -244t56 -291q0 -155 -48 -285.5t-144 -234.5q-113 -122 -252.5 -184t-302.5 -62q-164 0 -302.5 63t-248.5 187q-93 103 -141 234.5t-48 281.5zM281 735 q0 -114 38 -215.5t109 -175.5q75 -78 173 -121t200 -43q226 0 378 160.5t152 398.5q0 101 -36.5 192.5t-106.5 168.5q-83 89 -177.5 131.5t-209.5 42.5q-103 0 -196 -39t-165 -113q-75 -77 -117 -179t-42 -208zM664 1591l204 348h201l-285 -348h-120z" />
<glyph unicode="&#xd4;" horiz-adv-x="1612" d="M61 737q0 153 58 290t170 247q106 104 235.5 157.5t278.5 53.5q153 0 283.5 -53.5t238.5 -159.5q111 -109 167 -244t56 -291q0 -155 -48 -285.5t-144 -234.5q-113 -122 -252.5 -184t-302.5 -62q-164 0 -302.5 63t-248.5 187q-93 103 -141 234.5t-48 281.5zM281 735 q0 -114 38 -215.5t109 -175.5q75 -78 173 -121t200 -43q226 0 378 160.5t152 398.5q0 101 -36.5 192.5t-106.5 168.5q-83 89 -177.5 131.5t-209.5 42.5q-103 0 -196 -39t-165 -113q-75 -77 -117 -179t-42 -208zM512 1591l197 348h196l197 -348h-123l-172 229l-174 -229h-121 z" />
<glyph unicode="&#xd5;" horiz-adv-x="1612" d="M61 737q0 153 58 290t170 247q106 104 235.5 157.5t278.5 53.5q153 0 283.5 -53.5t238.5 -159.5q111 -109 167 -244t56 -291q0 -155 -48 -285.5t-144 -234.5q-113 -122 -252.5 -184t-302.5 -62q-164 0 -302.5 63t-248.5 187q-93 103 -141 234.5t-48 281.5zM281 735 q0 -114 38 -215.5t109 -175.5q75 -78 173 -121t200 -43q226 0 378 160.5t152 398.5q0 101 -36.5 192.5t-106.5 168.5q-83 89 -177.5 131.5t-209.5 42.5q-103 0 -196 -39t-165 -113q-75 -77 -117 -179t-42 -208zM514 1636q18 100 68 153.5t125 53.5q17 0 32 -2t27 -6l99 -29 q15 -4 28 -6t25 -2q33 0 56.5 17t37.5 53h88q-20 -101 -70.5 -154t-126.5 -53q-14 0 -30.5 2.5t-34.5 7.5l-97 27q-13 4 -25.5 6t-23.5 2q-31 0 -53.5 -17.5t-36.5 -52.5h-88z" />
<glyph unicode="&#xd6;" horiz-adv-x="1612" d="M61 737q0 153 58 290t170 247q106 104 235.5 157.5t278.5 53.5q153 0 283.5 -53.5t238.5 -159.5q111 -109 167 -244t56 -291q0 -155 -48 -285.5t-144 -234.5q-113 -122 -252.5 -184t-302.5 -62q-164 0 -302.5 63t-248.5 187q-93 103 -141 234.5t-48 281.5zM281 735 q0 -114 38 -215.5t109 -175.5q75 -78 173 -121t200 -43q226 0 378 160.5t152 398.5q0 101 -36.5 192.5t-106.5 168.5q-83 89 -177.5 131.5t-209.5 42.5q-103 0 -196 -39t-165 -113q-75 -77 -117 -179t-42 -208zM537 1650v209h184v-209h-184zM893 1650v209h184v-209h-184z " />
<glyph unicode="&#xd7;" horiz-adv-x="1706" d="M293 141l469 469l-469 469l98 99l469 -469l469 469l98 -99l-469 -469l469 -469l-98 -96l-469 467l-469 -467z" />
<glyph unicode="&#xd8;" horiz-adv-x="1612" d="M14 -33l224 264q-90 114 -133.5 239t-43.5 267q0 152 58 288.5t170 248.5q104 104 233 156.5t281 52.5q118 0 220 -30t187 -89l193 221l133 -108l-193 -228q104 -105 154.5 -231t50.5 -281t-48 -285.5t-144 -234.5q-114 -123 -255.5 -184.5t-312.5 -61.5 q-117 0 -219 33.5t-198 104.5l-224 -259zM279 719q0 -88 25 -167.5t77 -154.5l688 801q-63 39 -129 57.5t-139 18.5q-220 0 -371 -160.5t-151 -394.5zM510 272q71 -46 143.5 -69t147.5 -23q226 0 378 160.5t152 398.5q0 97 -33 183.5t-98 158.5z" />
<glyph unicode="&#xd9;" horiz-adv-x="1157" d="M113 532v924h211v-926q0 -198 59 -275t201 -77q135 0 191 78.5t56 273.5v926h211v-924q0 -148 -16.5 -227t-54.5 -137q-66 -100 -160.5 -148.5t-222.5 -48.5q-140 0 -236 47t-166 148q-39 58 -56 130t-17 236zM318 1939h201l204 -348h-120z" />
<glyph unicode="&#xda;" horiz-adv-x="1157" d="M113 532v924h211v-926q0 -198 59 -275t201 -77q135 0 191 78.5t56 273.5v926h211v-924q0 -148 -16.5 -227t-54.5 -137q-66 -100 -160.5 -148.5t-222.5 -48.5q-140 0 -236 47t-166 148q-39 58 -56 130t-17 236zM437 1591l204 348h201l-285 -348h-120z" />
<glyph unicode="&#xdb;" horiz-adv-x="1157" d="M113 532v924h211v-926q0 -198 59 -275t201 -77q135 0 191 78.5t56 273.5v926h211v-924q0 -148 -16.5 -227t-54.5 -137q-66 -100 -160.5 -148.5t-222.5 -48.5q-140 0 -236 47t-166 148q-39 58 -56 130t-17 236zM285 1591l197 348h196l197 -348h-123l-172 229l-174 -229 h-121z" />
<glyph unicode="&#xdc;" horiz-adv-x="1157" d="M113 532v924h211v-926q0 -198 59 -275t201 -77q135 0 191 78.5t56 273.5v926h211v-924q0 -148 -16.5 -227t-54.5 -137q-66 -100 -160.5 -148.5t-222.5 -48.5q-140 0 -236 47t-166 148q-39 58 -56 130t-17 236zM310 1650v209h184v-209h-184zM666 1650v209h184v-209h-184z " />
<glyph unicode="&#xdd;" horiz-adv-x="1010" d="M-49 1456h235l320 -700l319 700h234l-451 -932v-524h-211v537zM363 1591l204 348h201l-285 -348h-120z" />
<glyph unicode="&#xde;" horiz-adv-x="1053" d="M127 0v1456h209v-270h129q149 0 221 -14t127 -46q91 -52 145 -151.5t54 -214.5q0 -202 -137.5 -323.5t-370.5 -121.5h-168v-315h-209zM336 510h153q163 0 236.5 57t73.5 181t-74.5 183.5t-228.5 59.5h-160v-481z" />
<glyph unicode="&#xdf;" horiz-adv-x="1200" d="M115 0v969q0 258 101 383t310 125q189 0 305.5 -111.5t116.5 -290.5q0 -92 -34 -160t-97 -100q156 -42 238 -144t82 -253q0 -191 -123 -319t-305 -128q-140 0 -241 66t-161 196v-233h-192zM307 381h158q21 -102 82.5 -160.5t146.5 -58.5q98 0 171 73.5t73 172.5 q0 128 -86 192t-260 64q-14 0 -31.5 -1l-52.5 -3v171h4q110 0 173 62t63 170q0 98 -62 162.5t-154 64.5q-119 0 -172 -73t-53 -240v-596z" />
<glyph unicode="&#xe0;" horiz-adv-x="1319" d="M61 555q0 116 41 220t117 183q83 87 181.5 128.5t224.5 41.5q113 0 208 -40t173 -121v133h200v-1100h-200v135q-76 -79 -169.5 -119.5t-199.5 -40.5q-248 0 -412 165.5t-164 414.5zM266 557q0 -167 110.5 -280t270.5 -113q146 0 257.5 113.5t111.5 265.5 q0 162 -110.5 277.5t-262.5 115.5q-156 0 -266.5 -110t-110.5 -269zM447 1589h201l204 -348h-120z" />
<glyph unicode="&#xe1;" horiz-adv-x="1319" d="M61 555q0 116 41 220t117 183q83 87 181.5 128.5t224.5 41.5q113 0 208 -40t173 -121v133h200v-1100h-200v135q-76 -79 -169.5 -119.5t-199.5 -40.5q-248 0 -412 165.5t-164 414.5zM266 557q0 -167 110.5 -280t270.5 -113q146 0 257.5 113.5t111.5 265.5 q0 162 -110.5 277.5t-262.5 115.5q-156 0 -266.5 -110t-110.5 -269zM566 1241l204 348h201l-285 -348h-120z" />
<glyph unicode="&#xe2;" horiz-adv-x="1319" d="M61 555q0 116 41 220t117 183q83 87 181.5 128.5t224.5 41.5q113 0 208 -40t173 -121v133h200v-1100h-200v135q-76 -79 -169.5 -119.5t-199.5 -40.5q-248 0 -412 165.5t-164 414.5zM266 557q0 -167 110.5 -280t270.5 -113q146 0 257.5 113.5t111.5 265.5 q0 162 -110.5 277.5t-262.5 115.5q-156 0 -266.5 -110t-110.5 -269zM414 1241l197 348h196l197 -348h-123l-172 229l-174 -229h-121z" />
<glyph unicode="&#xe3;" horiz-adv-x="1319" d="M61 555q0 116 41 220t117 183q83 87 181.5 128.5t224.5 41.5q113 0 208 -40t173 -121v133h200v-1100h-200v135q-76 -79 -169.5 -119.5t-199.5 -40.5q-248 0 -412 165.5t-164 414.5zM266 557q0 -167 110.5 -280t270.5 -113q146 0 257.5 113.5t111.5 265.5 q0 162 -110.5 277.5t-262.5 115.5q-156 0 -266.5 -110t-110.5 -269zM416 1286q18 100 68 153.5t125 53.5q17 0 32 -2t27 -6l99 -29q15 -4 28 -6t25 -2q33 0 56.5 17t37.5 53h88q-20 -101 -70.5 -154t-126.5 -53q-14 0 -30.5 2.5t-34.5 7.5l-97 27q-13 4 -25.5 6t-23.5 2 q-31 0 -53.5 -17.5t-36.5 -52.5h-88z" />
<glyph unicode="&#xe4;" horiz-adv-x="1319" d="M61 555q0 116 41 220t117 183q83 87 181.5 128.5t224.5 41.5q113 0 208 -40t173 -121v133h200v-1100h-200v135q-76 -79 -169.5 -119.5t-199.5 -40.5q-248 0 -412 165.5t-164 414.5zM266 557q0 -167 110.5 -280t270.5 -113q146 0 257.5 113.5t111.5 265.5 q0 162 -110.5 277.5t-262.5 115.5q-156 0 -266.5 -110t-110.5 -269zM439 1300v209h184v-209h-184zM795 1300v209h184v-209h-184z" />
<glyph unicode="&#xe5;" horiz-adv-x="1319" d="M61 555q0 116 41 220t117 183q83 87 181.5 128.5t224.5 41.5q113 0 208 -40t173 -121v133h200v-1100h-200v135q-76 -79 -169.5 -119.5t-199.5 -40.5q-248 0 -412 165.5t-164 414.5zM266 557q0 -167 110.5 -280t270.5 -113q146 0 257.5 113.5t111.5 265.5 q0 162 -110.5 277.5t-262.5 115.5q-156 0 -266.5 -110t-110.5 -269zM479 1417q0 98 68 166t166 68q96 0 164.5 -68.5t68.5 -165.5q0 -96 -68 -163.5t-165 -67.5q-98 0 -166 67t-68 164zM596 1421q0 -49 35 -83.5t84 -34.5t84 34.5t35 83.5q0 48 -35.5 83.5t-83.5 35.5 t-83.5 -35t-35.5 -84z" />
<glyph unicode="&#xe6;" horiz-adv-x="2191" d="M61 555q0 116 41 220t117 183q84 89 183.5 132t222.5 43q110 0 205.5 -41.5t177.5 -124.5v133h176v-125q86 80 181.5 119t207.5 39q138 0 260.5 -67.5t204.5 -188.5q48 -75 71 -164.5t23 -204.5v-31h-924q25 -139 124 -225t235 -86q98 0 179.5 48t129.5 134h221 q-76 -183 -212 -280t-316 -97q-115 0 -210.5 38t-174.5 114v-123h-178v135q-78 -80 -171.5 -122t-197.5 -42q-248 0 -412 167t-164 417zM266 557q0 -167 110.5 -279t270.5 -112q147 0 258 112.5t111 264.5q0 163 -111 280t-262 117q-155 0 -266 -112t-111 -271zM1219 655 h702q-37 136 -128 210.5t-218 74.5q-130 0 -225.5 -76.5t-130.5 -208.5z" />
<glyph unicode="&#xe7;" horiz-adv-x="1241" d="M57 549q0 115 39.5 215.5t116.5 183.5q85 91 191 138t227 47q189 0 328 -104.5t202 -293.5h-217q-52 101 -134 151t-196 50q-147 0 -249.5 -111t-102.5 -274q0 -165 104 -275t259 -110q104 0 188 54.5t131 154.5h217q-69 -199 -205 -301.5t-331 -102.5q-123 0 -223 42.5 t-181 127.5q-77 81 -120.5 188.5t-43.5 219.5zM365 -326q79 -18 143 -28.5t103 -10.5q60 0 90.5 20.5t30.5 61.5q0 44 -32.5 65t-101.5 21q-20 0 -31 -0.5t-22 -0.5v198h76v-102h29q109 0 166 -46t57 -135q0 -91 -64 -139.5t-186 -48.5q-50 0 -115.5 11.5t-142.5 33.5v100z " />
<glyph unicode="&#xe8;" horiz-adv-x="1245" d="M55 551q0 116 39.5 217t116.5 184q82 90 185 135.5t225 45.5q145 0 269.5 -67.5t205.5 -188.5q48 -75 71 -164.5t23 -204.5v-31h-926q25 -138 124.5 -223.5t236.5 -85.5q98 0 178.5 47t128.5 133h223q-76 -183 -212.5 -280t-317.5 -97q-122 0 -223 43t-183 129 q-77 81 -120.5 188.5t-43.5 219.5zM270 655h703q-37 136 -128 210.5t-218 74.5q-130 0 -225.5 -76.5t-131.5 -208.5zM371 1589h201l204 -348h-120z" />
<glyph unicode="&#xe9;" horiz-adv-x="1245" d="M55 551q0 116 39.5 217t116.5 184q82 90 185 135.5t225 45.5q145 0 269.5 -67.5t205.5 -188.5q48 -75 71 -164.5t23 -204.5v-31h-926q25 -138 124.5 -223.5t236.5 -85.5q98 0 178.5 47t128.5 133h223q-76 -183 -212.5 -280t-317.5 -97q-122 0 -223 43t-183 129 q-77 81 -120.5 188.5t-43.5 219.5zM270 655h703q-37 136 -128 210.5t-218 74.5q-130 0 -225.5 -76.5t-131.5 -208.5zM490 1241l204 348h201l-285 -348h-120z" />
<glyph unicode="&#xea;" horiz-adv-x="1245" d="M55 551q0 116 39.5 217t116.5 184q82 90 185 135.5t225 45.5q145 0 269.5 -67.5t205.5 -188.5q48 -75 71 -164.5t23 -204.5v-31h-926q25 -138 124.5 -223.5t236.5 -85.5q98 0 178.5 47t128.5 133h223q-76 -183 -212.5 -280t-317.5 -97q-122 0 -223 43t-183 129 q-77 81 -120.5 188.5t-43.5 219.5zM270 655h703q-37 136 -128 210.5t-218 74.5q-130 0 -225.5 -76.5t-131.5 -208.5zM338 1241l197 348h196l197 -348h-123l-172 229l-174 -229h-121z" />
<glyph unicode="&#xeb;" horiz-adv-x="1245" d="M55 551q0 116 39.5 217t116.5 184q82 90 185 135.5t225 45.5q145 0 269.5 -67.5t205.5 -188.5q48 -75 71 -164.5t23 -204.5v-31h-926q25 -138 124.5 -223.5t236.5 -85.5q98 0 178.5 47t128.5 133h223q-76 -183 -212.5 -280t-317.5 -97q-122 0 -223 43t-183 129 q-77 81 -120.5 188.5t-43.5 219.5zM270 655h703q-37 136 -128 210.5t-218 74.5q-130 0 -225.5 -76.5t-131.5 -208.5zM363 1300v209h184v-209h-184zM719 1300v209h184v-209h-184z" />
<glyph unicode="&#xec;" horiz-adv-x="432" d="M-45 1589h201l204 -348h-120zM117 0v1100h196v-1100h-196z" />
<glyph unicode="&#xed;" horiz-adv-x="432" d="M74 1241l204 348h201l-285 -348h-120zM117 0v1100h196v-1100h-196z" />
<glyph unicode="&#xee;" horiz-adv-x="432" d="M-78 1241l197 348h196l197 -348h-123l-172 229l-174 -229h-121zM117 0v1100h196v-1100h-196z" />
<glyph unicode="&#xef;" horiz-adv-x="432" d="M-53 1300v209h184v-209h-184zM117 0v1100h196v-1100h-196zM303 1300v209h184v-209h-184z" />
<glyph unicode="&#xf0;" horiz-adv-x="1241" d="M111 498q0 100 36 192t103 164q74 79 168.5 121.5t195.5 42.5q75 0 138.5 -21.5t119.5 -66.5q-40 80 -85.5 141t-96.5 107l-291 -107l-45 115l221 84q-17 12 -42.5 26t-88.5 45l60 127q75 -32 136 -66t108 -69l292 109l54 -117l-226 -86q134 -143 200.5 -309t66.5 -357 q0 -272 -142 -437t-370 -165q-217 0 -364.5 152.5t-147.5 374.5zM295 494q0 -148 93 -247.5t230 -99.5q143 0 235.5 100t92.5 257q0 145 -94.5 241.5t-237.5 96.5q-133 0 -226 -100.5t-93 -247.5z" />
<glyph unicode="&#xf1;" horiz-adv-x="1176" d="M117 0v1100h190v-125q62 74 136.5 108.5t170.5 34.5q216 0 331.5 -127t115.5 -364v-627h-199v584q0 175 -65 259.5t-201 84.5q-148 0 -214.5 -99.5t-66.5 -328.5v-500h-198zM307 1286q18 100 68 153.5t125 53.5q17 0 32 -2t27 -6l99 -29q15 -4 28 -6t25 -2q33 0 56.5 17 t37.5 53h88q-20 -101 -70.5 -154t-126.5 -53q-14 0 -30.5 2.5t-34.5 7.5l-97 27q-13 4 -25.5 6t-23.5 2q-31 0 -53.5 -17.5t-36.5 -52.5h-88z" />
<glyph unicode="&#xf2;" horiz-adv-x="1241" d="M53 549q0 117 39.5 218.5t116.5 182.5q83 89 187 137t216 48q120 0 222.5 -43t185.5 -127q81 -83 124.5 -187t43.5 -215q0 -113 -40.5 -220t-113.5 -187q-84 -92 -188.5 -139.5t-222.5 -47.5q-121 0 -223 43.5t-183 128.5q-77 81 -120.5 188.5t-43.5 219.5zM258 551 q0 -165 104.5 -275t260.5 -110q153 0 256.5 110.5t103.5 276.5q0 167 -103.5 276t-258.5 109q-154 0 -258.5 -110.5t-104.5 -276.5zM363 1589h201l204 -348h-120z" />
<glyph unicode="&#xf3;" horiz-adv-x="1241" d="M53 549q0 117 39.5 218.5t116.5 182.5q83 89 187 137t216 48q120 0 222.5 -43t185.5 -127q81 -83 124.5 -187t43.5 -215q0 -113 -40.5 -220t-113.5 -187q-84 -92 -188.5 -139.5t-222.5 -47.5q-121 0 -223 43.5t-183 128.5q-77 81 -120.5 188.5t-43.5 219.5zM258 551 q0 -165 104.5 -275t260.5 -110q153 0 256.5 110.5t103.5 276.5q0 167 -103.5 276t-258.5 109q-154 0 -258.5 -110.5t-104.5 -276.5zM482 1241l204 348h201l-285 -348h-120z" />
<glyph unicode="&#xf4;" horiz-adv-x="1241" d="M53 549q0 117 39.5 218.5t116.5 182.5q83 89 187 137t216 48q120 0 222.5 -43t185.5 -127q81 -83 124.5 -187t43.5 -215q0 -113 -40.5 -220t-113.5 -187q-84 -92 -188.5 -139.5t-222.5 -47.5q-121 0 -223 43.5t-183 128.5q-77 81 -120.5 188.5t-43.5 219.5zM258 551 q0 -165 104.5 -275t260.5 -110q153 0 256.5 110.5t103.5 276.5q0 167 -103.5 276t-258.5 109q-154 0 -258.5 -110.5t-104.5 -276.5zM330 1241l197 348h196l197 -348h-123l-172 229l-174 -229h-121z" />
<glyph unicode="&#xf5;" horiz-adv-x="1241" d="M53 549q0 117 39.5 218.5t116.5 182.5q83 89 187 137t216 48q120 0 222.5 -43t185.5 -127q81 -83 124.5 -187t43.5 -215q0 -113 -40.5 -220t-113.5 -187q-84 -92 -188.5 -139.5t-222.5 -47.5q-121 0 -223 43.5t-183 128.5q-77 81 -120.5 188.5t-43.5 219.5zM258 551 q0 -165 104.5 -275t260.5 -110q153 0 256.5 110.5t103.5 276.5q0 167 -103.5 276t-258.5 109q-154 0 -258.5 -110.5t-104.5 -276.5zM332 1286q18 100 68 153.5t125 53.5q17 0 32 -2t27 -6l99 -29q15 -4 28 -6t25 -2q33 0 56.5 17t37.5 53h88q-20 -101 -70.5 -154t-126.5 -53 q-14 0 -30.5 2.5t-34.5 7.5l-97 27q-13 4 -25.5 6t-23.5 2q-31 0 -53.5 -17.5t-36.5 -52.5h-88z" />
<glyph unicode="&#xf6;" horiz-adv-x="1241" d="M53 549q0 117 39.5 218.5t116.5 182.5q83 89 187 137t216 48q120 0 222.5 -43t185.5 -127q81 -83 124.5 -187t43.5 -215q0 -113 -40.5 -220t-113.5 -187q-84 -92 -188.5 -139.5t-222.5 -47.5q-121 0 -223 43.5t-183 128.5q-77 81 -120.5 188.5t-43.5 219.5zM258 551 q0 -165 104.5 -275t260.5 -110q153 0 256.5 110.5t103.5 276.5q0 167 -103.5 276t-258.5 109q-154 0 -258.5 -110.5t-104.5 -276.5zM355 1300v209h184v-209h-184zM711 1300v209h184v-209h-184z" />
<glyph unicode="&#xf7;" horiz-adv-x="1706" d="M254 541v139h1198v-139h-1198zM729 242q0 51 37 88t88 37t88 -37t37 -88q0 -52 -36.5 -88.5t-88.5 -36.5q-53 0 -89 36t-36 89zM729 979q0 52 37 89.5t88 37.5t88 -37.5t37 -89.5q0 -51 -36.5 -88t-88.5 -37t-88.5 36.5t-36.5 88.5z" />
<glyph unicode="&#xf8;" horiz-adv-x="1241" d="M33 -31l162 197q-71 87 -105.5 181.5t-34.5 199.5q0 117 39.5 218.5t116.5 182.5q84 90 188 136t222 46q82 0 158.5 -22.5t144.5 -67.5l161 197l125 -94l-166 -207q73 -85 109.5 -178.5t36.5 -196.5q0 -113 -40.5 -220t-113.5 -187q-83 -93 -188.5 -140t-231.5 -47 q-79 0 -154 22.5t-147 67.5l-161 -194zM260 547q0 -59 16 -114.5t50 -110.5l471 567q-46 24 -89.5 35.5t-84.5 11.5q-153 0 -258 -111.5t-105 -277.5zM444 209q42 -24 84 -35.5t86 -11.5q165 0 268 110t103 287q0 58 -17.5 113.5t-52.5 109.5z" />
<glyph unicode="&#xf9;" horiz-adv-x="1157" d="M111 467v633h198v-576q0 -178 63 -267t189 -89q78 0 139 36.5t97 104.5q22 42 31.5 100t9.5 187v504h196v-1100h-190v123q-59 -75 -132.5 -111.5t-164.5 -36.5q-208 0 -322 129t-114 363zM311 1589h201l204 -348h-120z" />
<glyph unicode="&#xfa;" horiz-adv-x="1157" d="M111 467v633h198v-576q0 -178 63 -267t189 -89q78 0 139 36.5t97 104.5q22 42 31.5 100t9.5 187v504h196v-1100h-190v123q-59 -75 -132.5 -111.5t-164.5 -36.5q-208 0 -322 129t-114 363zM430 1241l204 348h201l-285 -348h-120z" />
<glyph unicode="&#xfb;" horiz-adv-x="1157" d="M111 467v633h198v-576q0 -178 63 -267t189 -89q78 0 139 36.5t97 104.5q22 42 31.5 100t9.5 187v504h196v-1100h-190v123q-59 -75 -132.5 -111.5t-164.5 -36.5q-208 0 -322 129t-114 363zM278 1241l197 348h196l197 -348h-123l-172 229l-174 -229h-121z" />
<glyph unicode="&#xfc;" horiz-adv-x="1157" d="M111 467v633h198v-576q0 -178 63 -267t189 -89q78 0 139 36.5t97 104.5q22 42 31.5 100t9.5 187v504h196v-1100h-190v123q-59 -75 -132.5 -111.5t-164.5 -36.5q-208 0 -322 129t-114 363zM303 1300v209h184v-209h-184zM659 1300v209h184v-209h-184z" />
<glyph unicode="&#xfd;" horiz-adv-x="1049" d="M6 1100h213l297 -819l322 819h213l-592 -1456h-209l153 387zM381 1241l204 348h201l-285 -348h-120z" />
<glyph unicode="&#xfe;" horiz-adv-x="1319" d="M111 -356v1812h198l2 -491q74 78 168 118.5t201 40.5q117 0 218.5 -38.5t180.5 -112.5q83 -78 130.5 -189t47.5 -225q0 -254 -160 -421t-405 -167q-112 0 -207.5 40.5t-175.5 121.5v-489h-198zM303 557q0 -163 109.5 -278t261.5 -115q156 0 266.5 110t110.5 269 q0 167 -110 280t-269 113q-146 0 -257.5 -113.5t-111.5 -265.5z" />
<glyph unicode="&#xff;" horiz-adv-x="1049" d="M6 1100h213l297 -819l322 819h213l-592 -1456h-209l153 387zM254 1300v209h184v-209h-184zM610 1300v209h184v-209h-184z" />
<glyph unicode="&#x152;" horiz-adv-x="2179" d="M61 737q0 153 56 288.5t166 248.5q103 104 228.5 157.5t268.5 53.5q158 0 281.5 -52.5t230.5 -164.5v188h756v-194h-545v-435h545v-190h-545v-436h545v-201h-756v188q-103 -110 -229 -163.5t-285 -53.5q-158 0 -292.5 63t-241.5 187q-90 104 -136.5 234.5t-46.5 281.5z M274 735q0 -113 37.5 -214.5t106.5 -176.5q73 -78 168 -121t192 -43q219 0 366.5 160.5t147.5 398.5q0 100 -34.5 192.5t-102.5 172.5q-80 86 -173 128t-204 42q-99 0 -188 -39t-160 -113q-74 -78 -115 -179.5t-41 -207.5z" />
<glyph unicode="&#x153;" horiz-adv-x="2163" d="M55 547q0 116 39.5 218t116.5 185q83 89 186.5 136t216.5 47q145 0 264.5 -63t202.5 -181q91 122 203.5 183t247.5 61q255 0 414 -173.5t159 -453.5v-29h-923q24 -141 122.5 -227t235.5 -86q99 0 180.5 47.5t128.5 132.5h222q-80 -186 -212.5 -279.5t-316.5 -93.5 q-151 0 -264 59t-197 181q-87 -119 -201.5 -179.5t-254.5 -60.5q-124 0 -224.5 42.5t-181.5 127.5q-78 81 -121 187.5t-43 218.5zM260 549q0 -165 104.5 -275t260.5 -110q153 0 256.5 110.5t103.5 276.5q0 167 -103.5 278t-258.5 111q-153 0 -258 -112.5t-105 -278.5z M1188 655h702q-37 135 -128 210t-218 75q-128 0 -224.5 -77t-131.5 -208z" />
<glyph unicode="&#x178;" horiz-adv-x="1010" d="M-49 1456h235l320 -700l319 700h234l-451 -932v-524h-211v537zM236 1650v209h184v-209h-184zM592 1650v209h184v-209h-184z" />
<glyph unicode="&#x2c6;" d="M217 1241l197 348h196l197 -348h-123l-172 229l-174 -229h-121z" />
<glyph unicode="&#x2dc;" d="M219 1286q18 100 68 153.5t125 53.5q17 0 32 -2t27 -6l99 -29q15 -4 28 -6t25 -2q33 0 56.5 17t37.5 53h88q-20 -101 -70.5 -154t-126.5 -53q-14 0 -30.5 2.5t-34.5 7.5l-97 27q-13 4 -25.5 6t-23.5 2q-31 0 -53.5 -17.5t-36.5 -52.5h-88z" />
<glyph unicode="&#x2000;" horiz-adv-x="986" />
<glyph unicode="&#x2001;" horiz-adv-x="1972" />
<glyph unicode="&#x2002;" horiz-adv-x="986" />
<glyph unicode="&#x2003;" horiz-adv-x="1972" />
<glyph unicode="&#x2004;" horiz-adv-x="657" />
<glyph unicode="&#x2005;" horiz-adv-x="493" />
<glyph unicode="&#x2006;" horiz-adv-x="328" />
<glyph unicode="&#x2007;" horiz-adv-x="328" />
<glyph unicode="&#x2008;" horiz-adv-x="246" />
<glyph unicode="&#x2009;" horiz-adv-x="394" />
<glyph unicode="&#x200a;" horiz-adv-x="109" />
<glyph unicode="&#x2010;" horiz-adv-x="678" d="M90 457v184h498v-184h-498z" />
<glyph unicode="&#x2011;" horiz-adv-x="678" d="M90 457v184h498v-184h-498z" />
<glyph unicode="&#x2012;" horiz-adv-x="678" d="M90 457v184h498v-184h-498z" />
<glyph unicode="&#x2013;" d="M0 477v144h1024v-144h-1024z" />
<glyph unicode="&#x2014;" horiz-adv-x="2048" d="M0 477v144h2048v-144h-2048z" />
<glyph unicode="&#x2018;" horiz-adv-x="473" d="M135 991v217q0 125 47 188.5t156 88.5v-133q-38 -11 -54 -34t-16 -67v-18h70v-242h-203z" />
<glyph unicode="&#x2019;" horiz-adv-x="473" d="M135 963v131q38 10 54 33t16 67v18h-70v244h203v-217q0 -125 -47 -188t-156 -88z" />
<glyph unicode="&#x201a;" horiz-adv-x="473" d="M135 2v244h203v-217q0 -125 -47 -188.5t-156 -88.5v131q38 11 54 34t16 67v18h-70z" />
<glyph unicode="&#x201c;" horiz-adv-x="807" d="M135 991v217q0 125 47 188.5t156 88.5v-133q-38 -11 -54 -34t-16 -67v-18h70v-242h-203zM467 991v217q0 125 47 188.5t156 88.5v-133q-38 -11 -54 -34t-16 -67v-18h70v-242h-203z" />
<glyph unicode="&#x201d;" horiz-adv-x="807" d="M135 963v131q38 10 54 33t16 67v18h-70v244h203v-217q0 -125 -47 -188t-156 -88zM467 963v131q38 10 54 33t16 67v18h-70v244h203v-217q0 -125 -47 -188t-156 -88z" />
<glyph unicode="&#x201e;" horiz-adv-x="807" d="M135 2v244h203v-217q0 -125 -47 -188.5t-156 -88.5v131q38 11 54 34t16 67v18h-70zM467 2v244h203v-217q0 -125 -47 -188.5t-156 -88.5v131q38 11 54 34t16 67v18h-70z" />
<glyph unicode="&#x2022;" horiz-adv-x="1208" d="M307 762q0 123 87 209t210 86q122 0 208.5 -86.5t86.5 -208.5t-87.5 -209.5t-209.5 -87.5q-123 0 -209 87t-86 210z" />
<glyph unicode="&#x2026;" horiz-adv-x="2048" d="M242 0v246h200v-246h-200zM924 0v246h200v-246h-200zM1608 0v246h200v-246h-200z" />
<glyph unicode="&#x202f;" horiz-adv-x="394" />
<glyph unicode="&#x2039;" horiz-adv-x="678" d="M127 551l248 311h149l-241 -313l241 -311h-149z" />
<glyph unicode="&#x203a;" horiz-adv-x="678" d="M154 238l241 311l-241 313h149l248 -311l-248 -313h-149z" />
<glyph unicode="&#x205f;" horiz-adv-x="493" />
<glyph unicode="&#x2122;" horiz-adv-x="1706" d="M242 1378v80h452v-80h-172v-458h-108v458h-172zM813 920v538h150l151 -385l141 385h150v-538h-98v444l-166 -444h-56l-174 444v-444h-98z" />
<glyph unicode="&#x25fc;" horiz-adv-x="1100" d="M0 0v1100h1100v-1100h-1100z" />
</font>
</defs>
</svg>
