<?xml version="1.0" standalone="no"?>
<!DOCTYPE svg PUBLIC "-//W3C//DTD SVG 1.1//EN" "http://www.w3.org/Graphics/SVG/1.1/DTD/svg11.dtd" >
<svg>
<metadata>
Created by FontForge 20120731 at Wed Nov 26 05:08:51 2014
 By Orthosie Webhosting
   
</metadata>
<defs>
<font id="FuturaNormalRegular" horiz-adv-x="0" >
  <font-face 
    font-family="FuturaNormalRegular"
    font-weight="400"
    font-stretch="normal"
    units-per-em="1000"
    panose-1="0 0 0 0 0 0 0 0 0 0"
    ascent="800"
    descent="-200"
    x-height="400"
    cap-height="619"
    bbox="5 -203 875 770"
    underline-thickness="50"
    underline-position="-55"
    unicode-range="U+0020-2219"
  />
<missing-glyph 
 />
    <glyph glyph-name=".notdef" 
 />
    <glyph glyph-name="glyph1" 
 />
    <glyph glyph-name="glyph2" horiz-adv-x="342" 
 />
    <glyph glyph-name="glyph3" unicode=" " horiz-adv-x="342" 
 />
    <glyph glyph-name="glyph4" unicode="!" horiz-adv-x="253" 
d="M183 50v-1.5v-1.5q-1 -19 -14.5 -35t-40.5 -16q-26 0 -40 16t-15 35v1.5v1.5v1.5v1.5q1 20 15 37t40 17t39.5 -17t15.5 -37v-1.5v-1.5v0zM79 143v489h98v-489h-98v0z" />
    <glyph glyph-name="glyph5" unicode="&#x22;" horiz-adv-x="345" 
d="M75 606h68v-235h-68v235v0zM204 371v235h70v-235h-70v0z" />
    <glyph glyph-name="glyph6" unicode="#" horiz-adv-x="718" 
d="M339 618h79l-65 -185h106l66 185h81l-65 -185h122l-24 -73h-124l-39 -106h132l-26 -72h-130l-66 -184h-80l65 184h-107l-65 -184h-81l65 184h-126l26 72h126l37 106h-133l26 73h133l67 185v0zM436 360h-109l-39 -107h109l39 107v0z" />
    <glyph glyph-name="glyph7" unicode="$" horiz-adv-x="515" 
d="M237 -70v70q-70 8 -115.5 35.5t-66.5 99.5l80 35q13 -39 38 -57t64 -24v193q-5 2 -9.5 4t-8.5 5q-54 25 -99 60t-47 101q0 1 -0.5 1.5t-0.5 1.5l-0.5 0.5t-0.5 1.5q0 72 49.5 114.5t116.5 50.5v49h43v-49q53 -6 93.5 -26.5t62.5 -70.5l-78 -39q-4 5 -7.5 9.5t-7.5 8.5
q-12 14 -26.5 21.5t-36.5 12.5v-168q5 -3 10 -5.5t10 -5.5t10 -5.5t10 -4.5q52 -28 93 -62.5t42 -104.5q0 -80 -49 -125t-126 -55v-72h-43v0zM280 91q31 10 50 28.5t22 52.5v5q0 32 -22.5 52.5t-49.5 34.5v-173v0zM237 536q-25 -8 -42 -23.5t-17 -44.5l-1 -4q0 -29 18.5 -47
t41.5 -33v152v0z" />
    <glyph glyph-name="glyph8" unicode="%" horiz-adv-x="747" 
d="M220 -15h-58l360 641h58l-360 -641v0zM583 308q53 -10 77.5 -52t27.5 -90q1 -5 1 -9.5v-9.5q0 -65 -33 -113t-105 -48t-105 48t-33 113q0 70 35.5 116.5t100.5 46.5h10h10q4 -1 7.5 -1t6.5 -1v0zM572 37q14 6 21.5 18.5t11.5 26.5l2 10l2 10q2 10 3 23t1 26
q0 7 -0.5 14.5t-1.5 14.5q-2 21 -8.5 39.5t-19.5 30.5q-3 3 -9 5.5t-12 4.5q-3 0 -5.5 0.5t-5.5 0.5q-2 0 -5 -0.5t-5 -0.5l-6 -2t-5 -2q-14 -5 -21.5 -17.5t-11.5 -25.5q-1 -6 -2 -11.5t-2 -10.5q-1 -6 -2 -15.5t-2 -18.5v-5.5v-5.5q0 -7 0.5 -14.5t0.5 -14.5
q4 -32 16.5 -59t39.5 -27q3 0 7 0.5t8 1.5q3 1 5.5 2t5.5 2v0zM191 300q-73 0 -105.5 48t-33.5 114q0 69 36 115.5t102 46.5h12t15 -1q2 0 3.5 -0.5t3.5 -0.5q52 -10 75.5 -51.5t26.5 -89.5q1 -5 1 -9.5v-9.5q0 -66 -32 -114t-104 -48v0zM169 353l12 -4t10 -2q23 0 37 20
t19 43q0 2 0.5 4t0.5 4q2 14 2.5 27t0.5 23q0 46 -16 73.5t-36 33.5q-3 1 -5.5 1.5t-5.5 0.5h-2h-2q-17 -2 -32 -20t-21 -51q0 -4 -1 -8.5t-1 -9.5q-1 -4 -1.5 -7.5t-0.5 -6.5q-1 -4 -1 -7.5v-7.5q0 -6 0.5 -12.5t0.5 -12.5q3 -26 13 -49.5t29 -31.5v0z" />
    <glyph glyph-name="glyph9" unicode="&#x26;" horiz-adv-x="656" 
d="M488 0l-50 60q-35 -27 -79 -46t-89 -24q-7 -1 -14.5 -1.5t-14.5 -0.5t-15 0.5t-15 1.5q-23 3 -45.5 11t-42.5 22q-30 22 -49 57t-21 74v2.5v3.5q0 4 0.5 8t0.5 9q1 4 1.5 8t1.5 8q11 53 48 87.5t78 62.5q2 1 4 2.5t4 2.5q-26 29 -47.5 61t-21.5 69q0 10 3 22t7 25
q1 2 2 5t2 5q16 36 50.5 55.5t72.5 24.5q6 0 11.5 0.5t11.5 0.5h1.5h1.5q55 -1 101.5 -33.5t46.5 -93.5v-16q-5 -47 -37 -78.5t-70 -55.5l-6 -4l-6 -4l128 -149q23 23 42.5 47.5t37.5 49.5l60 -63q-4 -5 -7.5 -10t-6.5 -10q-12 -17 -24.5 -32t-27.5 -29q-4 -4 -8 -8.5
t-9 -8.5l104 -118h-115v0zM379 125l-134 155q-5 -3 -10.5 -6.5t-10.5 -7.5q-29 -19 -53 -44.5t-24 -57.5q0 -11 5 -23t12 -26q14 -25 35 -37t44 -12q10 0 20 2t20 5q20 6 40 16.5t36 21.5q6 3 11 7t9 7v0zM297 538q-2 1 -4.5 1.5t-5.5 0.5h-5.5h-4.5q-20 0 -37 -13t-21 -36
q0 -1 -0.5 -2t-0.5 -3q0 -1 -0.5 -2.5t-0.5 -2.5q0 -20 11 -36.5t24 -30.5q5 -5 9 -9.5t8 -9.5q1 1 2 1.5t2 0.5q22 13 41.5 28.5t24.5 42.5v12q0 20 -11 37t-31 21v0z" />
    <glyph glyph-name="glyph10" unicode="'" horiz-adv-x="274" 
d="M55 402l81 230l76 -24l-103 -224l-54 18v0z" />
    <glyph glyph-name="glyph11" unicode="(" horiz-adv-x="313" 
d="M188 -186q-42 86 -67 177t-31 183q-1 15 -1.5 30.5t-0.5 30.5q0 25 1.5 49.5t4.5 49.5q9 80 32.5 159t61.5 154l70 -20q-36 -78 -58.5 -161.5t-29.5 -168.5q-2 -18 -2.5 -36.5t-0.5 -36.5q0 -100 23 -198t68 -189l-70 -23v0z" />
    <glyph glyph-name="glyph12" unicode=")" horiz-adv-x="303" 
d="M120 -186l-68 22q45 92 66 189t21 195q0 19 -1 38.5t-2 39.5q-7 84 -28 167.5t-56 161.5l68 20q44 -85 68 -177t30 -185q0 -13 0.5 -25.5t0.5 -24.5q0 -13 -0.5 -25.5t-0.5 -25.5q-6 -95 -30.5 -188.5t-67.5 -180.5v-1z" />
    <glyph glyph-name="glyph13" unicode="*" horiz-adv-x="425" 
d="M92 366l-30 52l95 49l-95 57l30 50l90 -57l-5 102h60l-5 -102l91 58l29 -51l-98 -54l98 -52l-31 -50l-89 58l5 -103h-62l5 102l-88 -59v0z" />
    <glyph glyph-name="glyph14" unicode="+" horiz-adv-x="577" 
d="M253 515h73v-222h215v-69h-215v-224h-73v224h-217v69h217v222v0z" />
    <glyph glyph-name="glyph15" unicode="," horiz-adv-x="293" 
d="M147 105l83 -30l-110 -226l-55 21l82 235v0z" />
    <glyph glyph-name="glyph16" unicode="-" horiz-adv-x="293" 
d="M36 241h225v-82h-225v82v0z" />
    <glyph glyph-name="glyph17" unicode="." horiz-adv-x="214" 
d="M47 49q0 26 15.5 39.5t36.5 13.5h5h2.5h2.5q19 -2 35 -15t16 -38q0 -24 -16.5 -36.5t-36.5 -14.5h-2.5h-2.5h-1.5h-1.5q-19 1 -35.5 13.5t-16.5 37.5v0z" />
    <glyph glyph-name="glyph18" unicode="/" horiz-adv-x="486" 
d="M360 632h73l-302 -711h-73l302 711v0z" />
    <glyph glyph-name="glyph19" unicode="0" horiz-adv-x="546" 
d="M173 606q15 8 33 12.5t36 6.5q5 0 10.5 0.5t10.5 0.5q7 0 14 -0.5t15 -1.5q23 -3 45.5 -11t40.5 -20q49 -34 74.5 -97.5t32.5 -133.5q2 -15 2.5 -29.5t0.5 -29.5q0 -33 -3.5 -64.5t-9.5 -58.5q-21 -86 -73.5 -140t-134.5 -54q-8 0 -16.5 0.5t-17.5 1.5q-4 1 -8.5 1.5
t-8.5 1.5q-83 15 -121.5 87t-48.5 155q-2 17 -3 34t-1 34q0 27 2 53t6 46q1 8 2.5 15.5t3.5 15.5q13 53 41 101t76 74v0zM379 212q0 4 0.5 8t1.5 9q2 17 3.5 38t1.5 43q0 12 -0.5 24.5t-1.5 24.5q-4 47 -16.5 89.5t-38.5 66.5q-9 9 -22 14.5t-27 7.5q-4 0 -8 0.5t-8 0.5h-7
t-7 -1q-7 -1 -14 -2.5t-14 -4.5q-27 -12 -41 -38t-22 -56q-2 -10 -4 -20.5t-4 -20.5q-3 -14 -4.5 -35t-2.5 -43v-8.5v-8.5q0 -12 0.5 -24.5t1.5 -24.5q4 -56 21 -105.5t55 -66.5q2 0 3.5 -1t3.5 -1q6 -2 12.5 -3.5t13.5 -2.5q2 -1 5 -1h6q4 0 8.5 0.5t9.5 1.5q3 1 6.5 1.5
t6.5 1.5t6 1.5t5 1.5q27 13 41 39t22 54q2 11 4 21l4 20v0z" />
    <glyph glyph-name="glyph20" unicode="1" horiz-adv-x="335" 
d="M164 0v527h-111l52 92h159v-619h-100v0z" />
    <glyph glyph-name="glyph21" unicode="2" horiz-adv-x="536" 
d="M470 81v-81h-413l230 277q4 5 8 9.5t7 9.5q25 32 45.5 68.5t20.5 76.5v19q-5 39 -33 57.5t-61 18.5h-6.5t-6.5 -1q-35 -4 -64 -28t-30 -65h-96q0 88 63.5 135t142.5 47q10 0 20 -0.5t21 -1.5l20 -4t20 -5q53 -19 81.5 -61t28.5 -98q0 -70 -37.5 -130t-82.5 -112
q-9 -10 -17.5 -20t-17.5 -20l-78 -91h235v0z" />
    <glyph glyph-name="glyph22" unicode="3" horiz-adv-x="536" 
d="M58 165h96q0 -49 33.5 -74.5t75.5 -25.5h6.5t6.5 1q33 3 62 22t38 51q1 3 1 6t1 6q0 6 0.5 12.5t0.5 11.5v8t-1 8q-3 22 -12.5 42.5t-26.5 33.5q-13 10 -30 14t-34 5q-7 1 -13.5 1h-13.5h-13v81h12.5h12.5q28 1 53 8.5t40 33.5q3 5 5.5 11.5t3.5 13.5q2 5 2.5 10t0.5 10
v3.5v2.5q-1 20 -10.5 38t-25.5 29q-9 7 -21 11t-25 5q-3 1 -6.5 1h-7.5h-5.5t-5.5 -1q-31 -3 -57.5 -23.5t-27.5 -58.5h-90q4 78 63.5 121.5t129.5 43.5h8t8 -1q27 -1 54 -10t51 -26q27 -19 41.5 -48t17.5 -60q1 -5 1 -9.5v-8.5q0 -48 -26.5 -89t-78.5 -52q56 -12 87 -57
t33 -97v-3v-4v-8t-1 -9q-3 -37 -22.5 -71.5t-54.5 -55.5q-19 -11 -43 -18t-48 -11q-11 -1 -21.5 -2t-20.5 -1q-25 0 -50 4t-47 13q-56 26 -78.5 65t-27.5 97v0z" />
    <glyph glyph-name="glyph23" unicode="4" horiz-adv-x="575" 
d="M345 0v126h-296l359 500h30v-430h74v-70h-74v-126h-93v0zM345 357l3 61l-157 -222h154v161v0z" />
    <glyph glyph-name="glyph24" unicode="5" horiz-adv-x="546" 
d="M113 149q23 -39 56 -60t68 -23h4h4q51 0 92.5 36.5t41.5 100.5v19q-4 63 -47 93t-94 30q-6 0 -12.5 -0.5t-12.5 -1.5q-29 -4 -57.5 -16.5t-50.5 -33.5l-24 5l76 315h294v-81h-232l-37 -137q16 6 33 10.5t35 6.5q8 2 17 2.5t17 0.5h8.5t8.5 -1q25 -2 49.5 -10t46.5 -23
q39 -28 58.5 -72t20.5 -91v-3.5v-3.5q0 -6 -0.5 -12t-0.5 -11q-2 -18 -5.5 -35.5t-9.5 -32.5q-23 -64 -81 -97.5t-123 -36.5h-7h-6q-6 0 -12 0.5t-11 0.5q-50 4 -96.5 26t-76.5 62l66 74v0z" />
    <glyph glyph-name="glyph25" unicode="6" horiz-adv-x="546" 
d="M214 376q11 5 23.5 8.5t25.5 5.5q8 1 15.5 1.5t14.5 0.5h5.5h5.5q46 -3 87.5 -25t65.5 -62q8 -15 13.5 -31t8.5 -33q2 -11 3 -21.5t1 -21.5q0 -67 -38 -125t-106 -77q-6 -2 -12.5 -3t-12.5 -2q-13 -2 -25.5 -3.5t-24.5 -1.5q-79 0 -138 49t-64 140q0 2 -0.5 4t-0.5 4
q0 1 -0.5 3t-0.5 4q0 69 33.5 131t74.5 119l20 28t19 28l107 152l78 -39l-178 -233v0zM276 314h-9q-48 0 -81.5 -36.5t-33.5 -83.5l2 -1q2 -67 38.5 -101.5t79.5 -34.5h5.5t5.5 1q38 3 70.5 35t32.5 90v7q-1 58 -30 90t-80 34v0z" />
    <glyph glyph-name="glyph26" unicode="7" horiz-adv-x="536" 
d="M100 13l253 520h-287v80h427l-311 -634l-82 34v0z" />
    <glyph glyph-name="glyph27" unicode="8" horiz-adv-x="556" 
d="M381 327q53 -19 81.5 -62.5t28.5 -99.5v-13q-6 -82 -69.5 -123.5t-138.5 -43.5h-2.5h-3.5q-76 0 -141 42t-70 125v2.5v2.5v2v1q-1 2 -1 4v3q0 59 28.5 99.5t83.5 60.5q-44 21 -67.5 51.5t-23.5 80.5l0.5 1t0.5 2t0.5 2l0.5 1q1 79 58.5 118.5t126.5 40.5h1.5h1.5h7.5h6.5
q66 -4 121 -44t59 -116v-10q0 -46 -24 -77t-65 -50v0zM274 65q1 0 1.5 -0.5t1.5 -0.5l0.5 -0.5t1.5 -0.5q58 0 88.5 33t31.5 73v1.5v1.5q0 4 -0.5 8t-0.5 8q-5 32 -26.5 59.5t-58.5 36.5q-5 1 -10.5 2t-10.5 1q-5 1 -10.5 1h-10.5q-39 0 -72 -22t-43 -68q0 -2 -0.5 -4
t-0.5 -4q-2 -5 -2.5 -10.5t-0.5 -10.5q0 -46 33.5 -74.5t88.5 -29.5v0zM389 462q0 47 -30 67.5t-77 21.5h-6q-49 0 -75.5 -26t-30.5 -57v-4v-4v-4v-4q4 -30 31 -55.5t76 -25.5l3 2q48 0 78.5 23t30.5 66v0z" />
    <glyph glyph-name="glyph28" unicode="9" horiz-adv-x="536" 
d="M329 237q-11 -5 -22.5 -9.5t-23.5 -7.5q-10 -2 -19.5 -3t-18.5 -1h-3h-4h-0.5t-0.5 1h-4.5h-3.5q-82 9 -126.5 67.5t-44.5 133.5q0 5 0.5 10t1.5 10v4t1 3q0 6 1 11t1 9q11 55 48.5 95t91.5 56q9 2 18.5 4t18.5 4q9 1 18.5 2t18.5 1q79 0 139.5 -49.5t64.5 -141.5v-16
q0 -71 -34.5 -133.5t-75.5 -120.5q-9 -12 -18 -24.5t-18 -24.5l-108 -153l-76 39l178 234v0zM267 295q64 0 93 36t29 82v5q-1 66 -36.5 100t-77.5 35h-1.5h-1.5h-4h-5q-39 -4 -72 -36.5t-35 -95.5l-0.5 -1t-0.5 -3v0v0q-1 -1 -1 -2v-2q0 -49 32 -83.5t81 -34.5v0z" />
    <glyph glyph-name="glyph29" unicode=":" horiz-adv-x="233" 
d="M173 45q0 -24 -16 -36t-35 -14h-2.5h-2.5q-22 0 -39.5 12t-17.5 38t16.5 39.5t35.5 14.5h1.5h1.5h2.5h2.5q20 -2 36.5 -15.5t16.5 -38.5v0zM62 344q0 26 17 39.5t38 13.5h4.5t4.5 -1q19 -2 34 -15.5t15 -36.5q0 -26 -17 -39.5t-37 -14.5h-1.5h-1.5l-5 -2
q-20 0 -35.5 14.5t-15.5 41.5v0z" />
    <glyph glyph-name="glyph30" unicode=";" horiz-adv-x="274" 
d="M99 105l83 -30l-111 -226l-55 21l83 235v0zM203 337q0 -25 -15.5 -38.5t-34.5 -16.5h-3h-4q-21 0 -38 14t-17 41t17 40.5t38 13.5h4h3q19 -3 34.5 -16t15.5 -38v0z" />
    <glyph glyph-name="glyph31" unicode="&#x3c;" horiz-adv-x="587" 
d="M543 498v-78l-394 -162l394 -159v-78l-498 204v68l498 205v0z" />
    <glyph glyph-name="glyph32" unicode="=" horiz-adv-x="544" 
d="M5 136v70h506v-70h-506v0zM5 381h506v-71h-506v71v0z" />
    <glyph glyph-name="glyph33" unicode="&#x3e;" horiz-adv-x="577" 
d="M45 498l498 -205v-68l-498 -204v78l394 159l-394 162v78v0z" />
    <glyph glyph-name="glyph34" unicode="?" horiz-adv-x="425" 
d="M216 -18q-26 1 -40.5 17t-15.5 35v1.5v1.5v1.5v1.5q1 20 15.5 37t40.5 17q25 0 38.5 -17t14.5 -37v-1.5v-1.5v-1.5v-1.5q-1 -19 -14.5 -35t-38.5 -16v-1zM279 483v8q0 26 -20.5 44t-44.5 21h-4h-4q-3 0 -6.5 -0.5t-6.5 -1.5q-7 -1 -13.5 -3.5t-12.5 -5.5
q-19 -13 -25.5 -32t-6.5 -41h-73q0 1 -0.5 2t-0.5 3q0 1 -0.5 2t-0.5 2q0 68 39.5 109.5t106.5 41.5h24q52 -4 89 -47t41 -93v-4.5v-4.5v-5.5v-5.5q-2 -18 -9.5 -36t-19.5 -32q-18 -21 -40.5 -33.5t-45.5 -23.5q-1 -1 -2 -1t-2 -1q-20 -9 -40 -20t-37 -27q-5 -4 -9 -9.5
t-6 -10.5q-3 -4 -4 -8.5t-1 -8.5q0 -21 19.5 -37.5t42.5 -16.5q2 0 4.5 0.5t5.5 0.5q2 1 4.5 1.5t4.5 1.5q21 6 28.5 22.5t9.5 34.5v2v2h74q0 -29 -6.5 -57t-29.5 -48q-13 -13 -32 -21t-39 -11q-6 -1 -13 -1.5t-13 -0.5q-4 0 -8 0.5t-7 0.5q-2 0 -3 0.5t-3 0.5t-4.5 0.5
t-5.5 0.5q-53 10 -80.5 44.5t-27.5 75.5q0 8 1 16t3 17q8 28 27.5 54.5t50.5 43.5q1 0 2 0.5t2 1.5q10 5 23.5 10.5t27.5 11.5q26 12 49 29t28 43v0z" />
    <glyph glyph-name="glyph35" unicode="@" horiz-adv-x="878" 
d="M687 75q-14 -9 -32 -16t-36 -11l-16 -2t-16 -1q-33 0 -59.5 17.5t-28.5 57.5q-22 -33 -53 -52t-72 -19q-67 0 -101.5 38.5t-34.5 103.5q0 6 0.5 11.5t0.5 11.5q6 71 49.5 132.5t116.5 76.5q9 2 18 2.5t16 0.5q32 0 59 -14.5t45 -45.5l23 46h63l-60 -248q0 -1 -0.5 -2.5
t-1.5 -2.5v-1.5v-0.5q-1 -4 -2 -7.5t-1 -6.5v-3.5t1 -3.5q1 -7 6 -14t14 -10q1 0 2.5 -0.5t2.5 -1.5h1.5h0.5q4 -1 7.5 -2t6.5 -1q5 0 9.5 0.5t8.5 2.5q16 4 31 13t27 20l6.5 6.5l6.5 6.5q28 29 43.5 68t17.5 80q1 4 1 8.5v8.5q0 9 -0.5 19t-2.5 19q-2 13 -5 26t-8 25
q-27 69 -90 105.5t-134 44.5q-7 1 -14 1.5t-14 0.5h-17q-99 0 -183.5 -43.5t-132.5 -132.5q-15 -29 -26 -62t-15 -67q-1 -9 -1.5 -18.5t-0.5 -18.5v-8.5v-8.5q3 -53 24.5 -103t61.5 -87q48 -42 109 -61t125 -19q11 0 22.5 0.5t23.5 1.5q59 6 116.5 26t103.5 50l27 -40
q-53 -38 -117.5 -62t-131.5 -31q-12 -1 -24.5 -1.5t-24.5 -0.5q-78 0 -151.5 25.5t-130.5 78.5q-48 43 -73 102.5t-29 121.5v9.5v8.5q0 9 0.5 17.5t1.5 17.5q5 58 27 113t58 98q64 77 154.5 115.5t187.5 38.5q11 0 22.5 -0.5t23.5 -1.5q14 -1 28.5 -2.5t27.5 -4.5
q106 -25 178.5 -99.5t73.5 -186.5v-4v-8v-7q-4 -71 -40.5 -135.5t-99.5 -97.5v0zM524 298q-4 32 -26 53.5t-54 21.5h-8q-43 -4 -68.5 -37t-36.5 -71q-4 -11 -6 -21l-4 -20q0 -3 -0.5 -6t-1.5 -6q0 -7 -0.5 -13t-0.5 -11q0 -43 21.5 -65.5t49.5 -22.5q8 0 16 1.5t16 4.5
q25 10 48 35t32 62l23 95v0z" />
    <glyph glyph-name="glyph36" unicode="A" horiz-adv-x="635" 
d="M507 0l-69 160h-245l-71 -160h-106l298 643l300 -643h-107v0zM316 455q-4 -18 -9.5 -36t-13.5 -35l-63 -141h172l-63 141q-6 14 -10.5 28t-8.5 29q-1 3 -2 6.5t-2 7.5v0z" />
    <glyph glyph-name="glyph37" unicode="B" horiz-adv-x="517" 
d="M75 0v619h168h22t22 -1q26 -2 50.5 -8t44.5 -22q28 -21 43 -52t17 -65v-3.5v-3.5q0 -43 -21.5 -81t-65.5 -54q54 -11 83 -55t32 -93v-5.5v-5.5v-6v-6q-3 -37 -20 -71.5t-50 -55.5q-21 -14 -46.5 -20.5t-52.5 -8.5q-14 -1 -28 -1.5t-27 -0.5h-171v0zM173 84h10h10
q1 -1 1.5 -1h1.5h9.5h8.5h13.5t13.5 1q47 2 86 20.5t39 77.5v3q0 59 -38 77t-84 20h-12.5h-12.5h-46v-198v0zM173 535v-177h9.5h9.5q4 -1 9 -1h10h14t14 1q38 2 70 17.5t33 60.5v10q0 58 -39 73t-86 16h-4h-4h-36v0z" />
    <glyph glyph-name="glyph38" unicode="C" horiz-adv-x="637" 
d="M575 468q-43 35 -90 53.5t-99 18.5q-12 0 -24.5 -1t-26.5 -3q-84 -15 -129.5 -79.5t-48.5 -137.5v-5.5v-5.5v-6v-6q4 -68 43.5 -128t113.5 -82q8 -2 16 -3.5t17 -3.5l16 -2t16 -1q54 0 103.5 23t92.5 57v-114q-30 -20 -63.5 -32.5t-67.5 -18.5q-16 -2 -32 -3.5t-31 -1.5
q-119 0 -217 77t-111 214v8v8q-1 3 -1 7v8q0 123 81 216t207 106q3 0 6 0.5t5 0.5q9 1 17.5 1h15.5q53 0 101 -16.5t95 -46.5l-5 -101v0z" />
    <glyph glyph-name="glyph39" unicode="D" horiz-adv-x="647" 
d="M79 0v619h148h38t39 -1q57 -3 112.5 -18t98.5 -57q44 -42 66.5 -101.5t23.5 -123.5v-4v-4q0 -66 -22.5 -128t-67.5 -106q-51 -49 -115 -62t-131 -14h-15.5h-15.5h-159v0zM180 91q10 0 20 -0.5t20 -0.5q9 0 19 -0.5t20 -0.5h16t15 1q16 1 32 3t30 4q71 11 108 71t41 130
v6.5v6.5v8v8q-3 51 -24.5 98t-61.5 74q-22 15 -49.5 21.5t-55.5 8.5q-8 1 -17 1h-17h-8h-9q-8 0 -16 -0.5t-16 -0.5q-13 0 -24.5 -0.5t-22.5 -0.5v-437v0z" />
    <glyph glyph-name="glyph40" unicode="E" horiz-adv-x="475" 
d="M78 0v619h345v-87h-245v-153h245v-89h-245v-199h245v-91h-345v0z" />
    <glyph glyph-name="glyph41" unicode="F" horiz-adv-x="374" 
d="M78 0v619h345v-87h-245v-153h245v-87h-245v-292h-100v0z" />
    <glyph glyph-name="glyph42" unicode="G" horiz-adv-x="718" 
d="M421 316h245v-47q0 -73 -21 -137.5t-94 -105.5q-28 -16 -60.5 -25t-65.5 -13q-11 -1 -22 -1.5t-22 -0.5h-8h-8q-78 4 -149.5 38t-110.5 99q-21 34 -34 71.5t-17 75.5q-1 10 -1.5 19.5t-0.5 18.5q0 88 44 167.5t129 120.5q22 12 46.5 19.5t48.5 11.5q14 3 28 4t28 1
q67 0 130.5 -27t109.5 -80l-73 -55q-34 35 -73.5 53t-83.5 18q-13 0 -27 -1.5t-29 -4.5q-3 0 -6.5 -1t-7.5 -2q-79 -23 -119.5 -85.5t-40.5 -136.5q0 -5 0.5 -10t0.5 -10q0 -2 0.5 -4.5t0.5 -4.5q1 -5 1.5 -9.5t0.5 -8.5q15 -88 80 -139t147 -51q8 0 15.5 1t15.5 2
q3 0 6.5 1t6.5 1q5 1 9.5 1.5t8.5 1.5q59 12 90.5 50.5t31.5 95.5v5h-150v84v0z" />
    <glyph glyph-name="glyph43" unicode="H" horiz-adv-x="637" 
d="M79 0v619h101v-228h305v228h100v-619h-100v301h-305v-301h-101v0z" />
    <glyph glyph-name="glyph44" unicode="I" horiz-adv-x="233" 
d="M79 0v619h101v-619h-101v0z" />
    <glyph glyph-name="glyph45" unicode="J" horiz-adv-x="355" 
d="M94 113q12 -14 27.5 -24.5t32.5 -10.5h4.5t4.5 1q2 0 4.5 0.5t4.5 1.5q19 5 26 21t8 34q1 5 1 9.5v8.5v465h101v-483q0 -29 -4.5 -57.5t-26.5 -52.5q-16 -17 -36 -26t-41 -12q-6 -1 -11.5 -1.5t-11.5 -0.5t-12.5 0.5t-12.5 1.5q-35 5 -67.5 21.5t-55.5 39.5l65 64v0z" />
    <glyph glyph-name="glyph46" unicode="K" horiz-adv-x="575" 
d="M73 0v619h100v-256l222 256h124l-245 -275l274 -344h-130l-245 316v-316h-100v0z" />
    <glyph glyph-name="glyph47" unicode="L" horiz-adv-x="436" 
d="M70 0v619h100v-528h225v-91h-325v0z" />
    <glyph glyph-name="glyph48" unicode="M" horiz-adv-x="788" 
d="M593 306q-2 11 -3.5 21.5t-3.5 21.5q0 6 -1 12.5t-1 12.5q-1 4 -1.5 8.5t-0.5 8.5q-5 -22 -12 -44t-17 -42l-161 -328l-162 334q-8 20 -15.5 39.5t-15.5 40.5q0 -13 -1.5 -26t-2.5 -26q-1 -8 -2.5 -16.5t-2.5 -17.5l-68 -305h-93l146 645l183 -391q5 -10 9.5 -20.5
t8.5 -20.5l4 -10t4 -11l4 -10l4 -10q3 7 6 13.5t6 13.5q1 4 2.5 7.5t3.5 6.5q4 10 8.5 20.5t9.5 20.5l177 391l150 -645h-94l-68 306v0z" />
    <glyph glyph-name="glyph49" unicode="N" horiz-adv-x="686" 
d="M83 0v643l392 -377q5 -5 9 -9.5t9 -9.5q6 -6 11.5 -12.5t11.5 -13.5q7 -7 13.5 -15t13.5 -16v429h92v-642l-400 384q-17 16 -31.5 33.5t-28.5 36.5v-431h-92v0z" />
    <glyph glyph-name="glyph50" unicode="O" horiz-adv-x="747" 
d="M684 185q-39 -95 -125.5 -147t-182.5 -52q-8 0 -15.5 0.5t-15.5 1.5q-32 3 -63 11.5t-60 23.5q-82 44 -128.5 122t-46.5 166q0 14 1.5 28t4.5 28q4 24 13 48.5t20 46.5q45 82 124.5 126t167.5 44q15 0 31 -1.5t31 -4.5q32 -6 63 -17.5t58 -29.5q69 -45 107.5 -119.5
t38.5 -154.5q0 -31 -6 -61t-17 -59v0zM378 78q95 0 160 69t65 161q0 94 -66.5 163t-160.5 69h-21q-88 -9 -146 -79.5t-58 -155.5q0 -5 0.5 -10t1.5 -10q0 -3 0.5 -5.5t0.5 -5.5q1 -3 1.5 -5.5t0.5 -4.5q16 -79 79 -132.5t143 -53.5v0z" />
    <glyph glyph-name="glyph51" unicode="P" horiz-adv-x="404" 
d="M172 279v-279h-94v619h154q12 0 25 -0.5t26 -0.5q35 -3 68 -13.5t56 -37.5q18 -21 27.5 -49t11.5 -57v-5.5v-4.5q0 -17 -2.5 -34t-7.5 -33q-23 -72 -80.5 -89.5t-122.5 -17.5q-7 0 -15 0.5t-15 0.5q-8 0 -16 0.5t-15 0.5v0zM178 532v-172q5 0 9.5 -0.5t9.5 -0.5
q6 0 11 -0.5t11 -0.5h12.5t12.5 1q36 2 66.5 18t33.5 59v8q0 53 -35.5 69.5t-78.5 18.5h-10.5h-10.5h-31v0z" />
    <glyph glyph-name="glyph52" unicode="Q" horiz-adv-x="747" 
d="M614 84l132 -141h-120l-80 88q-25 -12 -52.5 -21t-55.5 -13q-17 -3 -34 -4.5t-34 -1.5q-61 0 -120 21.5t-106 68.5q-42 41 -66 92.5t-30 105.5q0 7 -0.5 14.5t-0.5 14.5v3.5v3.5q2 76 39.5 147.5t107.5 116.5q34 21 70.5 34t74.5 17q9 1 18.5 1.5t18.5 0.5h4.5h5.5
q92 -3 175.5 -55t122.5 -144q7 -16 11.5 -33.5t7.5 -34.5q3 -14 4 -28t1 -27q0 -62 -24.5 -120.5t-69.5 -105.5v0zM368 222h121l60 -63q29 39 41.5 77.5t12.5 74.5q0 95 -70.5 162.5t-159.5 67.5h-7.5t-7.5 -1q-37 -2 -72.5 -18.5t-66.5 -48.5q-25 -25 -40.5 -55t-22.5 -60
q-2 -12 -3.5 -24t-1.5 -23q0 -90 63.5 -161.5t159.5 -71.5q25 0 51 7t53 17l-110 120v0z" />
    <glyph glyph-name="glyph53" unicode="R" horiz-adv-x="525" 
d="M173 277v-277h-94v619h140h18t19 -1q35 -1 68.5 -9t59.5 -34q22 -22 34 -50.5t14 -57.5q1 -4 1 -8.5v-9.5q0 -76 -35 -115.5t-106 -51.5l212 -282h-113l-206 277h-12v0zM180 532v-177q4 0 7.5 -0.5t7.5 -0.5q3 0 6.5 -0.5t7.5 -0.5h9.5h9.5q37 2 68.5 17t32.5 63v8
q0 63 -40 77t-90 14h-19v0z" />
    <glyph glyph-name="glyph54" unicode="S" horiz-adv-x="496" 
d="M53 125l82 37q9 -31 29.5 -53t54.5 -28q2 0 4 -0.5t4 -1.5q6 -1 12.5 -2t13.5 -1h7t7 1q20 2 38.5 11t29.5 25q5 9 9 19.5t5 21.5q1 3 1 5.5v5.5q0 5 -0.5 9.5t-1.5 9.5q-1 8 -3 15t-6 13q-10 17 -31 30t-45 23q-16 8 -32 14.5t-28 13.5q-1 0 -2 0.5t-2 1.5
q-43 23 -80.5 56t-45.5 85q0 3 -0.5 6.5t-0.5 6.5q-1 3 -1.5 6.5t-0.5 6.5q0 6 0.5 12.5t1.5 13.5q4 24 14.5 47t26.5 40q23 26 59 41t74 18h6.5h6.5h8t8 -1q50 -3 95 -28.5t64 -74.5l-77 -41q-17 26 -39.5 41.5t-53.5 15.5h-3q-35 -1 -59 -24t-27 -51v-3.5v-2.5
q0 -3 0.5 -7t1.5 -7q2 -13 10 -25t20 -21q20 -18 44.5 -30.5t49.5 -22.5l3 -1.5l3 -1.5q19 -8 37.5 -16.5t34.5 -19.5q32 -22 50.5 -54t22.5 -66q1 -6 1.5 -12t0.5 -12q0 -54 -30.5 -102t-86.5 -68q-10 -3 -21 -6t-22 -4q-12 -2 -23 -3t-21 -1q-66 0 -122 35t-75 105v0z" />
    <glyph glyph-name="glyph55" unicode="T" horiz-adv-x="444" 
d="M318 532v-532h-101v532h-164v87h428v-87h-163v0z" />
    <glyph glyph-name="glyph56" unicode="U" horiz-adv-x="627" 
d="M76 619h101v-376q0 -76 36 -121.5t118 -45.5q79 0 116.5 46t37.5 121v376h100v-386q0 -125 -64 -186t-190 -61q-125 0 -190 61.5t-65 185.5v386v0z" />
    <glyph glyph-name="glyph57" unicode="V" horiz-adv-x="577" 
d="M340 -23l-274 642h104l138 -329q10 -24 18 -49t14 -51q8 26 16 51t18 49l138 329h104l-276 -642v0z" />
    <glyph glyph-name="W" unicode="W" horiz-adv-x="828" 
d="M58 619h99l117 -313q5 -12 9.5 -24t8.5 -24q3 -13 7 -25t7 -24q4 11 7.5 22t6.5 23q1 1 1.5 3t1.5 4l8 26t9 26l125 330l130 -337q10 -24 18.5 -48.5t15.5 -50.5l8 30t8 29q3 10 6.5 19.5t6.5 19.5l117 314h100l-240 -642l-141 352q-4 11 -8 21.5t-8 21.5q-3 11 -7 21.5
t-7 21.5q-7 -22 -14 -43.5t-16 -44.5l-137 -350l-239 642v0z" />
    <glyph glyph-name="glyph59" unicode="X" horiz-adv-x="567" 
d="M39 0l201 324l-177 295h106l89 -152q3 -5 5.5 -10t5.5 -10q5 -10 10.5 -20t10.5 -20q5 10 10.5 20t11.5 20l6 10l6 10l94 152h102l-180 -293l195 -326h-110l-104 177q-4 8 -8.5 15.5t-8.5 15.5q-4 7 -8.5 14.5t-8.5 15.5q-4 -8 -8 -15.5t-8 -14.5q-4 -8 -8 -15.5
t-9 -15.5l-108 -177h-107v0z" />
    <glyph glyph-name="glyph60" unicode="Y" horiz-adv-x="535" 
d="M263 0v284l-208 335h105l130 -211q4 -5 7 -11l6 -12l2 -4t2 -5q2 -4 4.5 -8t4.5 -8q5 14 11.5 26.5t14.5 25.5l133 207h100l-212 -335v-284h-100v0z" />
    <glyph glyph-name="glyph61" unicode="Z" horiz-adv-x="587" 
d="M66 0l315 532h-261v87h416l-312 -528h316v-91h-474v0z" />
    <glyph glyph-name="glyph62" unicode="[" horiz-adv-x="303" 
d="M167 -107h79v-66h-160v805h160v-65h-79v-674v0z" />
    <glyph glyph-name="glyph63" unicode="\" horiz-adv-x="475" 
d="M348 -79l-301 711h73l301 -711h-73v0z" />
    <glyph glyph-name="glyph64" unicode="]" horiz-adv-x="293" 
d="M136 -107v674h-79v65h159v-805h-159v66h79v0z" />
    <glyph glyph-name="glyph65" unicode="^" horiz-adv-x="606" 
d="M259 618h91l209 -237h-87l-167 167l-169 -167h-87l210 237v0z" />
    <glyph glyph-name="glyph66" unicode="_" horiz-adv-x="455" 
d="M11 -130h433v-73h-433v73v0z" />
    <glyph glyph-name="glyph67" unicode="`" horiz-adv-x="274" 
d="M55 402l81 230l76 -24l-103 -224l-54 18v0z" />
    <glyph glyph-name="glyph68" unicode="a" horiz-adv-x="517" 
d="M366 400h93v-400h-93v52q-25 -33 -57.5 -49.5t-75.5 -16.5l-4 -1q-82 2 -127 59t-49 133v4.5v5.5q-1 1 -1 2v2v3.5v3.5q0 100 49.5 153.5t109.5 61.5q5 1 10.5 1.5t11.5 0.5q41 0 78 -20.5t55 -59.5v65v0zM370 203q0 46 -21.5 84.5t-71.5 44.5h-19q-46 0 -74 -30t-33 -77
q0 -3 -0.5 -7t-1.5 -9v-0.5v-1.5q-1 -4 -1.5 -7.5t-0.5 -6.5q0 -63 32.5 -95t71.5 -33h1.5h1.5h5.5t5.5 1q39 4 72 38.5t33 98.5v0z" />
    <glyph glyph-name="glyph69" unicode="b" horiz-adv-x="506" 
d="M147 655v-320q17 39 54 59.5t78 20.5q6 0 11.5 -0.5t11.5 -1.5q60 -8 110 -62t50 -155v-2q-1 -81 -44.5 -144t-132.5 -64l-6 -1q-43 1 -74.5 17.5t-57.5 49.5v-52h-92v655h92v0zM261 334h-7q-55 0 -82.5 -39.5t-27.5 -91.5v-2.5v-3.5q2 -49 30.5 -90.5t83.5 -41.5
t81.5 41t26.5 90v8t-1 8q-4 45 -30 83t-74 39v0z" />
    <glyph glyph-name="glyph70" unicode="c" horiz-adv-x="415" 
d="M365 287q-17 17 -38 27.5t-42 14.5q-8 1 -15.5 2t-15.5 1q-48 0 -85.5 -33t-37.5 -96q0 -51 26 -88.5t78 -44.5q2 0 4 -0.5t4 -0.5t3 -0.5t2 -0.5q3 -1 6 -1.5t5 -0.5q31 0 57.5 14t48.5 38v-105q-13 -6 -26 -10.5t-26 -7.5q-17 -5 -33.5 -7t-31.5 -2q-85 0 -148.5 58
t-63.5 159q0 98 66.5 154t151.5 56q11 0 23 -1t24 -3q16 -3 32.5 -8t31.5 -12v-102v0z" />
    <glyph glyph-name="glyph71" unicode="d" horiz-adv-x="506" 
d="M355 655h92v-655h-92v52q-25 -33 -57.5 -49.5t-75.5 -16.5l-5 -1q-81 2 -126 59t-49 133v4.5v5.5q-1 1 -1 2v2v3.5v3.5q0 100 49.5 153.5t109.5 61.5q5 1 10.5 1.5t11.5 0.5q41 0 78 -20.5t55 -59.5v320v0zM266 332h-20q-46 0 -74 -30t-33 -77q0 -3 -0.5 -7t-0.5 -8
q-1 -5 -1.5 -9t-0.5 -7q0 -63 33 -96.5t73 -34.5h1.5h1.5h4h4q39 4 72 39.5t33 100.5q0 46 -21 84.5t-71 44.5v0z" />
    <glyph glyph-name="glyph72" unicode="e" horiz-adv-x="494" 
d="M329 402q72 -25 97 -82.5t25 -125.5v-8h-320q4 -42 23.5 -74t65.5 -42q8 -1 15 -2.5t13 -1.5q39 0 70 23.5t52 57.5l76 -43q-35 -58 -82 -88t-114 -30l-20 -1q-90 6 -142 66.5t-52 142.5q0 7 0.5 14.5t1.5 14.5q1 2 1 4v4q1 3 1.5 6t0.5 6q13 80 72 127t133 47
q15 0 30.5 -2t31.5 -6q5 -2 10.5 -3.5t10.5 -3.5v0zM355 250q-7 44 -33.5 65.5t-73.5 21.5q-46 0 -72 -23t-38 -64h217v0z" />
    <glyph glyph-name="glyph73" unicode="f" horiz-adv-x="314" 
d="M104 0v321h-70v79h70v109q0 80 35 117t96 37q10 0 21 -1t22 -3l12 -2t11 -2v-83q-6 4 -14 6l-16 4q-3 0 -7 0.5t-8 0.5h-13q-26 -4 -35 -23.5t-11 -42.5q-1 -5 -1 -10.5v-10.5v-96h96v-79h-96v-321h-92v0z" />
    <glyph glyph-name="glyph74" unicode="g" horiz-adv-x="517" 
d="M459 26v-20t-1 -20q-2 -35 -12 -67.5t-38 -56.5q-25 -23 -57 -33.5t-65 -12.5q-8 -1 -15.5 -1h-14.5t-14.5 0.5t-15.5 0.5q-56 5 -104 33.5t-51 93.5l99 -1q3 -26 23 -38t43 -14q4 -1 7.5 -1h7.5h4h4t3.5 0.5t3.5 0.5q4 0 7.5 0.5t6.5 0.5q59 8 72.5 41t13.5 73v47
q-25 -33 -57.5 -49.5t-75.5 -16.5l-4 -1q-82 2 -127 59t-49 133v4.5v5.5q-1 1 -1 2v2v3.5v3.5q0 100 49.5 153.5t109.5 61.5q5 1 10.5 1.5t11.5 0.5q41 0 78 -20.5t55 -59.5v65h93v-374v0zM277 332h-19q-46 0 -74 -30t-33 -77q0 -3 -0.5 -7t-1.5 -9v-0.5v-1.5
q-1 -4 -1.5 -7.5t-0.5 -6.5q0 -63 32.5 -95t71.5 -33h1.5h1.5h5.5t5.5 1q39 4 72 38.5t33 98.5q0 46 -21.5 84.5t-71.5 44.5v0z" />
    <glyph glyph-name="glyph75" unicode="h" horiz-adv-x="486" 
d="M45 0v655h88v-320q23 33 60.5 55t77.5 26q4 1 8.5 1h8.5q7 0 15 -0.5t15 -2.5q11 -1 22 -4.5t20 -7.5q50 -20 61.5 -63t11.5 -91v-2.5v-2.5v-243h-93v206q0 51 -13 91t-73 40h-11q-74 -4 -89 -48.5t-16 -105.5v-183h-93v0z" />
    <glyph glyph-name="glyph76" unicode="i" horiz-adv-x="203" 
d="M55 0v400h91v-400h-91v0zM156 566q0 -21 -13.5 -38t-40.5 -17t-40 17t-13 38v2.5v2.5q2 19 15 35t38 16t38.5 -16t15.5 -35v-2.5v-2.5v0z" />
    <glyph glyph-name="glyph77" unicode="j" horiz-adv-x="193" 
d="M50 -186v586h91v-586h-91v0zM96 511q-27 0 -42 17t-15 38v2.5v2.5q2 19 17 35t40 16t38 -16t15 -35v-2.5v-2.5q0 -21 -13.5 -38t-39.5 -17v0z" />
    <glyph glyph-name="glyph78" unicode="k" horiz-adv-x="475" 
d="M60 0v655h92v-420l167 165h114l-182 -175l200 -225h-119l-180 207v-207h-92v0z" />
    <glyph glyph-name="glyph79" unicode="l" horiz-adv-x="204" 
d="M55 0v655h91v-655h-91v0z" />
    <glyph glyph-name="glyph80" unicode="m" horiz-adv-x="737" 
d="M144 0h-92v400h87v-65q3 3 5.5 6.5t4.5 6.5q26 32 55 49t73 18h10q43 0 72 -19.5t48 -60.5q30 38 65.5 59t80.5 21q5 0 10.5 -0.5t10.5 -0.5q2 0 3.5 -0.5t3.5 -0.5q4 0 7.5 -0.5t6.5 -0.5q61 -13 76 -53.5t15 -89.5v-269h-91v227v14t-1 14q-2 18 -7 35.5t-16 28.5
q-6 7 -15.5 10.5t-19.5 5.5q-5 1 -9.5 1.5t-9.5 0.5q-3 0 -6.5 -0.5t-6.5 -0.5q-1 0 -2 -0.5t-2 -0.5q-3 0 -5 -0.5t-4 -0.5q-48 -10 -60.5 -46.5t-13.5 -77.5v-13.5v-13.5v-183h-93v206v10.5v10.5q-2 41 -16.5 75.5t-64.5 34.5h-6q-55 -2 -72.5 -38.5t-19.5 -79.5
q-1 -9 -1 -18v-18v-183v0z" />
    <glyph glyph-name="glyph81" unicode="n" horiz-adv-x="496" 
d="M55 0v400h88v-65q25 35 65 57.5t84 24.5h2.5h3.5q8 0 16 -0.5t16 -2.5q11 -2 21 -5t19 -7q50 -20 61 -63t11 -91v-2.5v-2.5v-243h-92v206q0 51 -13 91t-73 40h-11q-74 -4 -89 -48.5t-17 -105.5v-183h-92v0z" />
    <glyph glyph-name="glyph82" unicode="o" horiz-adv-x="517" 
d="M32 201q0 92 68 153t154 61q7 0 15 -0.5t17 -2.5q6 0 12 -1.5t12 -2.5q71 -18 117 -78.5t46 -131.5v-6.5v-6.5q-1 -3 -1 -6.5v-6.5q-11 -82 -75 -134t-144 -52q-88 0 -154.5 62.5t-66.5 152.5v0zM135 165q10 -48 41.5 -73t67.5 -26h2h2h5.5h5.5q44 5 80.5 40t36.5 93
q0 53 -36 93t-89 40h-14q-48 -6 -77 -45t-30 -85v-1.5v-1.5q0 -6 1 -12.5t2 -12.5q1 -2 1.5 -4.5t0.5 -4.5v0z" />
    <glyph glyph-name="glyph83" unicode="p" horiz-adv-x="506" 
d="M55 -186v586h92v-65q19 39 55 59.5t77 20.5q6 0 11.5 -0.5t10.5 -1.5q60 -8 109.5 -62t49.5 -155l2 -2q-1 -81 -44.5 -144t-132.5 -64l-6 -1q-43 1 -74.5 17.5t-57.5 49.5v-238h-92v0zM144 203q0 -52 28 -95t86 -43q55 0 81.5 41t26.5 90v8t-1 8q-4 45 -30 83t-74 39h-7
q-55 0 -82.5 -39.5t-27.5 -91.5v0z" />
    <glyph glyph-name="glyph84" unicode="q" horiz-adv-x="485" 
d="M438 -186h-93v238q-25 -33 -57.5 -49.5t-75.5 -16.5l-5 -1q-81 2 -126 59t-49 133v4.5v5.5q-1 1 -1 2v2v3.5v3.5q0 100 49.5 153.5t109.5 61.5q5 1 10.5 1.5t11.5 0.5q41 0 78 -20.5t55 -59.5v65h93v-586v0zM256 332h-19q-46 0 -74 -30t-33 -77q0 -3 -0.5 -7t-1.5 -8
q-1 -5 -1.5 -9t-0.5 -7q0 -60 31.5 -93.5t69.5 -37.5h4h4h4h4q39 4 72 39.5t33 100.5q0 46 -21 84.5t-71 44.5v0z" />
    <glyph glyph-name="glyph85" unicode="r" horiz-adv-x="355" 
d="M147 337q13 27 31 49.5t49 26.5q2 0 4.5 0.5t5.5 0.5h2h2q2 1 3.5 1h3.5q8 0 16.5 -1t17.5 -3q10 -3 20.5 -6.5t20.5 -7.5l-35 -78q-7 5 -15.5 8t-17.5 5q-6 2 -12 2.5t-11 0.5h-6.5t-7.5 -1q-4 0 -7.5 -1t-6.5 -2q-28 -11 -40 -37.5t-16 -56.5q-1 -12 -1.5 -23.5
t-0.5 -22.5v-3.5t1 -3.5v-3.5v-3.5v-177h-92v402h92v-65v0z" />
    <glyph glyph-name="glyph86" unicode="s" horiz-adv-x="394" 
d="M34 73l76 42q9 -29 34.5 -47t53.5 -18q5 0 11 1t12 3q4 2 8 3.5t9 3.5q1 0 2.5 0.5t2.5 1.5q8 5 14 14.5t8 19.5q1 2 1 4v4t-0.5 4.5t-0.5 5.5q0 1 -0.5 2t-0.5 2q0 2 -0.5 3.5t-0.5 2.5q-7 13 -21.5 21.5t-30.5 13.5q-10 4 -19.5 7t-17.5 6q-1 1 -2 1.5t-2 0.5
q-5 2 -9.5 3.5t-9.5 3.5q-29 13 -54.5 32.5t-34.5 51.5q-1 4 -2.5 8.5t-2.5 9.5q-1 4 -1.5 8.5t-0.5 8.5q0 52 46.5 82.5t101.5 31.5h1.5h1.5h6.5h7.5q36 -3 68.5 -19t48.5 -46l-65 -45q-5 15 -21 25.5t-33 14.5q-5 1 -9 1.5t-8 0.5q-13 0 -26 -6t-21 -17q-1 -1 -1.5 -2.5
t-1.5 -3.5q-1 -1 -1.5 -3t-1.5 -4q-1 -3 -1.5 -5.5t-0.5 -4.5q0 -10 5.5 -18.5t13.5 -15.5q12 -9 30.5 -16.5t38.5 -14.5q1 0 2 -0.5l3 -1.5q13 -4 26.5 -9t24.5 -11q26 -13 41 -34.5t21 -44.5q1 -7 2 -13.5t1 -12.5v-4v-5q-3 -32 -24 -61t-59 -41q-10 -3 -21 -5.5t-22 -4.5
q-9 -1 -18 -1.5t-17 -0.5q-48 0 -92 21t-68 66v0z" />
    <glyph glyph-name="glyph87" unicode="t" horiz-adv-x="305" 
d="M109 0v321h-72v79h72v153h90v-153h70v-79h-70v-321h-90v0z" />
    <glyph glyph-name="glyph88" unicode="u" horiz-adv-x="496" 
d="M144 400v-225q0 -53 22.5 -81t79.5 -28q59 2 80.5 28t21.5 81v225h93v-197q0 -103 -41.5 -160t-151.5 -57q-109 0 -152.5 54.5t-43.5 153.5v2t1 3v2v2v197h91v0z" />
    <glyph glyph-name="glyph89" unicode="v" horiz-adv-x="496" 
d="M241 -23l-209 423h99l88 -201q7 -13 11 -28t7 -30q1 -1 1 -2v-2q1 -3 1.5 -5.5t1.5 -5.5q4 20 10 38.5t15 34.5l86 201h100l-211 -423v0z" />
    <glyph glyph-name="glyph90" unicode="w" horiz-adv-x="749" 
d="M496 -23l-94 208q-7 20 -14.5 39.5t-14.5 39.5q-6 -19 -12.5 -38.5t-15.5 -37.5l-94 -211l-207 423h97l89 -193q7 -15 11 -32t7 -35q1 -3 1.5 -6.5t1.5 -7.5q2 15 4.5 27.5t6.5 24.5q2 5 4 10.5t5 10.5l99 216h6l100 -216q3 -5 5 -10.5t4 -10.5q4 -12 6.5 -24.5
t4.5 -27.5q4 21 9 41.5t14 39.5l87 193h97l-207 -423v0z" />
    <glyph glyph-name="glyph91" unicode="x" horiz-adv-x="476" 
d="M130 0h-101l151 216l-130 184h102l55 -82q5 -7 10 -14.5t9 -14.5q3 -5 5 -10l4 -10q4 6 7.5 12.5t7.5 12.5q3 6 6.5 12.5t7.5 12.5l55 81h101l-130 -184l151 -216h-101l-74 107q-4 5 -7.5 10.5t-6.5 10.5q-5 8 -9 15.5t-8 16.5q-1 -3 -2.5 -5.5t-3.5 -5.5q-3 -5 -6 -10.5
t-6 -11.5q-3 -5 -6.5 -11t-7.5 -11l-73 -105v0z" />
    <glyph glyph-name="glyph92" unicode="y" horiz-adv-x="476" 
d="M160 -186h-94l111 222l-148 364h101l74 -207q6 -19 11 -38.5t7 -39.5q4 9 7.5 18t7.5 19q3 9 6.5 18t7.5 18l99 212h99l-289 -586v0z" />
    <glyph glyph-name="glyph93" unicode="z" horiz-adv-x="455" 
d="M404 0h-372l222 321h-199v79h349l-218 -319h218v-81v0z" />
    <glyph glyph-name="glyph94" unicode="{" horiz-adv-x="425" 
d="M361 624v-75h-13q-48 0 -66.5 -16.5t-18.5 -73.5v-102q0 -54 -15 -85.5t-71 -46.5q56 -16 71 -47t15 -86v-100q0 -61 20 -75.5t78 -14.5v-75h-35q-8 1 -16 1t-16 1q-16 1 -31.5 3.5t-29.5 9.5q-38 16 -47 49.5t-9 69.5v7.5v6.5v103q0 65 -25 87.5t-84 22.5h-8v75
q1 0 2 -0.5t2 -0.5t2 -0.5t2 -0.5q59 0 84 23t25 87v105q0 1 -0.5 2t-0.5 3q0 1 -0.5 2t-0.5 2v17t1 18q3 25 12 47.5t32 35.5q23 14 48.5 17.5t52.5 3.5h40v0z" />
    <glyph glyph-name="glyph95" unicode="|" horiz-adv-x="233" 
d="M86 661h74v-864h-74v864v0z" />
    <glyph glyph-name="glyph96" unicode="}" horiz-adv-x="425" 
d="M57 624h29q10 0 20.5 -0.5t20.5 -1.5q19 -1 37 -5.5t34 -13.5q22 -13 30.5 -35.5t10.5 -47.5q1 -9 1 -18v-17v-114q0 -64 24.5 -87t82.5 -23l1.5 0.5t3.5 0.5v0v0q2 0 3 0.5t2 0.5v-75h-9q-58 0 -83 -22.5t-25 -87.5v-104q0 -46 -9.5 -84t-60.5 -54q-12 -3 -24 -4.5
t-25 -2.5q-9 -1 -18.5 -1h-18.5l-27 -1v74q59 1 78.5 15.5t20.5 76.5v99q0 2 -0.5 3.5t-0.5 2.5q0 2 -0.5 3.5t-0.5 2.5q0 49 17 77t69 44q-51 14 -68.5 43.5t-17.5 76.5q0 1 0.5 2.5t0.5 3.5v0.5v1.5q1 1 1 2v2v102q0 57 -19.5 73.5t-68.5 16.5h-11v75v0z" />
    <glyph glyph-name="glyph97" unicode="~" horiz-adv-x="658" 
d="M609 332v-78q-38 -23 -69.5 -37.5t-62.5 -18.5q-6 -1 -12.5 -1.5t-13.5 -0.5q-28 0 -59 8t-69 21q-35 12 -64.5 18.5t-54.5 6.5q-10 0 -20 -1t-20 -3q-29 -6 -58.5 -21.5t-66.5 -39.5v78q33 20 62.5 34t58.5 21q11 2 22.5 3.5t23.5 1.5q26 0 56 -6.5t64 -18.5
q39 -13 70 -22t56 -9h4h3q34 2 69.5 18t80.5 47v0z" />
    <glyph glyph-name="uni007F" 
 />
    <glyph glyph-name="F" 
 />
    <glyph glyph-name="uni0081" 
 />
    <glyph glyph-name="D" 
 />
    <glyph glyph-name="N" 
 />
    <glyph glyph-name="bullet" 
 />
    <glyph glyph-name="guilsinglleft" 
 />
    <glyph glyph-name="Ydieresis" 
 />
    <glyph glyph-name="tilde" 
 />
    <glyph glyph-name="uni00A0" unicode="&#xa0;" 
 />
    <glyph glyph-name="Z" unicode="&#xa1;" 
 />
    <glyph glyph-name="cent" unicode="&#xa2;" 
 />
    <glyph glyph-name="endash" unicode="&#xa3;" 
 />
    <glyph glyph-name="currency" unicode="&#xa4;" 
 />
    <glyph glyph-name="emdash" unicode="&#xa5;" 
 />
    <glyph glyph-name="circumflex" unicode="&#xa6;" 
 />
    <glyph glyph-name="scaron" unicode="&#xa7;" horiz-adv-x="545" 
d="M358 582v5q0 28 -26 46.5t-57 21.5h-4h-4h-2.5h-3.5q-24 -1 -46 -12.5t-35 -34.5q-1 -2 -1.5 -4.5t-1.5 -5.5q0 -1 -0.5 -2t-0.5 -2q-1 -4 -2 -7.5t-1 -6.5q0 -8 2 -16t6 -16q10 -17 30.5 -34t55.5 -29q15 -6 45.5 -18.5t63.5 -31.5q45 -25 82.5 -58t37.5 -71v-5
q-5 -36 -26.5 -68t-45.5 -57q-2 -1 -3.5 -2.5l-3.5 -3.5q18 -16 28.5 -35t15.5 -38q2 -9 3 -17.5t1 -16.5v-7t-1 -7l-2 -14t-3 -14q-3 -9 -8 -19t-13 -21q-20 -28 -61 -52t-110 -24q-94 4 -137.5 45.5t-56.5 89.5q-4 15 -5.5 30t-1.5 29h86q0 -49 31 -85.5t91 -36.5
q50 0 81 23.5t31 57.5q0 6 -1 12t-3 12q-3 8 -7 15.5t-9 14.5q-4 6 -11 12t-16 12q-17 11 -38 22t-44 21q-26 11 -50.5 21t-41.5 17q-7 3 -14 6.5l-13 6.5q-42 21 -67.5 46t-25.5 71q0 24 6.5 42.5t19.5 35.5q11 14 25.5 28.5t33.5 31.5q-11 11 -19.5 22.5t-13.5 22.5
q-6 11 -8.5 22.5t-2.5 22.5q0 58 54 101.5t127 43.5q76 0 123.5 -36.5t47.5 -91.5v-10h-80v0zM130 327q4 -13 19 -23.5t37 -21.5q25 -11 57.5 -23.5t66.5 -29.5q12 -6 24 -12.5t24 -13.5q13 9 22.5 18.5t15.5 19.5q7 12 10.5 23.5t3.5 22.5q0 14 -4 26t-9 20q-3 5 -5.5 8.5
t-4.5 5.5q-10 9 -28 19t-40 20q-10 4 -20.5 8.5t-21.5 9.5q-28 11 -54 22t-43 20q-18 -10 -30 -26t-18 -33q-4 -10 -5.5 -19.5t-1.5 -17.5v-3.5t1 -3.5q0 -3 1 -6t1 -5l1.5 -3t0.5 -2v0z" />
    <glyph glyph-name="H" unicode="&#xa8;" 
 />
    <glyph glyph-name="I" unicode="&#xa9;" horiz-adv-x="737" 
d="M360 16q-137 3 -219 83.5t-96 176.5q-2 9 -2.5 18.5t-0.5 19.5v2.5t1 2.5v1.5v0.5q0 2 0.5 3.5t0.5 2.5q0 121 92 212t240 91q127 0 221.5 -87t94.5 -216q0 -121 -89 -216.5t-232 -95.5h-2.5t-2.5 1h-3.5h-2.5v0zM635 334v6q0 14 -2 28t-7 29q-21 68 -87 125.5t-168 57.5
h-8q-114 -4 -176 -64t-81 -131q-5 -18 -7.5 -36t-2.5 -35q3 -90 52 -145t107 -81q28 -13 55.5 -19t49.5 -6q114 0 183.5 64t86.5 140q2 12 3.5 23.5t1.5 23.5v20v0zM382 457q-60 0 -93.5 -39t-37.5 -86v-5.5v-5.5q0 -49 32 -89.5t93 -40.5q39 0 69.5 19.5t34.5 61.5h52
q0 -54 -41.5 -88t-90.5 -41q-6 -1 -12 -1.5t-12 -0.5h-8t-8 1q-61 5 -111.5 49.5t-50.5 122.5q0 71 36 113t79 59q17 7 33 10t30 3q78 0 117 -35.5t39 -82.5h-52q-4 33 -32.5 54t-62.5 22h-1.5h-1.5v0z" />
    <glyph glyph-name="J" unicode="&#xaa;" 
 />
    <glyph glyph-name="ampersand" unicode="&#xab;" horiz-adv-x="465" 
d="M32 269l164 196l58 -32l-144 -164l144 -157l-50 -39l-172 196v0zM374 465l51 -32l-135 -164l135 -157l-51 -33l-163 190l163 196v0z" />
    <glyph glyph-name="quotesingle" unicode="&#xac;" 
 />
    <glyph glyph-name="daggerdbl" unicode="&#xad;" 
 />
    <glyph glyph-name="dagger" unicode="&#xae;" horiz-adv-x="747" 
d="M360 24q-137 3 -218 84t-94 177q-2 9 -2.5 18t-0.5 18q0 1 0.5 3t0.5 4q0 1 0.5 3t0.5 3q0 120 91 210.5t238 90.5q125 0 219.5 -85.5t94.5 -215.5q0 -123 -89.5 -217t-232.5 -94h-2h-2v0v1h-3h-1v0zM632 340v10q0 13 -2 26t-6 26q-19 69 -84.5 126t-165.5 57h-11
q-113 -4 -174 -62.5t-80 -128.5q-5 -18 -7.5 -36t-2.5 -35q3 -91 51.5 -146.5t106.5 -81.5q28 -12 54.5 -18t48.5 -6q112 0 180.5 63t85.5 139q3 12 4.5 24t1.5 24v19v0zM395 494q59 0 87.5 -20.5t28.5 -66.5q0 -45 -21.5 -66t-74.5 -31l96 -154h-64l-87 154h-70v-154h-53
v338h158v0zM389 452h-99v-94h105q33 0 49 12.5t16 31.5q0 20 -16.5 35t-54.5 15v0z" />
    <glyph glyph-name="macron" unicode="&#xaf;" 
 />
    <glyph glyph-name="degree" unicode="&#xb0;" horiz-adv-x="274" 
d="M50 549q0 30 18.5 49.5t40.5 26.5q7 3 13.5 4t12.5 1q36 0 61.5 -24t25.5 -57q0 -28 -18.5 -47t-40.5 -27q-7 -2 -14.5 -3.5t-13.5 -1.5q-37 0 -61 23.5t-24 55.5v0zM177 549q0 17 -13 27.5t-29 10.5t-29.5 -7.5t-13.5 -30.5q0 -22 13.5 -32.5t29.5 -10.5t29 10.5
t13 32.5v0z" />
    <glyph glyph-name="at" unicode="&#xb1;" 
 />
    <glyph glyph-name="P" unicode="&#xb2;" 
 />
    <glyph glyph-name="S" unicode="&#xb3;" 
 />
    <glyph glyph-name="T" unicode="&#xb4;" 
 />
    <glyph glyph-name="U" unicode="&#xb5;" 
 />
    <glyph glyph-name="V" unicode="&#xb6;" horiz-adv-x="515" 
d="M220 246q-94 4 -136 53.5t-42 126.5q4 84 62 129t139 51h224v-68h-54v-619h-71v619h-54v-619h-68v327v0z" />
    <glyph glyph-name="quoteleft" unicode="&#xb8;" 
 />
    <glyph glyph-name="one" unicode="&#xb9;" 
 />
    <glyph glyph-name="G" unicode="&#xba;" 
 />
    <glyph glyph-name="bracketleft" unicode="&#xbb;" 
 />
    <glyph glyph-name="w" unicode="&#xbc;" 
 />
    <glyph glyph-name="bracketright" unicode="&#xbd;" 
 />
    <glyph glyph-name="R" unicode="&#xbe;" 
 />
    <glyph glyph-name="underscore" unicode="&#xbf;" 
 />
    <glyph glyph-name="grave" unicode="&#xc0;" horiz-adv-x="645" 
d="M517 0l-70 160h-244l-72 -160h-105l298 643l300 -643h-107v0zM303 384l-63 -141h172l-64 141q-7 17 -12 35l-10 36q-1 -4 -2 -7.5t-2 -6.5q-4 -15 -8.5 -29t-10.5 -28v0z" />
    <glyph glyph-name="a" unicode="&#xc1;" horiz-adv-x="517" 
d="M75 619h345v-87h-245v-172h50q14 0 30.5 -0.5t32.5 -1.5q21 -2 40.5 -5.5t34.5 -8.5q44 -22 71 -66t33 -92q0 -5 0.5 -10.5t0.5 -11.5q0 -38 -16.5 -74t-51.5 -59q-21 -14 -46.5 -20.5t-52.5 -8.5q-14 -1 -28 -1.5t-27 -0.5h-171v619v0zM366 185q0 59 -38.5 77t-84.5 20
h-11h-12h-45v-196q5 0 10.5 -0.5t11.5 -0.5h1.5h1.5q5 0 10 -0.5t10 -0.5h12h11q46 3 84.5 21.5t38.5 76.5v3v0z" />
    <glyph glyph-name="b" unicode="&#xc2;" horiz-adv-x="527" 
d="M75 0v619h168h22t22 -1q26 -2 50.5 -8t44.5 -22q28 -21 43 -52t17 -65v-3.5v-3.5q0 -43 -21.5 -81t-65.5 -54q54 -11 83 -55t32 -93v-5.5v-5.5v-6v-6q-3 -37 -20 -71.5t-50 -55.5q-21 -14 -46.5 -20.5t-52.5 -8.5q-14 -1 -28 -1.5t-27 -0.5h-171v0zM366 185q0 59 -38 77
t-84 20h-12.5h-12.5h-46v-198h10h10q1 -1 1.5 -1h1.5h9.5h8.5h13.5t13.5 1q47 2 86 20.5t39 77.5v3v0zM342 436v10q0 58 -39 73t-86 16h-4h-4h-36v-177h9.5h9.5q4 -1 9 -1h10h14t14 1q38 2 70 17.5t33 60.5v0z" />
    <glyph glyph-name="c" unicode="&#xc3;" horiz-adv-x="335" 
d="M79 0v619h302v-87h-201v-532h-101v0z" />
    <glyph glyph-name="d" unicode="&#xc4;" horiz-adv-x="697" 
d="M562 -110v110h-427v-110h-101v201h19h1.5h1.5q7 2 14.5 6t12.5 8q8 6 12.5 10.5l4.5 4.5q29 34 44.5 102.5t22.5 144.5q8 76 9.5 145t1.5 103v1v2l407 1v-528h78v-201h-101v0zM217 136l-5 -9.5t-14 -20.5l-6 -8t-7 -7h300v441h-205q-6 -154 -24 -256t-39 -140v0z" />
    <glyph glyph-name="e" unicode="&#xc5;" horiz-adv-x="475" 
d="M78 0v619h345v-87h-245v-153h245v-89h-245v-199h245v-91h-345v0z" />
    <glyph glyph-name="f" unicode="&#xc6;" horiz-adv-x="817" 
d="M358 0v310l-214 -310h-116l246 344l-221 275h112l193 -249v249h101v-249l194 249h110l-218 -275l244 -344h-115l-215 310v-310h-101v0z" />
    <glyph glyph-name="g" unicode="&#xc7;" horiz-adv-x="546" 
d="M415 28q-25 -17 -67 -28.5t-89 -11.5q-9 0 -18 0.5t-19 1.5q-49 6 -94.5 30.5t-72.5 76.5l63 65q18 -40 53.5 -64t75.5 -29q4 0 8.5 -0.5t8.5 -0.5q45 0 84 27.5t47 82.5l-1 2q0 62 -40 81t-88 21h-6.5h-6.5h-60v76h10.5h10.5h6h5q8 -1 16 -1h15q45 0 80.5 15.5
t36.5 73.5q0 49 -29 72t-67 23q-8 0 -16 -1t-16 -3q-30 -8 -56.5 -28t-41.5 -52l-66 55q21 50 72 77t108 32q5 1 11 1h12h11t11 -1q24 -2 47 -8.5t41 -16.5q29 -18 47 -48.5t23 -63.5q2 -8 2.5 -15.5t0.5 -14.5q0 -40 -20.5 -75.5t-64.5 -49.5q59 -12 87.5 -54t28.5 -98v-15
q0 -4 -0.5 -7.5t-1.5 -6.5q-6 -30 -24.5 -58.5t-39.5 -48.5q-4 -3 -8.5 -6.5t-8.5 -6.5v0z" />
    <glyph glyph-name="h" unicode="&#xc8;" horiz-adv-x="637" 
d="M79 -24v643h101v-408l405 431v-642h-100l-2 402l-404 -426v0z" />
    <glyph glyph-name="i" unicode="&#xc9;" horiz-adv-x="637" 
d="M79 -24v643h101v-408l405 431v-642h-100v402l-406 -426v0zM248 768v-0.5v-1.5q0 -3 1.5 -10t6.5 -14q6 -10 22 -18t46 -8l5 2h3q28 0 43.5 8t22.5 17q6 8 7.5 14.5t1.5 9.5v3h74l-2.5 -17t-17.5 -38q-14 -21 -45.5 -38t-89.5 -17t-89 17t-45 37q-13 18 -16 33.5t-3 19.5
l2 1h73v0z" />
    <glyph glyph-name="j" unicode="&#xca;" horiz-adv-x="575" 
d="M73 0v619h100v-256l222 256h124l-245 -275l274 -344h-130l-245 316v-316h-100v0z" />
    <glyph glyph-name="k" unicode="&#xcb;" horiz-adv-x="637" 
d="M284 532q-3 -34 -5.5 -64t-5.5 -57q-11 -111 -25 -178t-39 -124q-14 -36 -33.5 -58t-39.5 -34q-19 -11 -37.5 -14.5t-32.5 -3.5q-8 0 -14.5 0.5t-10.5 1.5q-5 0 -7.5 1l-2.5 1v86q5 0 24 5t40 29l6 8l6 8q36 50 49.5 143.5t22.5 242.5q2 22 3.5 45.5t2.5 48.5h400v-619
h-100v532h-201v0z" />
    <glyph glyph-name="l" unicode="&#xcc;" horiz-adv-x="797" 
d="M603 306q-3 11 -4.5 21.5t-2.5 21.5q-1 5 -1.5 10.5t-0.5 10.5t-0.5 10.5t-1.5 10.5q-5 -22 -12.5 -44t-17.5 -42l-160 -328l-162 334q-8 20 -15.5 39.5t-15.5 40.5l-2 -26t-3 -26q-1 -8 -2 -16.5t-3 -17.5l-68 -305h-92l146 645l183 -391q5 -10 9.5 -20.5t8.5 -20.5
l4 -10t4 -11l4 -10l4 -10q4 10 8.5 20.5t8.5 20.5q5 10 9.5 20.5t9.5 20.5l176 391l151 -645h-94l-68 306v0z" />
    <glyph glyph-name="m" unicode="&#xcd;" horiz-adv-x="637" 
d="M79 0v619h101v-228h305v228h100v-619h-100v301h-305v-301h-101v0z" />
    <glyph glyph-name="n" unicode="&#xce;" horiz-adv-x="757" 
d="M684 185q-39 -95 -125.5 -147t-182.5 -52q-8 0 -15.5 0.5t-15.5 1.5q-32 3 -63 11.5t-60 23.5q-82 44 -128.5 122t-46.5 166q0 14 1.5 28t4.5 28q4 24 13 48.5t20 46.5q45 82 124.5 126t167.5 44q15 0 31 -1.5t31 -4.5q32 -6 63 -17.5t58 -29.5q69 -45 107.5 -119.5
t38.5 -154.5q0 -31 -6 -61t-17 -59v0zM156 264q16 -79 79 -132.5t143 -53.5q95 0 160 69t65 161q0 94 -66.5 163t-160.5 69h-21q-88 -9 -146 -79.5t-58 -155.5q0 -5 0.5 -10t1.5 -10q0 -3 0.5 -5.5t0.5 -5.5q1 -3 1.5 -5.5t0.5 -4.5v0z" />
    <glyph glyph-name="o" unicode="&#xcf;" horiz-adv-x="637" 
d="M79 0v619h506v-619h-102v530h-305l2 -530h-101v0z" />
    <glyph glyph-name="p" unicode="&#xd0;" horiz-adv-x="394" 
d="M172 279v-279h-94v619h154q12 0 25 -0.5t26 -0.5q35 -3 68 -13.5t56 -37.5q18 -21 27.5 -49t11.5 -57v-5.5v-4.5q0 -17 -2.5 -34t-7.5 -33q-23 -72 -80.5 -89.5t-122.5 -17.5q-7 0 -15 0.5t-15 0.5q-8 0 -16 0.5t-15 0.5v0zM178 532v-172q5 0 9.5 -0.5t9.5 -0.5
q6 0 11 -0.5t11 -0.5h12t12 1q36 2 67 17.5t34 59.5v13q0 50 -33.5 65.5t-73.5 17.5h-7.5h-7.5h-44v0z" />
    <glyph glyph-name="q" unicode="&#xd1;" horiz-adv-x="637" 
d="M575 468q-43 35 -90 53.5t-99 18.5q-12 0 -24.5 -1t-26.5 -3q-84 -15 -129.5 -79.5t-48.5 -137.5v-5.5v-5.5v-6v-6q4 -68 43.5 -128t113.5 -82q8 -2 16 -3.5t17 -3.5l16 -2t16 -1q54 0 103.5 23t92.5 57v-114q-30 -20 -63.5 -32.5t-67.5 -18.5q-16 -2 -32 -3.5t-31 -1.5
q-119 0 -217 77t-111 214v8v8q-1 3 -1 7v8q0 123 81 216t207 106q3 0 6 0.5t5 0.5q9 1 17.5 1h15.5q53 0 101 -16.5t95 -46.5l-5 -101v0z" />
    <glyph glyph-name="Scaron" unicode="&#xd2;" horiz-adv-x="455" 
d="M339 532v-532h-101v532h-163v87h427v-87h-163v0z" />
    <glyph glyph-name="r" unicode="&#xd3;" horiz-adv-x="475" 
d="M180 619l121 -311l124 311h100l-253 -619h-105l76 198l-168 421h105v0z" />
    <glyph glyph-name="t" unicode="&#xd4;" horiz-adv-x="848" 
d="M225 23q-80 45 -126 124.5t-46 165.5q0 10 0.5 19.5t2.5 19.5q5 40 20.5 78t40.5 72q49 64 118.5 96t145.5 32v120h102v-118q137 0 233 -99.5t96 -229.5q0 -15 -1.5 -29.5t-4.5 -29.5t-7 -29.5t-10 -29.5q-39 -91 -123.5 -144t-182.5 -53v-100h-102v96l-26 2t-27 3
q-26 5 -52 13t-51 21v0zM360 540q-86 -9 -145 -78.5t-59 -153.5q0 -6 0.5 -11.5t1.5 -10.5v-2v-2q1 -5 1.5 -9t0.5 -9q15 -79 77 -132.5t144 -53.5v462h-21v0zM483 79q92 0 158.5 67.5t66.5 161.5q0 89 -66.5 161t-158.5 72v-462v0z" />
    <glyph glyph-name="u" unicode="&#xd5;" horiz-adv-x="567" 
d="M39 0l201 324l-177 295h106l89 -152q3 -5 5.5 -10t5.5 -10q5 -10 10.5 -20t10.5 -20q5 10 10.5 20t11.5 20l6 10l6 10l94 152h102l-180 -293l195 -326h-110l-104 177q-4 8 -8.5 15.5t-8.5 15.5q-4 7 -8.5 14.5t-8.5 15.5q-4 -8 -8 -15.5t-8 -14.5q-4 -8 -8 -15.5
t-9 -15.5l-108 -177h-107v0z" />
    <glyph glyph-name="zero" unicode="&#xd6;" horiz-adv-x="718" 
d="M567 -113v113h-488v619h101v-528h305v528h100v-528h83v-204h-101v0z" />
    <glyph glyph-name="parenright" unicode="&#xd7;" horiz-adv-x="596" 
d="M169 402q2 -21 12.5 -36t29.5 -26q1 -1 2 -1.5t2 -0.5q11 -6 29 -10.5t41 -4.5q18 0 38 3.5t41 12.5q19 8 38 21t36 31v228h100v-619h-100v298l-14 -8.5t-39 -18.5q-24 -11 -56.5 -19.5t-69.5 -8.5q-24 0 -49.5 5t-51.5 18q-12 5 -23 12t-22 15q-5 6 -9.5 11.5t-8.5 11.5
q-13 18 -19.5 37.5t-7.5 46.5v219h101v-217v0z" />
    <glyph glyph-name="x" unicode="&#xd8;" horiz-adv-x="818" 
d="M470 619v-528h186v528h101v-619h-673v619h101v-528h186v528h99v0z" />
    <glyph glyph-name="y" unicode="&#xd9;" horiz-adv-x="867" 
d="M747 91h83v-204h-101v113h-654v619h100v-528h186v528h99v-528h187v528h100v-528v0z" />
    <glyph glyph-name="z" unicode="&#xda;" horiz-adv-x="687" 
d="M391 0h-158v532h-163v87h264v-259h52q42 0 78 -3.5t63 -14.5q42 -21 68 -63t32 -89q1 -6 1.5 -12.5t0.5 -12.5q0 -39 -16.5 -75t-53.5 -59q-22 -15 -49 -21.5t-55 -8.5q-13 -1 -25.5 -1h-24.5h-14v0zM527 185q0 62 -41 79t-90 18h-7h-8h-47v-196q5 0 11 -0.5t12 -0.5
q3 0 6 -0.5t6 -0.5h6h6h8h7q49 1 90 19t41 79v3v0z" />
    <glyph glyph-name="braceleft" unicode="&#xdb;" horiz-adv-x="707" 
d="M78 0v619h99v-259h50q43 0 79.5 -3.5t63.5 -14.5q43 -21 70 -65t31 -92q1 -5 1 -9.5v-8.5q0 -39 -16.5 -75.5t-53.5 -60.5q-20 -13 -44 -19.5t-49 -9.5q-16 -1 -31.5 -1.5t-29.5 -0.5h-170v0zM177 282v-196q5 0 10.5 -0.5t11.5 -0.5q5 0 11 -0.5t12 -0.5h10h10
q48 2 88 20.5t40 80.5q0 58 -38 76t-83 20q-7 1 -13.5 1h-13.5h-45v0zM548 619h100v-619h-100v619v0z" />
    <glyph glyph-name="bar" unicode="&#xdc;" horiz-adv-x="527" 
d="M230 0h-155v619h98v-259h51q42 0 79 -3.5t63 -14.5q43 -21 70 -65t31 -92q1 -5 1 -9.5v-8.5q0 -39 -16.5 -75.5t-52.5 -60.5q-20 -13 -44 -19.5t-49 -9.5q-16 -1 -31.5 -1.5t-29.5 -0.5h-15v0zM173 282v-196q6 0 11.5 -0.5t11.5 -0.5q5 0 11 -0.5t12 -0.5h10.5h11.5
q47 2 86 21t39 80q0 59 -38 77t-84 20h-12.5h-12.5h-46v0z" />
    <glyph glyph-name="braceright" unicode="&#xdd;" horiz-adv-x="637" 
d="M489 300h-304v89h291q-18 55 -63 96t-102 51q-7 1 -15 2t-16 1q-5 1 -10.5 1h-10.5q-51 0 -97.5 -18.5t-90.5 -53.5v106q13 8 26 15.5t26 13.5q33 14 66.5 21.5t69.5 7.5h14.5h14.5q5 -1 10 -1t10 -1q125 -13 205 -106t80 -216v-31q-12 -137 -111 -214t-218 -77
q-14 0 -28 1t-28 3q-36 6 -70.5 18.5t-66.5 33.5v114q44 -34 92.5 -57t102.5 -23q8 0 16.5 1t16.5 2q8 2 16.5 3.5t16.5 3.5q76 20 111.5 82t45.5 132v0z" />
    <glyph glyph-name="asciitilde" unicode="&#xde;" horiz-adv-x="838" 
d="M185 391h71q2 9 4.5 18t5.5 18q3 8 6 17t7 18q35 80 98 124t132 46h3.5h2.5q9 0 17.5 -0.5t16.5 -2.5q30 -4 59.5 -17t56.5 -33q54 -44 85.5 -116.5t32.5 -149.5v-3.5v-3.5q0 -12 -1 -24t-2 -25q-3 -18 -7 -36t-10 -36q-31 -95 -101 -147t-148 -52q-9 0 -18 1l-18 2
q-23 4 -45.5 12.5t-43.5 21.5q-66 41 -102.5 117t-38.5 161h-63v-301h-101v619h101v-228v0zM352 264q12 -79 59 -132.5t106 -53.5q69 0 118 69t49 161q0 94 -50.5 163t-119.5 69h-15q-65 -9 -108 -79.5t-43 -155.5q0 -5 0.5 -10t0.5 -10q1 -6 1.5 -11t1.5 -10v0z" />
    <glyph glyph-name="germandbls" unicode="&#xdf;" horiz-adv-x="546" 
d="M370 277h-12l-206 -277h-113l212 282q-70 12 -105.5 51.5t-35.5 115.5v9.5t1 8.5q2 29 14 57.5t34 50.5q26 26 59.5 34t68.5 9q10 1 19 1h18h140v-619h-94v277v0zM363 355v177h-21q-49 0 -89.5 -14t-40.5 -77v-2t1 -2v0v0q0 -2 0.5 -3l0.5 -1q1 -49 33 -63.5t70 -16.5
h7.5h7.5t8 0.5t8 0.5q3 0 7 0.5t8 0.5v0z" />
    <glyph glyph-name="agrave" unicode="&#xe0;" horiz-adv-x="506" 
d="M355 400h92v-400h-92v52q-25 -33 -57.5 -49.5t-75.5 -16.5l-5 -1q-81 2 -126 59t-49 133v4.5v5.5q-1 1 -1 2v2v3.5v3.5q0 100 49.5 153.5t109.5 61.5q5 1 10.5 1.5t11.5 0.5q41 0 78 -20.5t55 -59.5v65v0zM358 203q0 46 -21 84.5t-71 44.5h-20q-46 0 -74 -30t-33 -77
q0 -3 -0.5 -7t-0.5 -9q-1 0 -1 -0.5v-1.5q0 -4 -0.5 -7.5t-0.5 -6.5q0 -63 32.5 -95t71.5 -33h1.5h1.5h6.5t6.5 1q38 5 70 39.5t32 97.5v0z" />
    <glyph glyph-name="K" unicode="&#xe1;" horiz-adv-x="527" 
d="M42 201q0 6 -0.5 12.5t-0.5 13.5q-1 8 -1.5 16t-0.5 16q0 22 1.5 47.5t4.5 51.5q5 50 19.5 96.5t40.5 70.5q17 16 36 27t38 18q27 11 53 15.5t48 8.5q29 5 48.5 12t24.5 26h86q0 -67 -43.5 -88t-95.5 -30q-3 0 -6.5 -0.5t-7.5 -1.5q-27 -5 -52.5 -10.5t-43.5 -18.5
q-20 -14 -31.5 -32.5t-16.5 -38.5q-5 -14 -7 -28.5t-4 -26.5q26 23 60 37t69 17q4 1 8.5 1h8.5q5 0 10.5 -0.5t10.5 -0.5q5 -1 10.5 -1.5t10.5 -1.5q71 -18 117.5 -78.5t46.5 -131.5q0 -3 -0.5 -6.5t-0.5 -6.5t-0.5 -6.5t-0.5 -6.5q-10 -82 -74 -134t-144 -52
q-89 0 -152 63.5t-69 151.5v0zM246 332q-47 -6 -76.5 -45t-30.5 -85v-1.5v-1.5q0 -5 1 -9.5t2 -9.5q0 -4 1 -7.5t1 -7.5q11 -48 42.5 -73t67.5 -26h2h2q4 0 7.5 0.5t7.5 0.5q42 6 77.5 41t35.5 91q0 53 -36 93t-89 40h-15v0z" />
    <glyph glyph-name="quotedbl" unicode="&#xe2;" horiz-adv-x="425" 
d="M284 212q46 -6 72 -30.5t26 -68.5v-3q-2 -65 -45.5 -85.5t-95.5 -23.5q-11 -1 -21.5 -1h-20.5h-149v400h120q16 0 35 -1t39 -4q44 -6 80.5 -27.5t36.5 -70.5v-4q-1 -32 -19 -51t-58 -30v0zM143 170v-91q10 0 19.5 -0.5t18.5 -0.5q9 -1 18 -1.5t18 -0.5q29 0 49.5 9
t21.5 38v3q0 27 -28 35.5t-62 8.5h-55v0zM143 245h12t11 -1h3.5h2.5q8 0 15 -0.5t14 -0.5q29 0 50.5 7.5t22.5 31.5v2q0 22 -21 28.5t-49 6.5h-61v-74v0z" />
    <glyph glyph-name="atilde" unicode="&#xe3;" horiz-adv-x="355" 
d="M314 400v-79h-162v-321h-92v400h254v0z" />
    <glyph glyph-name="adieresis" unicode="&#xe4;" horiz-adv-x="496" 
d="M462 81v-172h-92v91h-245v-91h-91v172h16q14 6 22 14.5t15 21.5q0 1 0.5 2.5t1.5 2.5q21 38 29.5 103t12.5 175h297v-319h34v0zM190 122q-6 -13 -14.5 -24.5t-18.5 -16.5h178v240h-119q-1 -62 -5.5 -110t-20.5 -89v0z" />
    <glyph glyph-name="yright" unicode="&#xe5;" horiz-adv-x="494" 
d="M329 402q72 -25 97 -82.5t25 -125.5v-8h-320q4 -42 23.5 -74t65.5 -42q8 -1 15 -2.5t13 -1.5q39 0 70 23.5t52 57.5l76 -43q-35 -58 -82 -88t-114 -30l-20 -1q-90 6 -142 66.5t-52 142.5q0 7 0.5 14.5t1.5 14.5q1 2 1 4v4q1 3 1.5 6t0.5 6q13 80 72 127t133 47
q15 0 30.5 -2t31.5 -6q5 -2 10.5 -3.5t10.5 -3.5v0zM355 250q-7 44 -33.5 65.5t-73.5 21.5q-46 0 -72 -23t-38 -64h217v0z" />
    <glyph glyph-name="guilsinglright" unicode="&#xe6;" horiz-adv-x="687" 
d="M384 400v-165l149 165h101l-161 -175l177 -225h-105l-161 207v-207h-91v207l-160 -207h-105l176 225l-162 175h101l150 -165v165h91v0z" />
    <glyph glyph-name="florin" unicode="&#xe7;" horiz-adv-x="436" 
d="M303 123q-1 31 -25 40t-54 9q-9 0 -18 -0.5t-18 -0.5t-18 -0.5t-18 -0.5v71q51 0 92.5 5.5t42.5 38.5q0 23 -19.5 36t-48.5 13q-24 0 -42.5 -8t-32.5 -18q-13 -10 -20 -18l-7 -8l-52 52l11 10.5t31 23.5t48.5 23.5t63.5 10.5q16 0 34.5 -3t37.5 -9q4 -1 7.5 -2.5
t7.5 -3.5l11 -5t24 -17q12 -10 22.5 -26t12.5 -38q-1 -31 -17 -51.5t-54 -32.5q45 -11 67 -36t23 -68q0 -26 -10 -44.5t-21 -29.5q-12 -12 -22 -17.5l-10 -5.5q-16 -7 -33.5 -11.5t-35.5 -7.5l-22 -2t-22 -1q-55 0 -103 19t-74 52l58 60q17 -25 46.5 -42t65.5 -18
q37 0 64 16t27 40v5v0z" />
    <glyph glyph-name="comma" unicode="&#xe8;" horiz-adv-x="496" 
d="M441 0h-93v245l-295 -273v428h91v-240l297 268v-428v0z" />
    <glyph glyph-name="L" unicode="&#xe9;" horiz-adv-x="496" 
d="M441 428v-428h-93v245l-295 -273v428h91v-240l297 268v0zM250 507q27 0 42.5 7.5t23.5 16.5q9 8 11.5 15.5t3.5 7.5h76v-1q0 -2 -7 -19t-24 -36q-17 -21 -48.5 -38.5t-79.5 -17.5q-49 0 -78.5 17.5t-45.5 38.5t-21.5 38.5l-5.5 17.5h78l-2 -1q0 -1 1.5 -8t8.5 -15
q7 -9 22.5 -16t44.5 -7v0z" />
    <glyph glyph-name="asterisk" unicode="&#xea;" horiz-adv-x="485" 
d="M60 0v400h92v-165l167 165h114l-182 -175l200 -225h-119l-180 207v-207h-92v0z" />
    <glyph glyph-name="edieresis" unicode="&#xeb;" horiz-adv-x="485" 
d="M31 0v81q3 0 12 0.5t19 4.5q8 2 14.5 6.5t11.5 11.5q22 34 30 109t10 187h300v-400h-93v323h-119q-4 -105 -15 -160.5t-28 -86.5q-2 -4 -4.5 -8.5t-5.5 -8.5q-15 -23 -42 -41.5t-64 -18.5h-6.5h-6.5t-6.5 0.5t-6.5 0.5v0z" />
    <glyph glyph-name="igrave" unicode="&#xec;" horiz-adv-x="697" 
d="M347 -15l-136 250l-91 -235h-91l164 425l155 -294l154 294l166 -425h-93l-89 235l-139 -250v0z" />
    <glyph glyph-name="ellipsis" unicode="&#xed;" horiz-adv-x="496" 
d="M441 0h-93v169h-204v-169h-91v400h91v-157h204v157h93v-400v0z" />
    <glyph glyph-name="percent" unicode="&#xee;" horiz-adv-x="517" 
d="M32 201q0 92 68 153t154 61q7 0 15 -0.5t17 -2.5q6 0 12 -1.5t12 -2.5q71 -18 117 -78.5t46 -131.5v-6.5v-6.5q-1 -3 -1 -6.5v-6.5q-11 -82 -75 -134t-144 -52q-88 0 -154.5 62.5t-66.5 152.5v0zM135 165q10 -48 41.5 -73t67.5 -26h2h2h5.5h5.5q44 5 80.5 40t36.5 93
q0 53 -36 93t-89 40h-14q-48 -6 -77 -45t-30 -85v-1.5v-1.5q0 -6 1 -12.5t2 -12.5q1 -2 1.5 -4.5t0.5 -4.5v0z" />
    <glyph glyph-name="C" unicode="&#xef;" horiz-adv-x="496" 
d="M441 400v-400h-93v321h-204v-321h-91v400h388v0z" />
    <glyph glyph-name="eth" unicode="&#xf0;" horiz-adv-x="506" 
d="M55 -186v586h92v-65q19 39 55 59.5t77 20.5q6 0 11.5 -0.5t10.5 -1.5q60 -8 109.5 -62t49.5 -155l2 -2q-1 -81 -44.5 -144t-132.5 -64l-6 -1q-43 1 -74.5 17.5t-57.5 49.5v-238h-92v0zM144 203q0 -52 28 -95t86 -43q55 0 81.5 41t26.5 90v8t-1 8q-4 45 -30 83t-74 39h-7
q-55 0 -82.5 -39.5t-27.5 -91.5v0z" />
    <glyph glyph-name="quotedblleft" unicode="&#xf1;" horiz-adv-x="415" 
d="M365 287q-17 17 -38 27.5t-42 14.5q-8 1 -15.5 2t-15.5 1q-48 0 -85.5 -33t-37.5 -96q0 -51 26 -88.5t78 -44.5q2 0 4 -0.5t4 -0.5t3 -0.5t2 -0.5q3 -1 6 -1.5t5 -0.5q31 0 57.5 14t48.5 38v-105q-13 -6 -26 -10.5t-26 -7.5q-17 -5 -33.5 -7t-31.5 -2q-85 0 -148.5 58
t-63.5 159q0 98 66.5 154t151.5 56q11 0 23 -1t24 -3q16 -3 32.5 -8t31.5 -12v-102v0z" />
    <glyph glyph-name="two" unicode="&#xf2;" horiz-adv-x="436" 
d="M387 400v-79h-129v-321h-91v321h-130v79h350v0z" />
    <glyph glyph-name="three" unicode="&#xf3;" horiz-adv-x="476" 
d="M160 -186h-94l111 222l-148 364h101l74 -207q6 -19 11 -38.5t7 -39.5q4 9 7.5 18t7.5 19q3 9 6.5 18t7.5 18l99 212h99l-289 -586v0z" />
    <glyph glyph-name="ocircumflex" unicode="&#xf4;" horiz-adv-x="618" 
d="M567 172q-10 -82 -75 -134t-145 -52v-129h-93v128q-89 1 -153.5 63.5t-64.5 152.5q0 89 66 149.5t152 62.5v132h93v-132h14q81 0 143 -67.5t63 -148.5v-1.5v-1.5v-22v0zM254 68v264q-56 0 -87.5 -40t-33.5 -88v-3.5v-2.5v-3.5v-3.5q2 -29 14.5 -56.5t34.5 -45.5
q3 -2 8 -5.5t12 -7.5q4 -2 8.5 -4.5t9.5 -4.5t10 -3.5t10 -1.5h2t2 1q3 0 5.5 1.5t4.5 3.5v0zM347 68q6 0 12 0.5t13 2.5q18 4 36 13.5t31 24.5q12 13 19.5 30t10.5 35q0 5 0.5 10t0.5 10q0 52 -33.5 95t-89.5 43v-264v0z" />
    <glyph glyph-name="otilde" unicode="&#xf5;" horiz-adv-x="467" 
d="M130 0h-101l151 216l-130 184h102l55 -82q5 -7 10 -14.5t9 -14.5q3 -5 5 -10l4 -10q4 6 7.5 12.5t7.5 12.5q3 6 6.5 12.5t7.5 12.5l55 81h101l-130 -184l151 -216h-101l-74 107q-4 5 -7.5 10.5t-6.5 10.5q-5 8 -9 15.5t-8 16.5q-1 -3 -2.5 -5.5t-3.5 -5.5q-3 -5 -6 -10.5
t-6 -11.5q-3 -5 -6.5 -11t-7.5 -11l-73 -105v0z" />
    <glyph glyph-name="odieresis" unicode="&#xf6;" horiz-adv-x="517" 
d="M447 400v-319h31v-185h-92v104h-326v400h91v-319h206v319h90v0z" />
    <glyph glyph-name="divide" unicode="&#xf7;" horiz-adv-x="465" 
d="M316 169q-19 -12 -44.5 -20.5t-53.5 -12.5q-6 0 -12.5 -0.5t-12.5 -0.5h-4h-3q-32 1 -61 11.5t-49 28.5q-13 10 -22.5 26t-11.5 34v2.5v3.5q0 1 0.5 2t0.5 2l0.5 1t0.5 2v152h91v-146q0 -10 3.5 -17.5t7.5 -11.5q4 -5 7.5 -7l3.5 -2q8 -3 17 -6t19 -4q4 -1 9 -1.5t9 -0.5
q10 0 21 1.5t22 4.5q16 5 32 13t30 20v157h91v-400h-91v169v0z" />
    <glyph glyph-name="oslash" unicode="&#xf8;" horiz-adv-x="656" 
d="M53 0v400h93v-319h136v319h91v-319h138v319h90v-400h-548v0z" />
    <glyph glyph-name="question" unicode="&#xf9;" horiz-adv-x="666" 
d="M535 0h-488v400h92v-319h137v319h90v-319h138v319h91v-319h31v-185h-91v104v0z" />
    <glyph glyph-name="A" unicode="&#xfa;" horiz-adv-x="527" 
d="M243 245q18 0 37 -0.5t39 -1.5q61 -6 112.5 -32.5t53.5 -100.5v-6q0 -58 -41.5 -78.5t-91.5 -23.5q-13 -1 -26 -1.5t-25 -0.5h-149v321h-129v79h220v-155v0zM392 123v2q0 29 -30 38t-66 9h-1.5h-1.5h-50v-91h6h6q8 0 15.5 -0.5t14.5 -0.5q10 -1 19.5 -1.5t18.5 -0.5
q28 0 48 8.5t21 36.5v0z" />
    <glyph glyph-name="slash" unicode="&#xfb;" horiz-adv-x="587" 
d="M170 0h-121v400h90v-157h7h33.5t35.5 -2q63 -4 115.5 -29t53.5 -102v-6q0 -58 -41.5 -78.5t-91.5 -24.5q-13 0 -25.5 -0.5t-24.5 -0.5h-31v0zM139 172v-91q11 0 21 -0.5t20 -0.5q10 -1 20 -1.5t19 -0.5q29 0 50.5 8.5t22.5 36.5v2q0 29 -30 38t-66 9h-3.5h-2.5h-51v0z
M527 0h-91v400h91v-400v0z" />
    <glyph glyph-name="udieresis" unicode="&#xfc;" horiz-adv-x="425" 
d="M170 0h-121v400h90v-157h7h33.5t35.5 -2q63 -4 115.5 -29t53.5 -102v-6q0 -58 -41.5 -78.5t-91.5 -24.5q-13 0 -25.5 -0.5t-24.5 -0.5h-31v0zM139 81q11 0 21 -0.5t20 -0.5q10 -1 20 -1.5t19 -0.5q29 0 50.5 8.5t22.5 36.5v2q0 29 -30 38t-66 9h-3.5h-2.5h-51v-91v0z" />
    <glyph glyph-name="period" unicode="&#xfd;" horiz-adv-x="425" 
d="M276 258q-15 36 -47 55t-69 19q-10 0 -20.5 -1.5t-20.5 -4.5q-18 -5 -34.5 -14.5t-31.5 -24.5v102q16 7 32.5 12t32.5 8q11 2 22 3t22 1q86 0 152.5 -56t66.5 -154q0 -101 -64.5 -159t-147.5 -58q-14 0 -28.5 1.5t-29.5 5.5q-15 3 -29.5 8t-28.5 12v105q17 -18 40 -30.5
t48 -17.5q6 -1 12 -1.5t12 -0.5h2h3q33 1 63 19.5t43 56.5q1 2 1.5 4.5t1.5 5.5t2 7t3 8h-195v74h191q0 3 -0.5 5t-1.5 3q0 1 -0.5 1.5l-0.5 0.5q0 2 -0.5 3t-0.5 2v0z" />
    <glyph glyph-name="thorn" unicode="&#xfe;" horiz-adv-x="618" 
d="M141 243h52q14 76 71 123t125 47h12t12 -1t11.5 -1.5t11.5 -2.5q70 -20 104.5 -77t36.5 -122v-4v-4v-2.5v-3.5q-2 -79 -50.5 -144t-140.5 -65q-73 0 -128.5 52.5t-66.5 130.5h-50v-169h-91v400h91v-157v0zM373 332q-39 -6 -63 -42.5t-28 -79.5v-6v-6q0 -4 0.5 -8t0.5 -8
q0 -2 0.5 -3.5t0.5 -2.5q0 -3 0.5 -5.5t0.5 -5.5q10 -49 38 -74t59 -25h6t7 1q36 6 66 40.5t30 91.5q0 53 -31 93t-76 40h-11v0z" />
    <glyph glyph-name="ydieresis" unicode="&#xff;" horiz-adv-x="425" 
d="M280 0v172h-47l-86 -172h-97l96 191l-14.5 2t-31.5 11q-18 10 -32.5 29.5t-14.5 54.5q0 1 0.5 2t0.5 2l0.5 1t0.5 2q3 57 44 78t90 25q17 1 33 1.5t31 0.5h117v-400h-90v0zM194 243h86v81h-87h-8.5t-9.5 -1q-12 -2 -21.5 -9.5t-9.5 -26.5q0 -22 11 -33t39 -11v0z" />
    <glyph glyph-name="amacron" unicode="&#x101;" 
 />
    <glyph glyph-name="OE" unicode="&#x152;" 
 />
    <glyph glyph-name="glyph258" unicode="&#x153;" 
 />
    <glyph glyph-name="perthousand" unicode="&#x160;" 
 />
    <glyph glyph-name="seven" unicode="&#x161;" 
 />
    <glyph glyph-name="glyph259" unicode="&#x178;" 
 />
    <glyph glyph-name="less" unicode="&#x192;" 
 />
    <glyph glyph-name="glyph237" unicode="&#x2c6;" 
 />
    <glyph glyph-name="six" unicode="&#x2dc;" 
 />
    <glyph glyph-name="numbersign" unicode="&#x2013;" 
 />
    <glyph glyph-name="O" unicode="&#x2014;" 
 />
    <glyph glyph-name="four" unicode="&#x2018;" 
 />
    <glyph glyph-name="quoteright" unicode="&#x2019;" 
 />
    <glyph glyph-name="parenleft" unicode="&#x201a;" 
 />
    <glyph glyph-name="oe" unicode="&#x201c;" 
 />
    <glyph glyph-name="B" unicode="&#x201d;" 
 />
    <glyph glyph-name="greater" unicode="&#x201e;" 
 />
    <glyph glyph-name="glyph233" unicode="&#x2020;" 
 />
    <glyph glyph-name="glyph236" unicode="&#x2021;" 
 />
    <glyph glyph-name="glyph257" unicode="&#x2022;" 
 />
    <glyph glyph-name="glyph232" unicode="&#x2026;" 
 />
    <glyph glyph-name="v" unicode="&#x2030;" 
 />
    <glyph glyph-name="glyph243" unicode="&#x2039;" 
 />
    <glyph glyph-name="eight" unicode="&#x203a;" 
 />
    <glyph glyph-name="dollar" unicode="&#x2122;" 
 />
    <glyph glyph-name="periodcentered" unicode="&#x2219;" 
 />
    <glyph glyph-name="s" 
 />
    <glyph glyph-name="backslash" 
 />
    <glyph glyph-name="nine" 
 />
    <glyph glyph-name="colon" 
 />
    <glyph glyph-name="Y" 
 />
    <glyph glyph-name="X" 
 />
    <glyph glyph-name="asciicircum" 
 />
    <glyph glyph-name="semicolon" 
 />
    <glyph glyph-name="equal" 
 />
    <glyph glyph-name="exclam" 
 />
    <glyph glyph-name="five" 
 />
    <glyph glyph-name="Q" 
 />
    <glyph glyph-name="quotedblright" 
 />
    <glyph glyph-name="hyphen" 
 />
    <glyph glyph-name="space" 
 />
    <glyph glyph-name="E" 
 />
    <glyph glyph-name="M" 
 />
    <glyph glyph-name="plus" 
 />
    <glyph glyph-name="glyph229" 
 />
    <glyph glyph-name="glyph230" 
 />
    <glyph glyph-name="glyph231" 
 />
    <glyph glyph-name="glyph234" 
 />
    <glyph glyph-name="glyph235" 
 />
    <glyph glyph-name="glyph238" 
 />
    <glyph glyph-name="glyph239" 
 />
    <glyph glyph-name="glyph240" 
 />
    <glyph glyph-name="glyph241" 
 />
    <glyph glyph-name="glyph242" 
 />
    <glyph glyph-name="glyph244" 
 />
    <glyph glyph-name="glyph245" 
 />
    <glyph glyph-name="glyph246" 
 />
    <glyph glyph-name="glyph247" 
 />
    <glyph glyph-name="glyph248" 
 />
    <glyph glyph-name="glyph249" 
 />
    <glyph glyph-name="glyph250" 
 />
    <glyph glyph-name="glyph251" 
 />
    <glyph glyph-name="glyph252" 
 />
    <glyph glyph-name="glyph253" 
 />
    <glyph glyph-name="glyph254" 
 />
    <glyph glyph-name="glyph255" 
 />
    <glyph glyph-name="glyph256" 
 />
    <glyph glyph-name="glyph268" 
 />
    <glyph glyph-name="glyph269" 
 />
    <glyph glyph-name="glyph270" 
 />
    <glyph glyph-name="glyph271" 
 />
    <glyph glyph-name="glyph272" 
 />
    <glyph glyph-name="glyph273" 
 />
    <glyph glyph-name="glyph274" 
 />
    <glyph glyph-name="glyph275" 
 />
    <glyph glyph-name="glyph276" 
 />
    <glyph glyph-name="glyph277" 
 />
    <glyph glyph-name="glyph278" 
 />
    <glyph glyph-name="glyph279" 
 />
    <glyph glyph-name="glyph280" 
 />
    <glyph glyph-name="glyph281" 
 />
    <glyph glyph-name="glyph282" 
 />
    <glyph glyph-name="glyph283" 
 />
    <glyph glyph-name="glyph284" 
 />
    <glyph glyph-name="glyph285" 
 />
    <glyph glyph-name="glyph286" 
 />
    <glyph glyph-name="glyph287" 
 />
    <glyph glyph-name="glyph288" 
 />
    <glyph glyph-name="glyph289" 
 />
    <glyph glyph-name="glyph290" 
 />
    <glyph glyph-name="glyph291" 
 />
    <glyph glyph-name="glyph292" 
 />
    <glyph glyph-name="glyph293" 
 />
    <glyph glyph-name="glyph294" 
 />
    <glyph glyph-name="glyph295" 
 />
    <glyph glyph-name="glyph296" 
 />
    <glyph glyph-name="glyph297" 
 />
    <glyph glyph-name="glyph298" 
 />
    <glyph glyph-name="glyph299" 
 />
    <glyph glyph-name="glyph300" 
 />
    <glyph glyph-name="glyph301" 
 />
    <glyph glyph-name="glyph302" 
 />
    <glyph glyph-name="glyph303" 
 />
    <glyph glyph-name="glyph304" 
 />
    <glyph glyph-name="glyph305" 
 />
    <glyph glyph-name="glyph306" 
 />
    <glyph glyph-name="glyph307" 
 />
    <glyph glyph-name="glyph308" 
 />
    <glyph glyph-name="glyph309" 
 />
    <glyph glyph-name="glyph310" 
 />
    <glyph glyph-name="glyph311" 
 />
    <glyph glyph-name="glyph312" 
 />
    <glyph glyph-name="glyph313" 
 />
    <glyph glyph-name="glyph314" 
 />
    <glyph glyph-name="glyph315" 
 />
    <glyph glyph-name="glyph316" 
 />
    <glyph glyph-name="glyph317" 
 />
    <glyph glyph-name="glyph318" 
 />
    <glyph glyph-name="glyph319" 
 />
    <glyph glyph-name="glyph320" 
 />
    <glyph glyph-name="glyph321" 
 />
    <glyph glyph-name="glyph322" 
 />
    <glyph glyph-name="glyph323" 
 />
    <glyph glyph-name="glyph324" 
 />
    <glyph glyph-name="glyph325" 
 />
    <glyph glyph-name="glyph326" 
 />
    <glyph glyph-name="glyph327" 
 />
    <glyph glyph-name="glyph328" 
 />
    <glyph glyph-name="glyph329" 
 />
    <glyph glyph-name="glyph330" 
 />
    <glyph glyph-name="glyph331" 
 />
    <glyph glyph-name="glyph332" 
 />
    <glyph glyph-name="glyph333" 
 />
    <glyph glyph-name="glyph334" 
 />
    <glyph glyph-name="glyph335" 
 />
    <glyph glyph-name="glyph336" 
 />
    <glyph glyph-name="glyph337" 
 />
    <glyph glyph-name="glyph338" 
 />
    <glyph glyph-name="glyph339" 
 />
    <glyph glyph-name="glyph340" 
 />
    <glyph glyph-name="glyph341" 
 />
    <glyph glyph-name="glyph342" 
 />
    <glyph glyph-name="glyph343" 
 />
    <glyph glyph-name="glyph344" 
 />
    <glyph glyph-name="glyph345" 
 />
    <glyph glyph-name="glyph346" 
 />
    <glyph glyph-name="glyph347" 
 />
    <glyph glyph-name="glyph348" 
 />
    <glyph glyph-name="glyph349" 
 />
    <glyph glyph-name="glyph350" 
 />
    <glyph glyph-name="glyph351" 
 />
    <glyph glyph-name="glyph352" 
 />
    <glyph glyph-name="glyph353" 
 />
    <glyph glyph-name="glyph354" 
 />
    <glyph glyph-name="glyph355" 
 />
    <glyph glyph-name="glyph356" 
 />
    <glyph glyph-name="glyph357" 
 />
    <glyph glyph-name="glyph358" 
 />
    <glyph glyph-name="glyph359" 
 />
    <glyph glyph-name="glyph360" 
 />
    <glyph glyph-name="glyph361" 
 />
    <glyph glyph-name="glyph362" 
 />
    <glyph glyph-name="glyph363" 
 />
    <glyph glyph-name="glyph364" 
 />
    <glyph glyph-name="glyph365" 
 />
    <glyph glyph-name="glyph366" 
 />
    <glyph glyph-name="glyph367" 
 />
    <glyph glyph-name="glyph368" 
 />
    <glyph glyph-name="glyph369" 
 />
    <glyph glyph-name="glyph370" 
 />
    <glyph glyph-name="glyph371" 
 />
    <glyph glyph-name="glyph372" 
 />
    <glyph glyph-name="glyph373" 
 />
    <glyph glyph-name="glyph374" 
 />
    <glyph glyph-name="glyph375" 
 />
    <glyph glyph-name="glyph376" 
 />
    <glyph glyph-name="glyph377" 
 />
    <glyph glyph-name="glyph378" 
 />
    <glyph glyph-name="glyph379" 
 />
    <glyph glyph-name="glyph380" 
 />
    <glyph glyph-name="glyph381" 
 />
    <glyph glyph-name="glyph382" 
 />
    <glyph glyph-name="glyph383" 
 />
    <glyph glyph-name="glyph384" 
 />
    <glyph glyph-name="glyph385" 
 />
    <glyph glyph-name="glyph386" 
 />
    <glyph glyph-name="glyph387" 
 />
    <glyph glyph-name="glyph388" 
 />
    <glyph glyph-name="glyph389" 
 />
    <glyph glyph-name="glyph390" 
 />
    <glyph glyph-name="glyph391" 
 />
    <glyph glyph-name="glyph392" 
 />
    <glyph glyph-name="glyph393" 
 />
    <glyph glyph-name="glyph394" 
 />
    <glyph glyph-name="glyph395" 
 />
    <glyph glyph-name="glyph396" 
 />
    <glyph glyph-name="glyph397" 
 />
    <glyph glyph-name="glyph398" 
 />
    <glyph glyph-name="glyph399" 
 />
    <glyph glyph-name="glyph400" 
 />
    <glyph glyph-name="glyph401" 
 />
    <glyph glyph-name="glyph402" 
 />
    <glyph glyph-name="glyph403" 
 />
    <glyph glyph-name="glyph404" 
 />
    <glyph glyph-name="glyph405" 
 />
    <glyph glyph-name="glyph406" 
 />
    <glyph glyph-name="glyph407" 
 />
    <glyph glyph-name="glyph408" 
 />
    <glyph glyph-name="glyph409" 
 />
    <glyph glyph-name="glyph410" 
 />
    <glyph glyph-name="glyph411" 
 />
    <glyph glyph-name="glyph412" 
 />
    <glyph glyph-name="glyph413" 
 />
    <glyph glyph-name="glyph414" 
 />
    <glyph glyph-name="glyph415" 
 />
    <glyph glyph-name="glyph416" 
 />
    <glyph glyph-name="glyph417" 
 />
    <glyph glyph-name="glyph418" 
 />
    <glyph glyph-name="glyph419" 
 />
    <glyph glyph-name="glyph420" 
 />
    <glyph glyph-name="glyph421" 
 />
    <glyph glyph-name="glyph422" 
 />
    <glyph glyph-name="glyph423" 
 />
    <glyph glyph-name="glyph424" 
 />
    <glyph glyph-name="glyph425" 
 />
    <glyph glyph-name="glyph426" 
 />
    <glyph glyph-name="glyph427" 
 />
    <glyph glyph-name="glyph428" 
 />
    <glyph glyph-name="glyph429" 
 />
    <glyph glyph-name="glyph430" 
 />
    <glyph glyph-name="glyph431" 
 />
    <glyph glyph-name="glyph432" 
 />
    <glyph glyph-name="glyph433" 
 />
    <glyph glyph-name="glyph434" 
 />
    <glyph glyph-name="glyph435" 
 />
    <glyph glyph-name="glyph436" 
 />
    <glyph glyph-name="glyph437" 
 />
    <glyph glyph-name="glyph438" 
 />
    <glyph glyph-name="glyph439" 
 />
    <glyph glyph-name="glyph440" 
 />
    <glyph glyph-name="glyph441" 
 />
    <glyph glyph-name="glyph442" 
 />
    </font>
</defs>
</svg>
