<?xml version="1.0" standalone="no"?>
<!DOCTYPE svg PUBLIC "-//W3C//DTD SVG 1.1//EN" "http://www.w3.org/Graphics/SVG/1.1/DTD/svg11.dtd" >
<svg xmlns="http://www.w3.org/2000/svg" xmlns:xlink="http://www.w3.org/1999/xlink" version="1.1">
<metadata></metadata>
<defs>
<font id="tradegothicbold" horiz-adv-x="909" >
<font-face units-per-em="2048" ascent="1638" descent="-410" />
<missing-glyph horiz-adv-x="454" />
<glyph horiz-adv-x="0" />
<glyph unicode="&#xd;" horiz-adv-x="454" />
<glyph unicode=" "  horiz-adv-x="454" />
<glyph unicode="&#x09;" horiz-adv-x="454" />
<glyph unicode="&#xa0;" horiz-adv-x="454" />
<glyph unicode="!" horiz-adv-x="569" d="M156 1479l45 -1045h168l45 1045h-258zM164 0h242v242h-242v-242z" />
<glyph unicode="&#x22;" horiz-adv-x="681" d="M82 918h192v561h-192v-561zM408 918h192v561h-192v-561z" />
<glyph unicode="#" d="M20 438h136l-52 -438h187l49 438h166l-51 -438h184l49 438h148v160h-127l32 283h148v159h-131l51 439h-182l-52 -439h-165l51 439h-182l-52 -439h-155v-159h135l-31 -283h-156v-160zM360 598l33 283h164l-33 -283h-164z" />
<glyph unicode="$" d="M61 231q55 -86 140.5 -153.5t191.5 -77.5v-238h123v238q80 6 142.5 41t104.5 88t63.5 121.5t21.5 146.5q0 86 -27.5 152.5t-74 120t-105.5 98.5t-125 86v424q47 -10 77 -45t52 -74l156 133q-51 72 -125 121t-160 66v180h-123v-180q-76 -10 -133 -44t-97 -84.5t-60.5 -115 t-20.5 -135.5q0 -74 26.5 -136.5t69.5 -113.5t99.5 -93t115.5 -79v-481q-59 16 -100 63t-62 100zM291 1126q0 53 27.5 94.5t74.5 57.5v-356q-47 43 -74.5 90t-27.5 114zM516 197v403q51 -47 83 -92t32 -121q0 -72 -25.5 -119t-89.5 -71z" />
<glyph unicode="%" horiz-adv-x="1593" d="M102 1143q0 -70 27 -131.5t72 -106.5t106.5 -71.5t130.5 -26.5q70 0 131.5 26.5t106.5 71.5t71.5 106.5t26.5 131.5t-26.5 131t-71.5 106t-106.5 72t-131.5 27t-131 -27t-106 -72t-72 -106t-27 -131zM266 1143q0 72 50.5 122t121.5 50q72 0 122 -50.5t50 -121.5 q0 -72 -50 -122t-122 -50t-122 50t-50 122zM303 -20h154l837 1519h-153zM819 336q0 -70 26.5 -131.5t72 -106.5t106.5 -71.5t131 -26.5t131.5 26.5t106.5 71.5t71.5 106.5t26.5 131.5t-26.5 131t-71.5 106t-106.5 72t-131.5 27t-131 -27t-106.5 -72t-72 -106t-26.5 -131z M983 336q0 72 50 122t122 50t122 -50t50 -122t-50 -122t-122 -50t-122 50t-50 122z" />
<glyph unicode="&#x26;" horiz-adv-x="1138" d="M106 326q0 -78 26 -141.5t72 -108.5t111.5 -70.5t145.5 -25.5q96 0 162.5 26.5t128.5 85.5q119 -109 286 -112v225q-39 6 -75.5 24.5t-65.5 44.5q41 96 79 190.5t60 197.5l-209 55q-16 -72 -39.5 -139.5t-50.5 -135.5q-53 70 -99 146t-85 155q43 47 88 97.5t82 105.5 t60.5 115.5t23.5 130.5q0 139 -80 223t-221 84q-80 0 -140.5 -26.5t-100.5 -72.5t-60.5 -109.5t-20.5 -139.5q0 -98 38 -207.5t79 -200.5q-78 -84 -136.5 -192.5t-58.5 -224.5zM340 358q0 59 15.5 96.5t47.5 86.5q41 -82 92.5 -155t110.5 -142q-29 -25 -54.5 -34t-62.5 -9 q-66 0 -107.5 45.5t-41.5 111.5zM393 1206q0 70 26.5 108t74.5 38q45 0 68.5 -37t23.5 -123q0 -78 -39 -144.5t-84 -125.5q-27 66 -48.5 139t-21.5 145z" />
<glyph unicode="'" horiz-adv-x="454" d="M131 918h193v561h-193v-561z" />
<glyph unicode="(" horiz-adv-x="569" d="M66 662q0 -227 64.5 -444.5t176.5 -393.5h197q-117 180 -179.5 394t-62.5 444q0 229 62.5 443t179.5 394h-197q-113 -176 -177 -393t-64 -444z" />
<glyph unicode=")" horiz-adv-x="569" d="M66 -176h196q113 176 177.5 393t64.5 445q0 227 -64.5 444t-177.5 393h-196q117 -180 179 -394t62 -443t-62.5 -443.5t-178.5 -394.5z" />
<glyph unicode="*" d="M86 1139q78 -4 154.5 -14.5t154.5 -20.5q-53 -59 -109.5 -114.5t-117.5 -104.5l162 -113q27 74 59.5 144.5t65.5 142.5q33 -72 65.5 -142.5t59.5 -144.5l161 113q-61 49 -117.5 104t-109.5 115q78 10 154.5 20.5t154.5 14.5l-61 182q-123 -74 -260 -137q6 76 19.5 149.5 t29.5 145.5h-193q16 -72 29.5 -145.5t20.5 -149.5q-137 63 -261 137z" />
<glyph unicode="+" horiz-adv-x="1228" d="M96 418h418v-418h201v418h418v200h-418v418h-201v-418h-418v-200z" />
<glyph unicode="," horiz-adv-x="454" d="M98 -254h109l141 254v242h-242v-242h93z" />
<glyph unicode="-" horiz-adv-x="681" d="M90 457h502v188h-502v-188z" />
<glyph unicode="." horiz-adv-x="454" d="M106 0h242v242h-242v-242z" />
<glyph unicode="/" horiz-adv-x="569" d="M-43 -20h201l454 1519h-200z" />
<glyph unicode="0" d="M94 385q0 -211 84 -308t277 -97t276.5 97t83.5 308v709q0 211 -84 308t-276 97q-193 0 -277 -97t-84 -308v-709zM336 322v835q0 141 119 141t118 -141v-835q0 -141 -118 -142q-119 0 -119 142z" />
<glyph unicode="1" d="M162 1171h200v-1171h230v1499h-129q-63 -53 -139 -100t-162 -90v-138z" />
<glyph unicode="2" d="M90 0h707v209h-449q150 209 242 352.5t143 250t68.5 189t17.5 170.5q0 63 -24.5 123t-69.5 106t-108.5 72.5t-141.5 26.5q-90 0 -159.5 -29.5t-117.5 -82t-74 -122t-26 -151.5v-70h242v101q0 68 30.5 110.5t92.5 42.5q53 0 84 -39.5t31 -128.5q0 -82 -32 -173 t-93.5 -201.5t-152.5 -247.5t-210 -309v-199z" />
<glyph unicode="3" d="M94 340q0 -190 90 -275t248 -85q190 0 279.5 105t89.5 329q0 76 -7.5 131t-28 98t-56 76t-91.5 61q98 53 129 132t31 208q0 74 -20.5 142.5t-62.5 121t-103.5 84t-142.5 31.5q-84 0 -147.5 -25.5t-109 -71.5t-68 -108.5t-22.5 -138.5v-70h230v62q0 88 30.5 119.5 t83.5 31.5q57 0 80 -46t23 -150q0 -66 -11.5 -110t-36 -69.5t-64.5 -35.5t-95 -10v-201q117 0 167 -44t50 -165v-113q0 -92 -32.5 -133t-88.5 -41q-59 0 -86.5 39t-27.5 109v100h-230v-88z" />
<glyph unicode="4" d="M33 356h442v-356h234v356h135v189h-135v934h-246l-430 -934v-189zM227 545l248 577h4v-577h-252z" />
<glyph unicode="5" d="M102 315q0 -92 28 -156.5t77 -104.5t115.5 -57t144.5 -17q184 0 264 112.5t80 345.5v205q0 186 -61.5 287.5t-208.5 101.5q-59 0 -103.5 -14t-91.5 -72l-4 4l14 320h400l8 209h-617q0 -131 -2 -234.5t-4 -191.5t-6 -168t-6 -166h197q16 47 46.5 79.5t90.5 32.5 q43 0 74.5 -31.5t31.5 -103.5v-336q0 -100 -32.5 -140t-92.5 -40q-51 0 -81.5 35t-30.5 94v119h-230v-113z" />
<glyph unicode="6" d="M94 385q0 -211 84 -308t277 -97t276.5 107.5t83.5 342.5v176q0 82 -21.5 139.5t-58.5 94.5t-86 53t-104 16q-39 0 -66.5 -6t-51.5 -18.5t-45.5 -30.5t-45.5 -43v346q0 141 119 141q109 0 108 -141v-76h221v90q0 70 -23.5 131.5t-66.5 105.5t-103.5 68.5t-135.5 22.5 q-193 0 -277 -97t-84 -308v-709zM336 322v319q23 18 59.5 43t71.5 25q47 0 76.5 -35t29.5 -107v-245q0 -141 -118 -142q-119 0 -119 142z" />
<glyph unicode="7" d="M115 1270h424l-297 -1270h239l301 1335v144h-667v-209z" />
<glyph unicode="8" d="M94 410q0 -211 90 -320.5t271 -109.5q180 0 270 109.5t90 320.5q0 135 -29.5 227t-123.5 151q68 49 100.5 129t32.5 166q0 215 -92.5 315.5t-247.5 100.5q-158 0 -249 -100.5t-91 -315.5q0 -86 32.5 -165.5t100.5 -129.5q-94 -59 -124 -151t-30 -227zM324 426 q0 117 28.5 181.5t102.5 64.5t102.5 -64.5t28.5 -181.5t-28.5 -181.5t-102.5 -64.5t-102.5 64.5t-28.5 181.5zM344 1096q0 109 25.5 155.5t85.5 46.5q59 0 84.5 -47t25.5 -155q0 -109 -25.5 -156t-84.5 -47t-85 47t-26 156z" />
<glyph unicode="9" d="M94 872q0 -82 21.5 -139t58.5 -94t86 -53.5t105 -16.5q39 0 66.5 6.5t51 18.5t45 30.5t45.5 43.5v-346q0 -141 -118 -142q-109 0 -109 142v75h-221v-90q0 -72 23.5 -132t66.5 -104t103.5 -69t136.5 -22q193 0 276.5 97t83.5 308v709q0 211 -84 308t-276 97 q-193 0 -277 -107.5t-84 -342.5v-177zM336 911v246q0 141 119 141t118 -141v-319q-23 -18 -59.5 -43t-71.5 -25q-47 0 -76.5 35t-29.5 106z" />
<glyph unicode=":" horiz-adv-x="454" d="M106 0h242v242h-242v-242zM106 569h242v242h-242v-242z" />
<glyph unicode=";" horiz-adv-x="454" d="M98 -254h109l141 254v242h-242v-242h93zM106 569h242v242h-242v-242z" />
<glyph unicode="&#x3c;" horiz-adv-x="1228" d="M96 432l1037 -432v213l-748 305l748 305v213l-1037 -432v-172z" />
<glyph unicode="=" horiz-adv-x="1228" d="M96 205h1037v201h-1037v-201zM96 631h1037v200h-1037v-200z" />
<glyph unicode="&#x3e;" horiz-adv-x="1228" d="M96 0l1037 432v172l-1037 432v-213l748 -305l-748 -305v-213z" />
<glyph unicode="?" horiz-adv-x="796" d="M66 1229l196 -74q6 27 18.5 54.5t30 50t41 37t56.5 14.5q39 0 62.5 -28t23.5 -64q0 -57 -33 -121t-74 -137q-41 -74 -73.5 -161t-32.5 -194v-172h196v111q0 68 11.5 121t29 96t40 77.5t46.5 67.5q25 33 47.5 66t40 69.5t28.5 80.5t11 102q0 59 -24.5 109t-65.5 87 t-94 57.5t-111 20.5q-147 0 -235 -67.5t-135 -202.5zM254 0h242v242h-242v-242z" />
<glyph unicode="@" horiz-adv-x="1638" d="M82 739q0 -172 60.5 -311t167 -239.5t247.5 -154.5t305 -54q193 0 353.5 85t265.5 244h-170q-82 -82 -194.5 -126t-242.5 -44q-133 0 -243.5 44t-192.5 123t-127 188.5t-45 240.5q0 129 42 239.5t119 191.5t184.5 127t238.5 46q115 0 214 -32.5t173 -96t117 -158 t43 -216.5q0 -82 -21.5 -151t-55.5 -119t-76 -77.5t-85 -27.5q-20 0 -26.5 16.5t-6.5 38.5q0 20 5.5 41t9.5 39l129 526h-166l-33 -106q-41 68 -102.5 100.5t-137.5 32.5q-100 0 -181 -44t-138 -117t-89 -166t-32 -189q0 -70 25.5 -132.5t68.5 -108.5t100.5 -72.5 t123.5 -26.5q61 0 120.5 32.5t100.5 80.5l4 -3q4 -57 37 -83.5t80 -26.5q55 0 141 32.5t167 103.5t139 181.5t58 268.5q0 139 -58 253.5t-156.5 195.5t-225.5 126t-264 45q-160 0 -300 -56.5t-244.5 -157.5t-165 -240.5t-60.5 -305.5zM596 659q0 51 18.5 104.5t52 98.5 t81 74t102.5 29q70 0 114 -51.5t44 -127.5q0 -53 -18.5 -107t-51.5 -99t-80 -74t-102 -29q-72 0 -116 52.5t-44 129.5z" />
<glyph unicode="A" d="M25 0h245l45 328h279l45 -328h246l-273 1479h-315zM352 549l101 635h4l100 -635h-205z" />
<glyph unicode="B" horiz-adv-x="1024" d="M123 0h401q109 0 184.5 33t123 90t69 135t21.5 170q0 143 -53.5 225t-151.5 125q45 18 78.5 51t55 74t32 89t10.5 95q0 190 -94 291t-299 101h-377v-1479zM377 209v455h82q115 0 162 -56.5t47 -171.5q0 -113 -41 -170t-144 -57h-106zM377 872v398h96q166 0 166 -209 q0 -92 -49 -140.5t-121 -48.5h-92z" />
<glyph unicode="C" horiz-adv-x="1024" d="M123 358q0 -78 23.5 -147.5t71.5 -120.5t121 -80.5t173 -29.5q94 0 166 29.5t118 80.5t69.5 121t23.5 147v170h-254v-178q0 -72 -26.5 -110.5t-96.5 -38.5q-78 0 -106.5 40t-28.5 124v749q0 84 28.5 124t106.5 40q49 0 86 -42t37 -136v-115h254v109q0 82 -23.5 155.5 t-69.5 129t-118 88t-166 32.5q-100 0 -173 -29.5t-121 -81t-71.5 -121t-23.5 -147.5v-762z" />
<glyph unicode="D" horiz-adv-x="1024" d="M123 0h377q199 0 300 108.5t101 337.5v586q0 229 -101.5 338t-299.5 109h-377v-1479zM377 209v1061h88q102 0 142 -45t40 -162v-647q0 -117 -40 -162t-142 -45h-88z" />
<glyph unicode="E" d="M123 0h708v221h-454v434h328v222h-328v380h426v222h-680v-1479z" />
<glyph unicode="F" d="M123 0h254v655h340v222h-340v380h454v222h-708v-1479z" />
<glyph unicode="G" horiz-adv-x="1024" d="M123 358q0 -178 94 -278t246 -100q90 0 144.5 31.5t111.5 99.5l47 -111h123v750h-416v-201h162v-143q0 -111 -31 -158t-108 -47q-66 0 -92.5 42t-26.5 113v760q0 94 32.5 128t79.5 34q37 0 65 -12.5t46 -44t26.5 -86t8.5 -136.5h242v95q0 82 -24 155.5t-72 129t-119.5 88 t-165.5 32.5t-164 -29.5t-116 -81t-69.5 -121t-23.5 -147.5v-762z" />
<glyph unicode="H" horiz-adv-x="1024" d="M123 0h254v655h270v-655h254v1479h-254v-602h-270v602h-254v-1479z" />
<glyph unicode="I" horiz-adv-x="569" d="M158 0h254v1479h-254v-1479z" />
<glyph unicode="J" horiz-adv-x="569" d="M6 -20h84q104 0 174 22.5t110 64.5t56 99t16 129v1184h-253v-1155q0 -61 -30 -92t-104 -31h-53v-221z" />
<glyph unicode="K" d="M111 0h254v524l90 164h4l207 -688h258l-310 928l275 551h-254l-266 -547h-4v547h-254v-1479z" />
<glyph unicode="L" horiz-adv-x="796" d="M111 0h653v221h-399v1258h-254v-1479z" />
<glyph unicode="M" horiz-adv-x="1251" d="M109 0h221v1155h4l229 -1155h123l229 1155h5v-1155h221v1479h-334l-180 -865h-4l-181 865h-333v-1479z" />
<glyph unicode="N" horiz-adv-x="1024" d="M123 0h229v924h4l324 -924h221v1479h-229v-846h-4l-310 846h-235v-1479z" />
<glyph unicode="O" horiz-adv-x="1024" d="M123 358q0 -78 23.5 -147.5t71.5 -120.5t121 -80.5t173 -29.5t173 29.5t121 80.5t71.5 121t23.5 147v762q0 78 -23.5 147.5t-71.5 121t-121 81t-173 29.5t-173 -29.5t-121 -81t-71.5 -121t-23.5 -147.5v-762zM377 365v749q0 84 28.5 124t106.5 40t106.5 -40t28.5 -124 v-749q0 -84 -28.5 -124t-106.5 -40t-106.5 40t-28.5 124z" />
<glyph unicode="P" horiz-adv-x="1024" d="M123 0h254v606h110q117 0 204 23.5t143.5 76t84 135.5t27.5 201q0 236 -111.5 336.5t-347.5 100.5h-364v-1479zM377 815v455h98q61 0 103.5 -11.5t68 -37t35.5 -69.5t10 -110t-10 -109.5t-35.5 -70t-67.5 -37t-104 -10.5h-98z" />
<glyph unicode="Q" horiz-adv-x="1024" d="M123 358q0 -78 23.5 -147.5t71.5 -120.5t121 -80.5t173 -29.5q123 0 207 47q33 -45 64.5 -73t62.5 -42t63.5 -18.5t67.5 -4.5v222q-20 2 -48 11t-71 46q43 82 43 190v762q0 78 -23.5 147.5t-71.5 121t-121 81t-173 29.5t-173 -29.5t-121 -81t-71.5 -121t-23.5 -147.5 v-762zM377 365v749q0 84 28.5 124t106.5 40t106.5 -40t28.5 -124v-676q-37 41 -66.5 60.5t-50.5 29.5v-225q12 -10 28.5 -24.5t39.5 -55.5q-28 -22 -81 -22h-5q-78 0 -106.5 40t-28.5 124z" />
<glyph unicode="R" horiz-adv-x="1024" d="M123 0h254v606q35 0 70.5 1t60.5 5l180 -612h258l-215 670q33 14 64.5 40.5t57.5 70.5t41 107.5t15 153.5q0 236 -108.5 336.5t-321.5 100.5h-356v-1479zM377 815v455h90q102 0 145 -48t43 -180q0 -66 -10 -109.5t-32.5 -70t-58.5 -37t-87 -10.5h-90z" />
<glyph unicode="S" d="M57 389q4 -84 31 -157.5t75 -130t117.5 -89t157.5 -32.5t163 24.5t127 72.5t82 118.5t30 162.5q0 100 -38 179t-95.5 145t-125 120t-125 107.5t-95 106.5t-37.5 117q0 70 32.5 107.5t94.5 37.5q20 0 42.5 -8t42 -26.5t33 -50.5t17.5 -79l241 27q-8 78 -35.5 143.5 t-71.5 113.5t-105.5 74.5t-139.5 26.5q-188 0 -290.5 -95t-102.5 -274q0 -106 38 -186t95 -143.5t125 -116.5t125 -106.5t95 -110.5t38 -131q0 -66 -41 -100.5t-106 -34.5q-61 0 -102.5 55t-49.5 168z" />
<glyph unicode="T" horiz-adv-x="796" d="M25 1257h245v-1257h254v1257h246v222h-745v-222z" />
<glyph unicode="U" horiz-adv-x="1024" d="M123 373q0 -193 103.5 -293t285.5 -100t285.5 100t103.5 293v1106h-254v-1117q0 -161 -133 -161h-2q-135 0 -135 161v1117h-254v-1106z" />
<glyph unicode="V" d="M18 1479l310 -1479h254l309 1479h-250l-184 -1026h-4l-185 1026h-250z" />
<glyph unicode="W" horiz-adv-x="1366" d="M0 1479l281 -1479h213l172 977h4l184 -977h213l260 1479h-237l-142 -942h-4l-172 942h-209l-166 -942h-4l-155 942h-238z" />
<glyph unicode="X" d="M29 0h250l176 539h4l172 -539h250l-287 774l256 705h-250l-141 -469h-4l-156 469h-250l270 -705z" />
<glyph unicode="Y" d="M20 1479l308 -865v-614h254v614l307 865h-258l-170 -564h-4l-178 564h-259z" />
<glyph unicode="Z" d="M90 0h729v221h-467l467 1016v242h-672v-222h416l-473 -1015v-242z" />
<glyph unicode="[" horiz-adv-x="569" d="M74 -156h438v99h-242v1437h242v99h-438v-1635z" />
<glyph unicode="\" horiz-adv-x="569" d="M-43 1499l455 -1519h200l-454 1519h-201z" />
<glyph unicode="]" horiz-adv-x="569" d="M57 -57v-99h439v1635h-439v-99h242v-1437h-242z" />
<glyph unicode="^" horiz-adv-x="1228" d="M115 618h219l278 619l279 -619h223l-389 861h-221z" />
<glyph unicode="_" horiz-adv-x="1024" d="M0 -154v-102h1024v102h-1024z" />
<glyph unicode="`" horiz-adv-x="454" d="M-66 1528l269 -295h170l-162 295h-277z" />
<glyph unicode="a" d="M70 227q0 -106 58 -176.5t175 -70.5q84 0 143.5 26.5t124.5 79.5q2 -20 6.5 -41.5t6.5 -44.5h219q-4 29 -9.5 59.5t-5.5 57.5v706q0 152 -87 225.5t-246 73.5q-162 0 -260.5 -88t-108.5 -256h229q4 72 29 114t102 42q113 0 113 -141v-66q-123 -47 -215 -97t-153.5 -109.5 t-91 -131.5t-29.5 -162zM299 268q0 37 11.5 70t40 67.5t79.5 71.5t129 82v-289q-29 -41 -67.5 -71.5t-85.5 -30.5q-53 0 -80 23.5t-27 76.5z" />
<glyph unicode="b" d="M111 0h217v115h4q57 -72 108.5 -103.5t137.5 -31.5q109 0 171 77.5t62 229.5v528q0 152 -62.5 229.5t-170.5 77.5q-37 0 -67 -7t-56.5 -22.5t-54 -37t-60.5 -47.5v471h-229v-1479zM340 225v652q35 25 65.5 41t65.5 16q23 0 43.5 -7t35.5 -27.5t23.5 -54.5t8.5 -89v-410 q0 -55 -8.5 -89t-23.5 -54.5t-35.5 -27.5t-43.5 -7q-35 0 -65.5 16.5t-65.5 40.5z" />
<glyph unicode="c" d="M98 389q0 -90 18.5 -166t61.5 -130t110.5 -83.5t166.5 -29.5q98 0 165.5 29.5t110.5 83.5t61.5 130t18.5 166v29h-229v-70q0 -96 -33 -138t-94 -42t-94 42t-33 138v406q0 96 32.5 138t94.5 42q61 0 94 -42t33 -138v-29h229q-2 88 -21.5 162t-61.5 126t-109.5 80.5 t-163.5 28.5q-98 0 -166 -29.5t-111 -84t-61.5 -130t-18.5 -165.5v-324z" />
<glyph unicode="d" d="M98 287q0 -152 62.5 -229.5t171.5 -77.5q86 0 137 31.5t109 103.5h4v-115h217v1479h-230v-471q-35 27 -61.5 48t-53 36.5t-56 22.5t-66.5 7q-109 0 -171.5 -77.5t-62.5 -229.5v-528zM328 346v410q0 109 31.5 143.5t78.5 34.5q35 0 66 -16.5t65 -40.5v-652 q-35 -25 -65.5 -41t-65.5 -16q-47 0 -78.5 35t-31.5 143z" />
<glyph unicode="e" d="M98 389q0 -90 18.5 -166t61.5 -130t110.5 -83.5t166.5 -29.5q96 0 162.5 28.5t109.5 80.5t62.5 124t21.5 160h-229v-25q0 -96 -33 -138t-94 -42t-94 42t-33 138v160h483v205q0 90 -18.5 165.5t-61.5 130t-110.5 84t-165.5 29.5t-166 -29.5t-111 -84t-61.5 -130 t-18.5 -165.5v-324zM328 696v58q0 96 32.5 138t94.5 42q61 0 94 -42t33 -138v-58h-254z" />
<glyph unicode="f" horiz-adv-x="569" d="M20 913h136v-913h229v913h131v189h-131v135q0 41 17.5 57.5t58.5 16.5h65v188h-114q-123 0 -189.5 -62.5t-66.5 -197.5v-137h-136v-189z" />
<glyph unicode="g" d="M37 -172q0 -86 95 -131t269 -45q223 0 347 60.5t124 201.5q0 96 -44 147.5t-109.5 75t-141 26.5t-141 6t-109.5 14.5t-44 47.5q0 20 13 34t32 18h73q88 0 154 21.5t109 73.5t64.5 136t21.5 211q0 35 -6.5 83t-18.5 91q25 20 52.5 27.5t58.5 7.5h18t18 -2v190 q-37 0 -61.5 -6t-45 -19.5t-39.5 -37t-42 -55.5q-53 63 -116.5 90.5t-137.5 27.5q-96 0 -163.5 -20.5t-110.5 -68.5t-62.5 -126t-19.5 -190q0 -96 7 -158.5t23.5 -105.5t45 -72t71.5 -59q-23 -12 -47 -32t-44.5 -42.5t-34 -49t-13.5 -55.5q0 -53 28.5 -86.5t75.5 -52.5v-4 q-59 -14 -104 -60t-45 -112zM279 -102q0 43 39.5 62.5t154.5 19.5t155 -19.5t40 -62.5t-40 -62.5t-155 -19.5t-154.5 19.5t-39.5 62.5zM291 702q0 70 7 115t22.5 70.5t36 36t49.5 10.5q33 0 55 -10.5t35.5 -36t18.5 -70.5t5 -115t-5 -114.5t-18.5 -70t-35.5 -36t-55 -10.5 q-29 0 -49.5 10.5t-36 36t-22.5 70.5t-7 114z" />
<glyph unicode="h" d="M111 0h229v864q41 29 76 49.5t71 20.5q37 0 59.5 -19.5t22.5 -60.5v-854h230v891q0 109 -50.5 170t-142.5 61q-49 0 -86 -9t-65.5 -24.5t-56 -39t-58.5 -50.5v480h-229v-1479z" />
<glyph unicode="i" horiz-adv-x="454" d="M113 0h229v1102h-229v-1102zM113 1270h229v209h-229v-209z" />
<glyph unicode="j" horiz-adv-x="454" d="M0 -139v-209h88q53 0 101.5 13t85 46t58 88.5t21.5 137.5v1163h-229v-1153q0 -37 -19.5 -61.5t-66.5 -24.5h-39zM125 1270h229v209h-229v-209z" />
<glyph unicode="k" d="M111 0h229v385l109 162h4l184 -547h231l-266 754l240 348h-246l-252 -389h-4v766h-229v-1479z" />
<glyph unicode="l" horiz-adv-x="454" d="M113 0h229v1479h-229v-1479z" />
<glyph unicode="m" horiz-adv-x="1366" d="M111 0h229v864q41 29 76 49.5t71 20.5q35 0 57.5 -19.5t22.5 -60.5v-854h230v864q39 29 73.5 49.5t71.5 20.5q35 0 58.5 -19.5t23.5 -60.5v-854h229v891q0 109 -53 170t-162 61q-31 0 -59.5 -5t-58 -20.5t-63.5 -41t-75 -64.5q-37 68 -75.5 99.5t-124.5 31.5 q-41 0 -72 -9t-59.5 -25.5t-57 -41t-65.5 -55.5v111h-217v-1102z" />
<glyph unicode="n" d="M111 0h229v864q41 29 76 49.5t71 20.5q37 0 59.5 -19.5t22.5 -60.5v-854h230v891q0 109 -50.5 170t-142.5 61q-49 0 -86 -9t-67.5 -25.5t-59 -41t-65.5 -55.5v111h-217v-1102z" />
<glyph unicode="o" d="M98 389q0 -90 18.5 -166t61.5 -130t110.5 -83.5t166.5 -29.5q98 0 165.5 29.5t110.5 83.5t61.5 130t18.5 166v324q0 90 -18.5 165.5t-61.5 130t-110.5 84t-165.5 29.5t-166 -29.5t-111 -84t-61.5 -130t-18.5 -165.5v-324zM328 348v406q0 96 32.5 138t94.5 42q61 0 94 -42 t33 -138v-406q0 -96 -33 -138t-94 -42t-94 42t-33 138z" />
<glyph unicode="p" d="M111 -348h229v442q33 -29 60.5 -49t54 -35.5t56.5 -22.5t67 -7q109 0 171 77.5t62 229.5v528q0 152 -62.5 229.5t-170.5 77.5q-86 0 -137.5 -31.5t-108.5 -103.5h-4v115h-217v-1450zM340 225v652q35 25 65.5 41t65.5 16q23 0 43.5 -7t35.5 -27.5t23.5 -54.5t8.5 -89v-410 q0 -55 -8.5 -89t-23.5 -54.5t-35.5 -27.5t-43.5 -7q-35 0 -65.5 16.5t-65.5 40.5z" />
<glyph unicode="q" d="M98 287q0 -152 62.5 -229.5t171.5 -77.5q37 0 66.5 7t56 22.5t53.5 36t61 48.5v-442h230v1450h-217v-115h-4q-57 72 -108.5 103.5t-137.5 31.5q-109 0 -171.5 -77.5t-62.5 -229.5v-528zM328 346v410q0 109 31.5 143.5t78.5 34.5q35 0 66 -16.5t65 -40.5v-652 q-35 -25 -65.5 -41t-65.5 -16q-47 0 -78.5 35t-31.5 143z" />
<glyph unicode="r" horiz-adv-x="681" d="M111 0h229v758q0 74 47 110.5t107 36.5q51 0 83.5 -7t63.5 -15v239h-47q-82 0 -150.5 -39t-109.5 -110h-4v129h-219v-1102z" />
<glyph unicode="s" horiz-adv-x="796" d="M55 287q27 -145 113 -226t238 -81q70 0 129 18t102 56t66.5 93.5t23.5 128.5q0 82 -31.5 144.5t-80 111t-103.5 88t-103.5 75.5t-80 72t-31.5 79t27.5 65.5t72.5 22.5q106 0 131 -137l195 32q-27 129 -114 211t-222 82q-66 0 -121 -21.5t-97 -60.5t-65.5 -93t-23.5 -120 q0 -76 31.5 -133t80 -104t103.5 -86t103 -76t80 -77t32 -87t-28.5 -71.5t-73.5 -24.5q-78 0 -110 52t-42 122z" />
<glyph unicode="t" horiz-adv-x="569" d="M20 913h127v-686q0 -127 70 -187t199 -60q43 0 67.5 3t46.5 9v196h-75q-78 0 -78 91v634h153v189h-153v297h-230v-297h-127v-189z" />
<glyph unicode="u" d="M111 211q0 -109 50 -170t142 -61q49 0 86 9t67.5 25.5t59.5 41t66 55.5v-111h217v1102h-230v-864q-41 -29 -75.5 -49.5t-71.5 -20.5t-59.5 19.5t-22.5 60.5v854h-229v-891z" />
<glyph unicode="v" horiz-adv-x="796" d="M20 1102l267 -1102h223l266 1102h-233l-144 -737h-4l-141 737h-234z" />
<glyph unicode="w" horiz-adv-x="1138" d="M12 1102l213 -1102h185l149 696h4l125 -696h184l254 1102h-221l-125 -688h-4l-123 686h-170l-145 -686h-4l-101 688h-221z" />
<glyph unicode="x" horiz-adv-x="796" d="M25 0h237l133 373h4l133 -373h238l-250 588l238 514h-238l-123 -307l-116 307h-238l227 -518z" />
<glyph unicode="y" horiz-adv-x="796" d="M20 1102l240 -936q10 -41 17.5 -76t7.5 -70q0 -88 -33 -133t-119 -45h-55v-188h96q63 0 113.5 13.5t89.5 44t65.5 80.5t44.5 126l289 1184h-231l-139 -705h-5l-147 705h-234z" />
<glyph unicode="z" horiz-adv-x="796" d="M61 0h674v188h-428l428 725v189h-645v-189h391l-420 -725v-188z" />
<glyph unicode="{" horiz-adv-x="569" d="M0 606q45 0 80 -39t35 -125v-422q0 -98 45 -147t168 -49h225v98h-168q-41 0 -57.5 27.5t-16.5 75.5v397q0 68 -17.5 112t-42 71.5t-51 39.5t-44.5 17v6q18 2 44.5 15t51 41t42 72t17.5 105v397q0 47 16.5 75t57.5 28h168v98h-225q-123 0 -168 -49t-45 -147v-414 q0 -86 -35 -125t-80 -39v-119z" />
<glyph unicode="|" horiz-adv-x="454" d="M127 -20h201v1519h-201v-1519z" />
<glyph unicode="}" horiz-adv-x="569" d="M16 -78v-98h226q123 0 168 49t45 147v414q0 86 34.5 125t79.5 39v119q-45 0 -79.5 39t-34.5 125v422q0 98 -45 147t-168 49h-226v-98h168q41 0 57.5 -27.5t16.5 -75.5v-397q0 -68 17.5 -112t42 -71.5t51 -40.5t45.5 -15v-7q-18 -2 -45 -15t-51.5 -41t-42 -72t-17.5 -105 v-397q0 -47 -16.5 -75t-57.5 -28h-168z" />
<glyph unicode="~" horiz-adv-x="1228" d="M125 526l90 -176q25 47 64.5 89t107.5 42q72 0 132.5 -19.5t103.5 -43.5q51 -29 101 -48.5t107 -19.5q47 0 85 15.5t70 39t60.5 51t57.5 54.5l-90 176q-35 -47 -77 -89t-103 -42q-53 0 -102.5 20.5t-106.5 45.5q-59 27 -116.5 46t-111.5 19q-51 0 -92 -15.5t-72.5 -39 t-58.5 -51t-49 -54.5z" />
<glyph unicode="&#xa1;" horiz-adv-x="569" d="M156 -377h258l-45 1045h-168zM164 860h242v242h-242v-242z" />
<glyph unicode="&#xa2;" d="M78 410q0 -119 34.5 -209t116.5 -142l-82 -297h154l68 246q35 -8 88 -8q104 0 176 29.5t116 84t63 130t19 166.5v28h-229v-69q0 -96 -40 -138.5t-105 -42.5q-41 0 -66 17l187 690q31 -43 30 -121v-29h213q-2 121 -39 210t-120 139l83 307h-151l-72 -262q-16 2 -31.5 3 t-33.5 1q-104 0 -176 -30t-117 -84t-65.5 -130t-20.5 -166v-323zM307 369v405q0 96 42 138t108 42q23 0 32 -2l-165 -649h-5q-4 14 -8 30.5t-4 35.5z" />
<glyph unicode="&#xa3;" d="M72 -20q63 6 117.5 33.5t107.5 64.5q53 -43 118.5 -70.5t143.5 -27.5q131 0 201.5 80.5t70.5 226.5v121h-204q0 -43 -4.5 -83t-15.5 -71t-31.5 -48.5t-53.5 -17.5q-39 0 -75.5 13.5t-67.5 36.5q25 41 38 86t20 95t9.5 108.5t4.5 125.5h184v172h-203q-16 98 -37.5 181.5 t-21.5 173.5q0 131 102 131q33 0 55.5 -10.5t38 -35t22.5 -68.5t11 -112h209q0 213 -81 313.5t-249 100.5q-174 0 -256 -89t-82 -249q0 -63 17.5 -152t40.5 -184h-129v-172h157q0 -111 -6 -189.5t-23.5 -133t-48 -85t-79.5 -46.5v-219z" />
<glyph unicode="&#xa4;" d="M16 408l103 -109l96 98q49 -35 110.5 -54t129.5 -19q66 0 127 19t110 54l99 -98l102 109l-96 94q35 49 55 110.5t20 126.5q0 66 -20.5 127.5t-54.5 110.5l96 94l-102 109l-99 -99q-49 35 -110.5 54.5t-126.5 19.5q-68 0 -129.5 -19.5t-110.5 -54.5l-96 99l-103 -109 l97 -94q-35 -49 -55.5 -110.5t-20.5 -127.5t20.5 -127t55.5 -110zM225 739q0 51 18.5 94.5t49.5 76t73 51t89 18.5t89 -18.5t72.5 -51t49 -75.5t18.5 -95q0 -51 -18.5 -95t-49 -75.5t-72.5 -50t-89 -18.5t-89 18.5t-73 50t-49.5 75.5t-18.5 95z" />
<glyph unicode="&#xa5;" d="M45 1479l186 -521h-178v-172h248l55 -163h-303v-172h303v-451h197v451h303v172h-303l55 163h248v172h-178l186 521h-205l-198 -613h-4l-207 613h-205z" />
<glyph unicode="&#xa6;" horiz-adv-x="454" d="M127 -20h201v626h-201v-626zM127 872h201v627h-201v-627z" />
<glyph unicode="&#xa7;" horiz-adv-x="1024" d="M106 801q0 -68 37 -133.5t93.5 -129t122 -123t122 -115.5t93 -106.5t36.5 -95.5q0 -53 -32.5 -77.5t-85.5 -24.5q-61 0 -99.5 38t-62.5 85l-150 -117q78 -76 157 -121t191 -45q59 0 108.5 20.5t85.5 56.5t56.5 86t20.5 112q0 78 -28 126t-75 95q106 4 164 72.5t58 168.5 q0 70 -37 134.5t-92.5 124t-120 116t-119.5 107.5t-92 98t-37 92q0 94 106 94q51 0 88 -35.5t68 -70.5l141 102q-47 68 -124.5 116t-172.5 48q-150 0 -222.5 -70.5t-72.5 -179.5q0 -66 26 -121t77 -94q-100 -10 -164 -69.5t-64 -163.5zM295 817q0 35 23.5 60.5t66.5 25.5 q23 0 56.5 -21.5t72.5 -56t77 -75.5t68.5 -80t50 -71t19.5 -46q0 -35 -26.5 -62.5t-67.5 -27.5q-20 0 -52 21.5t-70 56t-77 75.5t-70.5 81t-51 72t-19.5 48z" />
<glyph unicode="&#xa8;" horiz-adv-x="454" d="M-45 1257h221v222h-221v-222zM279 1257h221v222h-221v-222z" />
<glyph unicode="&#xa9;" horiz-adv-x="1638" d="M41 739q0 -174 63.5 -314t171 -239.5t248.5 -152.5t295 -53t295 53t248.5 152.5t171 239.5t63.5 314q0 172 -63.5 312.5t-171 240t-248.5 153.5t-295 54t-295 -54t-248.5 -153.5t-171 -240t-63.5 -312.5zM242 739q0 131 45 242t122.5 190.5t183 123.5t226.5 44 q119 0 224.5 -44t184.5 -123.5t124 -190.5t45 -242t-45 -241.5t-124 -190.5t-184.5 -124t-224.5 -44q-121 0 -226.5 44t-183 124t-122.5 190.5t-45 241.5zM414 743q0 -96 30.5 -178t88 -143.5t137.5 -96t178 -34.5q68 0 129 21.5t110.5 63.5t84 101.5t47.5 134.5h-166 q-10 -78 -64.5 -119.5t-140.5 -41.5q-55 0 -99 23.5t-76 63.5t-49.5 94t-17.5 116q0 129 60.5 208.5t177.5 79.5q78 0 135 -39t74 -116h159q-12 78 -44.5 136t-81 98t-111 60.5t-131.5 20.5q-100 0 -180 -34t-135.5 -94t-85 -143t-29.5 -182z" />
<glyph unicode="&#xaa;" horiz-adv-x="544" d="M29 961q0 -66 37.5 -108t113.5 -42q53 0 93 12.5t81 42.5q2 -12 5 -22t3 -21h144q-4 16 -7 35t-3 35v426q0 92 -56.5 136t-160.5 44q-111 0 -177.5 -53t-72.5 -154h159q2 37 17.5 60.5t60.5 23.5q37 0 53.5 -17.5t16.5 -58.5v-38q-152 -57 -229.5 -125t-77.5 -176z M188 987q0 20 5.5 38.5t21.5 37t45 38t76 44.5v-150q-10 -25 -33.5 -43t-54.5 -18q-59 0 -60 53z" />
<glyph unicode="&#xab;" horiz-adv-x="1024" d="M129 553l236 -317h196l-233 315l239 315h-202zM471 553l236 -317h196l-233 315l239 315h-202z" />
<glyph unicode="&#xac;" horiz-adv-x="1228" d="M96 631h836v-428h201v628h-1037v-200z" />
<glyph unicode="&#xad;" horiz-adv-x="681" d="M90 457h502v188h-502v-188z" />
<glyph unicode="&#xae;" horiz-adv-x="1638" d="M41 739q0 -174 63.5 -314t171 -239.5t248.5 -152.5t295 -53t295 53t248.5 152.5t171 239.5t63.5 314q0 172 -63.5 312.5t-171 240t-248.5 153.5t-295 54t-295 -54t-248.5 -153.5t-171 -240t-63.5 -312.5zM242 739q0 131 45 242t122.5 190.5t183 123.5t226.5 44 q119 0 224.5 -44t184.5 -123.5t124 -190.5t45 -242t-45 -241.5t-124 -190.5t-184.5 -124t-224.5 -44q-121 0 -226.5 44t-183 124t-122.5 190.5t-45 241.5zM516 315h168v363h107l190 -363h186l-204 371q41 4 78.5 18.5t65.5 41t44 67.5t16 100q0 139 -85 195.5t-244 56.5 h-322v-850zM684 809v225h137q92 0 133 -23.5t41 -82.5t-36.5 -89t-129.5 -30h-145z" />
<glyph unicode="&#xaf;" horiz-adv-x="454" d="M-74 1305h602v131h-602v-131z" />
<glyph unicode="&#xb0;" horiz-adv-x="819" d="M115 1206q0 -61 22.5 -114.5t62.5 -93.5t94.5 -62.5t115.5 -22.5t115.5 22.5t94 62.5t62.5 93.5t23 114.5t-23 114.5t-62.5 93.5t-94 62.5t-115.5 22.5t-115.5 -22.5t-94.5 -62.5t-62.5 -93t-22.5 -115zM242 1206q0 74 47 126t121 52t121 -52t47 -126t-47 -126t-121 -52 t-121 52.5t-47 125.5z" />
<glyph unicode="&#xb1;" horiz-adv-x="1228" d="M96 0h1037v201h-1037v-201zM96 555h418v-281h201v281h418v201h-418v280h-201v-280h-418v-201z" />
<glyph unicode="&#xb2;" horiz-adv-x="544" d="M29 598h481v164h-258q86 98 138 174t80 138.5t37 117.5t9 111q0 39 -16.5 74.5t-45 62t-69.5 43t-92 16.5q-59 0 -107.5 -17.5t-83 -49t-54 -73.5t-19.5 -91v-41h176v39q0 29 18.5 49t46.5 20q57 0 58 -57q0 -98 -73 -219t-226 -295v-166z" />
<glyph unicode="&#xb3;" horiz-adv-x="544" d="M41 805q0 -117 61.5 -168t165.5 -51q135 0 195.5 64.5t60.5 197.5q0 90 -20.5 138t-87.5 83q59 33 77.5 79t18.5 124q0 45 -14.5 86t-43 72.5t-72.5 50t-103 18.5q-109 0 -170.5 -57.5t-61.5 -149.5v-41h172v35q0 23 12.5 40t38.5 17q29 0 41.5 -22.5t12.5 -58.5 q0 -76 -28 -97.5t-85 -21.5v-152q59 0 88 -19.5t29 -90.5v-52q0 -43 -13.5 -61t-42.5 -18q-55 0 -55 63v43h-176v-51z" />
<glyph unicode="&#xb4;" horiz-adv-x="454" d="M82 1233h170l268 295h-276z" />
<glyph unicode="&#xb5;" d="M111 -348h229v328q39 4 69.5 14t58.5 27.5t54.5 39t59.5 50.5v-111h217v1102h-230v-864q-41 -29 -75.5 -49.5t-71.5 -20.5t-59.5 19.5t-22.5 60.5v854h-229v-1450z" />
<glyph unicode="&#xb6;" horiz-adv-x="1024" d="M12 1094q0 -80 27 -148.5t77 -119t121.5 -78t161.5 -27.5v-885h168v1512h178v-1512h168v1512h115v131h-590q-98 0 -177 -21.5t-134 -68t-85 -120t-30 -175.5z" />
<glyph unicode="&#xb7;" horiz-adv-x="454" d="M90 518q0 -59 39 -98t98 -39q57 0 97.5 39t40.5 98q0 57 -40 97t-98 40q-59 0 -98 -40t-39 -97z" />
<glyph unicode="&#xb8;" horiz-adv-x="454" d="M-18 -436q23 -10 76 -28.5t126 -18.5q49 0 95.5 14t81 41t56 65.5t21.5 88.5q0 39 -16 67.5t-43 47t-60.5 28.5t-66.5 12q-10 0 -21.5 -1t-21.5 -3l84 123h-98l-140 -188l45 -37q20 8 50 12t56.5 -2t45 -22.5t18.5 -47.5q0 -35 -33.5 -59.5t-86.5 -24.5q-29 0 -69 11.5 t-65 23.5z" />
<glyph unicode="&#xb9;" horiz-adv-x="544" d="M86 1284h107v-686h196v901h-100q-41 -35 -92.5 -64.5t-110.5 -52.5v-98z" />
<glyph unicode="&#xba;" horiz-adv-x="544" d="M41 1059q0 -109 52 -178.5t179 -69.5q129 0 180.5 68.5t51.5 179.5v194q0 111 -51.5 178.5t-180.5 67.5q-127 0 -179 -68.5t-52 -177.5v-194zM209 1042v226q0 100 63 100t64 -100v-226q0 -100 -64 -100q-63 0 -63 100z" />
<glyph unicode="&#xbb;" horiz-adv-x="1024" d="M115 866l239 -315l-233 -315h196l236 317l-236 313h-202zM457 866l239 -315l-233 -315h196l236 317l-236 313h-202z" />
<glyph unicode="&#xbc;" horiz-adv-x="1363" d="M102 1284h107v-686h197v899h-101q-41 -33 -92 -62.5t-111 -52.5v-98zM152 -20h186l840 1519h-187zM758 205h291v-205h168v205h77v155h-77v527h-195l-264 -518v-164zM918 360l126 273h5v-273h-131z" />
<glyph unicode="&#xbd;" horiz-adv-x="1363" d="M98 1284h107v-686h196v901h-100q-41 -35 -92 -64.5t-111 -52.5v-98zM135 -20h187l839 1519h-186zM815 0h481v164h-258q86 98 138.5 174t80 138.5t37 117.5t9.5 111q0 39 -16.5 74.5t-45.5 62t-70 43t-92 16.5q-59 0 -107 -17.5t-83 -49t-54.5 -73.5t-19.5 -91v-41h176v39 q0 29 18.5 49t47.5 20q57 0 57 -57q0 -98 -72.5 -219t-226.5 -295v-166z" />
<glyph unicode="&#xbe;" horiz-adv-x="1363" d="M61 805q0 -117 61.5 -168t166.5 -51q135 0 195.5 64.5t60.5 197.5q0 90 -20.5 138t-88.5 83q59 33 77.5 79t18.5 124q0 45 -14 86t-43 72.5t-73 50t-103 18.5q-109 0 -170 -57.5t-61 -149.5v-41h172v35q0 23 12 40t39 17q29 0 41 -22.5t12 -58.5q0 -76 -27.5 -97.5 t-85.5 -21.5v-152q59 0 88 -19.5t29 -90.5v-52q0 -43 -13 -61t-42 -18q-55 0 -55 63v43h-177v-51zM190 -20h187l840 1519h-187zM758 205h291v-205h168v205h77v155h-77v527h-195l-264 -518v-164zM918 360l126 273h5v-273h-131z" />
<glyph unicode="&#xbf;" horiz-adv-x="796" d="M66 -123q0 -59 24.5 -109.5t65.5 -87t94 -57t110 -20.5q147 0 235.5 67.5t135.5 202.5l-196 74q-6 -27 -18.5 -54.5t-30 -50t-41 -37t-56.5 -14.5q-39 0 -62.5 27.5t-23.5 64.5q0 57 33 121t74 137q41 74 73.5 161t32.5 194v172h-197v-111q0 -68 -11 -121t-28.5 -96 t-40 -78t-46.5 -67q-25 -33 -47.5 -66t-40 -69.5t-28.5 -81t-11 -101.5zM301 860h242v242h-242v-242z" />
<glyph unicode="&#xc0;" d="M25 0h245l45 328h279l45 -328h246l-273 1479h-315zM161 1852l269 -295h170l-162 295h-277zM352 549l101 635h4l100 -635h-205z" />
<glyph unicode="&#xc1;" d="M25 0h245l45 328h279l45 -328h246l-273 1479h-315zM309 1557h170l268 295h-276zM352 549l101 635h4l100 -635h-205z" />
<glyph unicode="&#xc2;" d="M25 0h245l45 328h279l45 -328h246l-273 1479h-315zM145 1557h188l121 182l121 -182h189l-197 295h-225zM352 549l101 635h4l100 -635h-205z" />
<glyph unicode="&#xc3;" d="M25 0h245l45 328h279l45 -328h246l-273 1479h-315zM121 1573h114q2 45 20.5 67.5t65.5 22.5q33 0 62.5 -11t60.5 -28q31 -16 63.5 -28t69.5 -12q51 0 87 21.5t60.5 55t40 77.5t23.5 87h-115q-2 -45 -20 -67.5t-66 -22.5q-33 0 -62.5 13.5t-59.5 27.5q-31 14 -64 26.5 t-70 12.5q-51 0 -87.5 -21.5t-61.5 -55.5t-39 -78t-22 -87zM352 549l101 635h4l100 -635h-205z" />
<glyph unicode="&#xc4;" d="M25 0h245l45 328h279l45 -328h246l-273 1479h-315zM182 1581h221v222h-221v-222zM352 549l101 635h4l100 -635h-205zM506 1581h221v222h-221v-222z" />
<glyph unicode="&#xc5;" d="M25 0h245l45 328h279l45 -328h246l-273 1479h-315zM245 1766q0 -43 16.5 -81t45.5 -66.5t66.5 -45t80.5 -16.5t81 16.5t66.5 45t45 66.5t16.5 81t-16.5 81t-45 66.5t-66.5 45t-81 16.5t-80.5 -16.5t-66.5 -45t-45.5 -66.5t-16.5 -81zM348 1766q0 45 30.5 75.5t75.5 30.5 t76 -30.5t31 -75.5t-31 -76t-76 -31t-75.5 31t-30.5 76zM352 549l101 635h4l100 -635h-205z" />
<glyph unicode="&#xc6;" horiz-adv-x="1478" d="M25 0h258l106 348h295v-348h717v221h-463v434h336v222h-336v380h434v222h-870zM459 569l221 725h4v-725h-225z" />
<glyph unicode="&#xc7;" horiz-adv-x="1024" d="M123 358q0 -78 23.5 -147.5t71.5 -120.5t121 -80.5t173 -29.5q94 0 166 29.5t118 80.5t69.5 121t23.5 147v170h-254v-178q0 -72 -26.5 -110.5t-96.5 -38.5q-78 0 -106.5 40t-28.5 124v749q0 84 28.5 124t106.5 40q49 0 86 -42t37 -136v-115h254v109q0 82 -23.5 155.5 t-69.5 129t-118 88t-166 32.5q-100 0 -173 -29.5t-121 -81t-71.5 -121t-23.5 -147.5v-762zM267 -436q23 -10 76 -28.5t126 -18.5q49 0 95.5 14t81 41t56 65.5t21.5 88.5q0 39 -16 67.5t-43 47t-60.5 28.5t-66.5 12q-10 0 -21.5 -1t-21.5 -3l84 123h-98l-140 -188l45 -37 q20 8 50 12t56.5 -2t45 -22.5t18.5 -47.5q0 -35 -33.5 -59.5t-86.5 -24.5q-29 0 -69 11.5t-65 23.5z" />
<glyph unicode="&#xc8;" d="M123 0h708v221h-454v434h328v222h-328v380h426v222h-680v-1479zM186 1852l269 -295h170l-162 295h-277z" />
<glyph unicode="&#xc9;" d="M123 0h708v221h-454v434h328v222h-328v380h426v222h-680v-1479zM334 1557h170l268 295h-276z" />
<glyph unicode="&#xca;" d="M123 0h708v221h-454v434h328v222h-328v380h426v222h-680v-1479zM170 1557h188l121 182l121 -182h189l-197 295h-225z" />
<glyph unicode="&#xcb;" d="M123 0h708v221h-454v434h328v222h-328v380h426v222h-680v-1479zM207 1581h221v222h-221v-222zM531 1581h221v222h-221v-222z" />
<glyph unicode="&#xcc;" horiz-adv-x="569" d="M-9 1852l269 -295h170l-162 295h-277zM158 0h254v1479h-254v-1479z" />
<glyph unicode="&#xcd;" horiz-adv-x="569" d="M139 1557h170l268 295h-276zM158 0h254v1479h-254v-1479z" />
<glyph unicode="&#xce;" horiz-adv-x="569" d="M-25 1557h188l121 182l121 -182h189l-197 295h-225zM158 0h254v1479h-254v-1479z" />
<glyph unicode="&#xcf;" horiz-adv-x="569" d="M12 1581h221v222h-221v-222zM158 0h254v1479h-254v-1479zM336 1581h221v222h-221v-222z" />
<glyph unicode="&#xd0;" horiz-adv-x="1024" d="M41 655h82v-655h377q199 0 300 108.5t101 337.5v586q0 229 -101.5 338t-299.5 109h-377v-602h-82v-222zM377 209v446h151v222h-151v393h88q102 0 142 -45t40 -162v-647q0 -117 -40 -162t-142 -45h-88z" />
<glyph unicode="&#xd1;" horiz-adv-x="1024" d="M123 0h229v924h4l324 -924h221v1479h-229v-846h-4l-310 846h-235v-1479zM179 1573h114q2 45 20.5 67.5t65.5 22.5q33 0 62.5 -11t60.5 -28q31 -16 63.5 -28t69.5 -12q51 0 87 21.5t60.5 55t40 77.5t23.5 87h-115q-2 -45 -20 -67.5t-66 -22.5q-33 0 -62.5 13.5t-59.5 27.5 q-31 14 -64 26.5t-70 12.5q-51 0 -87.5 -21.5t-61.5 -55.5t-39 -78t-22 -87z" />
<glyph unicode="&#xd2;" horiz-adv-x="1024" d="M123 358q0 -78 23.5 -147.5t71.5 -120.5t121 -80.5t173 -29.5t173 29.5t121 80.5t71.5 121t23.5 147v762q0 78 -23.5 147.5t-71.5 121t-121 81t-173 29.5t-173 -29.5t-121 -81t-71.5 -121t-23.5 -147.5v-762zM219 1852l269 -295h170l-162 295h-277zM377 365v749 q0 84 28.5 124t106.5 40t106.5 -40t28.5 -124v-749q0 -84 -28.5 -124t-106.5 -40t-106.5 40t-28.5 124z" />
<glyph unicode="&#xd3;" horiz-adv-x="1024" d="M123 358q0 -78 23.5 -147.5t71.5 -120.5t121 -80.5t173 -29.5t173 29.5t121 80.5t71.5 121t23.5 147v762q0 78 -23.5 147.5t-71.5 121t-121 81t-173 29.5t-173 -29.5t-121 -81t-71.5 -121t-23.5 -147.5v-762zM367 1557h170l268 295h-276zM377 365v749q0 84 28.5 124 t106.5 40t106.5 -40t28.5 -124v-749q0 -84 -28.5 -124t-106.5 -40t-106.5 40t-28.5 124z" />
<glyph unicode="&#xd4;" horiz-adv-x="1024" d="M123 358q0 -78 23.5 -147.5t71.5 -120.5t121 -80.5t173 -29.5t173 29.5t121 80.5t71.5 121t23.5 147v762q0 78 -23.5 147.5t-71.5 121t-121 81t-173 29.5t-173 -29.5t-121 -81t-71.5 -121t-23.5 -147.5v-762zM203 1557h188l121 182l121 -182h189l-197 295h-225zM377 365 v749q0 84 28.5 124t106.5 40t106.5 -40t28.5 -124v-749q0 -84 -28.5 -124t-106.5 -40t-106.5 40t-28.5 124z" />
<glyph unicode="&#xd5;" horiz-adv-x="1024" d="M123 358q0 -78 23.5 -147.5t71.5 -120.5t121 -80.5t173 -29.5t173 29.5t121 80.5t71.5 121t23.5 147v762q0 78 -23.5 147.5t-71.5 121t-121 81t-173 29.5t-173 -29.5t-121 -81t-71.5 -121t-23.5 -147.5v-762zM179 1573h114q2 45 20.5 67.5t65.5 22.5q33 0 62.5 -11 t60.5 -28q31 -16 63.5 -28t69.5 -12q51 0 87 21.5t60.5 55t40 77.5t23.5 87h-115q-2 -45 -20 -67.5t-66 -22.5q-33 0 -62.5 13.5t-59.5 27.5q-31 14 -64 26.5t-70 12.5q-51 0 -87.5 -21.5t-61.5 -55.5t-39 -78t-22 -87zM377 365v749q0 84 28.5 124t106.5 40t106.5 -40 t28.5 -124v-749q0 -84 -28.5 -124t-106.5 -40t-106.5 40t-28.5 124z" />
<glyph unicode="&#xd6;" horiz-adv-x="1024" d="M123 358q0 -78 23.5 -147.5t71.5 -120.5t121 -80.5t173 -29.5t173 29.5t121 80.5t71.5 121t23.5 147v762q0 78 -23.5 147.5t-71.5 121t-121 81t-173 29.5t-173 -29.5t-121 -81t-71.5 -121t-23.5 -147.5v-762zM240 1581h221v222h-221v-222zM377 365v749q0 84 28.5 124 t106.5 40t106.5 -40t28.5 -124v-749q0 -84 -28.5 -124t-106.5 -40t-106.5 40t-28.5 124zM564 1581h221v222h-221v-222z" />
<glyph unicode="&#xd7;" horiz-adv-x="1228" d="M96 143l142 -143l376 377l377 -377l142 143l-375 375l375 377l-142 141l-377 -377l-376 377l-142 -141l377 -377z" />
<glyph unicode="&#xd8;" horiz-adv-x="1024" d="M57 -246h168l103 260q80 -35 184 -34q100 0 173 29.5t121 80.5t71.5 121t23.5 147v762q0 125 -55 215l121 312h-166l-78 -197q-86 49 -211 49q-100 0 -173 -29.5t-121 -81t-71.5 -121t-23.5 -147.5v-762q0 -72 18.5 -133t57.5 -110zM377 526v588q0 84 28.5 124t106.5 40 q57 0 87 -21.5t40 -64.5l-258 -666h-4zM403 248l240 620h4v-503q0 -84 -28.5 -124t-106.5 -40q-84 0 -109 47z" />
<glyph unicode="&#xd9;" horiz-adv-x="1024" d="M123 373q0 -193 103.5 -293t285.5 -100t285.5 100t103.5 293v1106h-254v-1117q0 -162 -135 -161q-135 0 -135 161v1117h-254v-1106zM219 1852l269 -295h170l-162 295h-277z" />
<glyph unicode="&#xda;" horiz-adv-x="1024" d="M123 373q0 -193 103.5 -293t285.5 -100t285.5 100t103.5 293v1106h-254v-1117q0 -162 -135 -161q-135 0 -135 161v1117h-254v-1106zM367 1557h170l268 295h-276z" />
<glyph unicode="&#xdb;" horiz-adv-x="1024" d="M123 373q0 -193 103.5 -293t285.5 -100t285.5 100t103.5 293v1106h-254v-1117q0 -162 -135 -161q-135 0 -135 161v1117h-254v-1106zM203 1557h188l121 182l121 -182h189l-197 295h-225z" />
<glyph unicode="&#xdc;" horiz-adv-x="1024" d="M123 373q0 -193 103.5 -293t285.5 -100t285.5 100t103.5 293v1106h-254v-1117q0 -162 -135 -161q-135 0 -135 161v1117h-254v-1106zM240 1581h221v222h-221v-222zM564 1581h221v222h-221v-222z" />
<glyph unicode="&#xdd;" d="M20 1479l308 -865v-614h254v614l307 865h-258l-170 -564h-4l-178 564h-259zM309 1557h170l268 295h-276z" />
<glyph unicode="&#xde;" horiz-adv-x="1024" d="M123 0h254v319h110q117 0 204 24t143.5 76t84 135t27.5 202q0 236 -111.5 336t-347.5 100h-110v287h-254v-1479zM377 528v455h98q61 0 103.5 -11t68 -37t35.5 -70t10 -109q0 -66 -10 -110t-35.5 -70.5t-67.5 -37t-104 -10.5h-98z" />
<glyph unicode="&#xdf;" d="M111 0h229v1151q0 80 24.5 116t84.5 36q53 0 79.5 -30t26.5 -102v-143q0 -41 -4 -67.5t-14.5 -43t-29 -24.5t-48.5 -12v-189q61 0 94 -38t33 -122v-206q0 -70 -16.5 -104t-63.5 -34q-31 0 -55 7v-195h135q57 0 101 19.5t75 67.5t46 129t15 202q0 178 -45 269t-143 122v4 q80 10 114.5 81t34.5 193q0 84 -15 158t-55 128t-107.5 86t-170.5 32q-156 0 -240.5 -96.5t-84.5 -288.5v-1106z" />
<glyph unicode="&#xe0;" d="M70 227q0 -106 58 -176.5t175 -70.5q84 0 143.5 26.5t124.5 79.5q2 -20 6.5 -41.5t6.5 -44.5h219q-4 29 -9.5 59.5t-5.5 57.5v706q0 152 -87 225.5t-246 73.5q-162 0 -260.5 -88t-108.5 -256h229q4 72 29 114t102 42q113 0 113 -141v-66q-123 -47 -215 -97t-153.5 -109.5 t-91 -131.5t-29.5 -162zM161 1528l269 -295h170l-162 295h-277zM299 268q0 37 11.5 70t40 67.5t79.5 71.5t129 82v-289q-29 -41 -67.5 -71.5t-85.5 -30.5q-53 0 -80 23.5t-27 76.5z" />
<glyph unicode="&#xe1;" d="M70 227q0 -106 58 -176.5t175 -70.5q84 0 143.5 26.5t124.5 79.5q2 -20 6.5 -41.5t6.5 -44.5h219q-4 29 -9.5 59.5t-5.5 57.5v706q0 152 -87 225.5t-246 73.5q-162 0 -260.5 -88t-108.5 -256h229q4 72 29 114t102 42q113 0 113 -141v-66q-123 -47 -215 -97t-153.5 -109.5 t-91 -131.5t-29.5 -162zM299 268q0 37 11.5 70t40 67.5t79.5 71.5t129 82v-289q-29 -41 -67.5 -71.5t-85.5 -30.5q-53 0 -80 23.5t-27 76.5zM309 1233h170l268 295h-276z" />
<glyph unicode="&#xe2;" d="M70 227q0 -106 58 -176.5t175 -70.5q84 0 143.5 26.5t124.5 79.5q2 -20 6.5 -41.5t6.5 -44.5h219q-4 29 -9.5 59.5t-5.5 57.5v706q0 152 -87 225.5t-246 73.5q-162 0 -260.5 -88t-108.5 -256h229q4 72 29 114t102 42q113 0 113 -141v-66q-123 -47 -215 -97t-153.5 -109.5 t-91 -131.5t-29.5 -162zM145 1233h188l121 182l121 -182h189l-197 295h-225zM299 268q0 37 11.5 70t40 67.5t79.5 71.5t129 82v-289q-29 -41 -67.5 -71.5t-85.5 -30.5q-53 0 -80 23.5t-27 76.5z" />
<glyph unicode="&#xe3;" d="M70 227q0 -106 58 -176.5t175 -70.5q84 0 143.5 26.5t124.5 79.5q2 -20 6.5 -41.5t6.5 -44.5h219q-4 29 -9.5 59.5t-5.5 57.5v706q0 152 -87 225.5t-246 73.5q-162 0 -260.5 -88t-108.5 -256h229q4 72 29 114t102 42q113 0 113 -141v-66q-123 -47 -215 -97t-153.5 -109.5 t-91 -131.5t-29.5 -162zM121 1249h114q2 45 20.5 67.5t65.5 22.5q33 0 62.5 -11t60.5 -28q31 -16 63.5 -28t69.5 -12q51 0 87 21.5t60.5 55t40 77.5t23.5 87h-115q-2 -45 -20 -67.5t-66 -22.5q-33 0 -62.5 13.5t-59.5 27.5q-31 14 -64 26.5t-70 12.5q-51 0 -87.5 -21.5 t-61.5 -55.5t-39 -78t-22 -87zM299 268q0 37 11.5 70t40 67.5t79.5 71.5t129 82v-289q-29 -41 -67.5 -71.5t-85.5 -30.5q-53 0 -80 23.5t-27 76.5z" />
<glyph unicode="&#xe4;" d="M70 227q0 -106 58 -176.5t175 -70.5q84 0 143.5 26.5t124.5 79.5q2 -20 6.5 -41.5t6.5 -44.5h219q-4 29 -9.5 59.5t-5.5 57.5v706q0 152 -87 225.5t-246 73.5q-162 0 -260.5 -88t-108.5 -256h229q4 72 29 114t102 42q113 0 113 -141v-66q-123 -47 -215 -97t-153.5 -109.5 t-91 -131.5t-29.5 -162zM182 1257h221v222h-221v-222zM299 268q0 37 11.5 70t40 67.5t79.5 71.5t129 82v-289q-29 -41 -67.5 -71.5t-85.5 -30.5q-53 0 -80 23.5t-27 76.5zM506 1257h221v222h-221v-222z" />
<glyph unicode="&#xe5;" d="M70 227q0 -106 58 -176.5t175 -70.5q84 0 143.5 26.5t124.5 79.5q2 -20 6.5 -41.5t6.5 -44.5h219q-4 29 -9.5 59.5t-5.5 57.5v706q0 152 -87 225.5t-246 73.5q-162 0 -260.5 -88t-108.5 -256h229q4 72 29 114t102 42q113 0 113 -141v-66q-123 -47 -215 -97t-153.5 -109.5 t-91 -131.5t-29.5 -162zM245 1442q0 -43 16.5 -81t45.5 -66.5t66.5 -45t80.5 -16.5t81 16.5t66.5 45t45 66.5t16.5 81t-16.5 81t-45 66.5t-66.5 45t-81 16.5t-80.5 -16.5t-66.5 -45t-45.5 -66.5t-16.5 -81zM299 268q0 37 11.5 70t40 67.5t79.5 71.5t129 82v-289 q-29 -41 -67.5 -71.5t-85.5 -30.5q-53 0 -80 23.5t-27 76.5zM348 1442q0 45 30.5 75.5t75.5 30.5t76 -30.5t31 -75.5t-31 -76t-76 -31t-75.5 31t-30.5 76z" />
<glyph unicode="&#xe6;" horiz-adv-x="1366" d="M70 227q0 -106 61.5 -176.5t196.5 -70.5q25 0 54.5 4t66 18t83 43t101.5 78q39 -66 107.5 -104.5t170.5 -38.5q96 0 163 28.5t110 80.5t62.5 124t21.5 160h-230v-25q0 -96 -32.5 -138t-94.5 -42q-61 0 -93 42t-32 138v160h482v205q0 90 -18.5 165.5t-59.5 130t-104.5 84 t-155.5 29.5q-78 0 -140.5 -24.5t-103.5 -77.5q-86 102 -264 102q-137 0 -231.5 -88t-104.5 -256h229q4 72 29 114t102 42q111 0 111 -141v-66q-123 -47 -214 -97t-152.5 -109.5t-91 -131.5t-29.5 -162zM299 268q0 37 11.5 70t40 67.5t78.5 71.5t128 82v-289 q-29 -41 -66.5 -71.5t-84.5 -30.5q-53 0 -80 23.5t-27 76.5zM786 696v58q0 96 32 138t93 42t94 -42t33 -138v-58h-252z" />
<glyph unicode="&#xe7;" d="M98 389q0 -90 18.5 -166t61.5 -130t110.5 -83.5t166.5 -29.5q98 0 165.5 29.5t110.5 83.5t61.5 130t18.5 166v29h-229v-70q0 -96 -33 -138t-94 -42t-94 42t-33 138v406q0 96 32.5 138t94.5 42q61 0 94 -42t33 -138v-29h229q-2 88 -21.5 162t-61.5 126t-109.5 80.5 t-163.5 28.5q-98 0 -166 -29.5t-111 -84t-61.5 -130t-18.5 -165.5v-324zM209 -436q23 -10 76 -28.5t126 -18.5q49 0 95.5 14t81 41t56 65.5t21.5 88.5q0 39 -16 67.5t-43 47t-60.5 28.5t-66.5 12q-10 0 -21.5 -1t-21.5 -3l84 123h-98l-140 -188l45 -37q20 8 50 12t56.5 -2 t45 -22.5t18.5 -47.5q0 -35 -33.5 -59.5t-86.5 -24.5q-29 0 -69 11.5t-65 23.5z" />
<glyph unicode="&#xe8;" d="M98 389q0 -90 18.5 -166t61.5 -130t110.5 -83.5t166.5 -29.5q96 0 162.5 28.5t109.5 80.5t62.5 124t21.5 160h-229v-25q0 -96 -33 -138t-94 -42t-94 42t-33 138v160h483v205q0 90 -18.5 165.5t-61.5 130t-110.5 84t-165.5 29.5t-166 -29.5t-111 -84t-61.5 -130 t-18.5 -165.5v-324zM161 1528l269 -295h170l-162 295h-277zM328 696v58q0 96 32.5 138t94.5 42q61 0 94 -42t33 -138v-58h-254z" />
<glyph unicode="&#xe9;" d="M98 389q0 -90 18.5 -166t61.5 -130t110.5 -83.5t166.5 -29.5q96 0 162.5 28.5t109.5 80.5t62.5 124t21.5 160h-229v-25q0 -96 -33 -138t-94 -42t-94 42t-33 138v160h483v205q0 90 -18.5 165.5t-61.5 130t-110.5 84t-165.5 29.5t-166 -29.5t-111 -84t-61.5 -130 t-18.5 -165.5v-324zM309 1233h170l268 295h-276zM328 696v58q0 96 32.5 138t94.5 42q61 0 94 -42t33 -138v-58h-254z" />
<glyph unicode="&#xea;" d="M98 389q0 -90 18.5 -166t61.5 -130t110.5 -83.5t166.5 -29.5q96 0 162.5 28.5t109.5 80.5t62.5 124t21.5 160h-229v-25q0 -96 -33 -138t-94 -42t-94 42t-33 138v160h483v205q0 90 -18.5 165.5t-61.5 130t-110.5 84t-165.5 29.5t-166 -29.5t-111 -84t-61.5 -130 t-18.5 -165.5v-324zM145 1233h188l121 182l121 -182h189l-197 295h-225zM328 696v58q0 96 32.5 138t94.5 42q61 0 94 -42t33 -138v-58h-254z" />
<glyph unicode="&#xeb;" d="M98 389q0 -90 18.5 -166t61.5 -130t110.5 -83.5t166.5 -29.5q96 0 162.5 28.5t109.5 80.5t62.5 124t21.5 160h-229v-25q0 -96 -33 -138t-94 -42t-94 42t-33 138v160h483v205q0 90 -18.5 165.5t-61.5 130t-110.5 84t-165.5 29.5t-166 -29.5t-111 -84t-61.5 -130 t-18.5 -165.5v-324zM182 1257h221v222h-221v-222zM328 696v58q0 96 32.5 138t94.5 42q61 0 94 -42t33 -138v-58h-254zM506 1257h221v222h-221v-222z" />
<glyph unicode="&#xec;" horiz-adv-x="454" d="M-66 1528l269 -295h170l-162 295h-277zM113 0h229v1102h-229v-1102z" />
<glyph unicode="&#xed;" horiz-adv-x="454" d="M82 1233h170l268 295h-276zM113 0h229v1102h-229v-1102z" />
<glyph unicode="&#xee;" horiz-adv-x="454" d="M-82 1233h188l121 182l121 -182h189l-197 295h-225zM113 0h229v1102h-229v-1102z" />
<glyph unicode="&#xef;" horiz-adv-x="454" d="M-45 1257h221v222h-221v-222zM113 0h229v1102h-229v-1102zM279 1257h221v222h-221v-222z" />
<glyph unicode="&#xf0;" d="M98 356q0 -84 18.5 -153.5t61.5 -118.5t110.5 -76.5t166.5 -27.5q98 0 165.5 27.5t110.5 76.5t61.5 118.5t18.5 153.5v287q0 176 -43 331.5t-111 276.5l195 76l-61 143l-224 -86q-45 57 -96 95l-176 -49q29 -25 52.5 -54.5t43.5 -58.5l-190 -72l55 -147l215 82 q18 -35 36.5 -76t22.5 -88q-23 2 -40 3t-35 1q-98 0 -166 -27.5t-111 -77t-61.5 -119t-18.5 -153.5v-287zM328 334v332q0 88 32.5 126.5t94.5 38.5q61 0 94 -38.5t33 -126.5v-332q0 -88 -33 -127t-94 -39t-94 39t-33 127z" />
<glyph unicode="&#xf1;" d="M111 0h229v864q41 29 76 49.5t71 20.5q37 0 59.5 -19.5t22.5 -60.5v-854h230v891q0 109 -50.5 170t-142.5 61q-49 0 -86 -9t-67.5 -25.5t-59 -41t-65.5 -55.5v111h-217v-1102zM121 1249h114q2 45 20.5 67.5t65.5 22.5q33 0 62.5 -11t60.5 -28q31 -16 63.5 -28t69.5 -12 q51 0 87 21.5t60.5 55t40 77.5t23.5 87h-115q-2 -45 -20 -67.5t-66 -22.5q-33 0 -62.5 13.5t-59.5 27.5q-31 14 -64 26.5t-70 12.5q-51 0 -87.5 -21.5t-61.5 -55.5t-39 -78t-22 -87z" />
<glyph unicode="&#xf2;" d="M98 389q0 -90 18.5 -166t61.5 -130t110.5 -83.5t166.5 -29.5q98 0 165.5 29.5t110.5 83.5t61.5 130t18.5 166v324q0 90 -18.5 165.5t-61.5 130t-110.5 84t-165.5 29.5t-166 -29.5t-111 -84t-61.5 -130t-18.5 -165.5v-324zM161 1528l269 -295h170l-162 295h-277zM328 348 v406q0 96 32.5 138t94.5 42q61 0 94 -42t33 -138v-406q0 -96 -33 -138t-94 -42t-94 42t-33 138z" />
<glyph unicode="&#xf3;" d="M98 389q0 -90 18.5 -166t61.5 -130t110.5 -83.5t166.5 -29.5q98 0 165.5 29.5t110.5 83.5t61.5 130t18.5 166v324q0 90 -18.5 165.5t-61.5 130t-110.5 84t-165.5 29.5t-166 -29.5t-111 -84t-61.5 -130t-18.5 -165.5v-324zM309 1233h170l268 295h-276zM328 348v406 q0 96 32.5 138t94.5 42q61 0 94 -42t33 -138v-406q0 -96 -33 -138t-94 -42t-94 42t-33 138z" />
<glyph unicode="&#xf4;" d="M98 389q0 -90 18.5 -166t61.5 -130t110.5 -83.5t166.5 -29.5q98 0 165.5 29.5t110.5 83.5t61.5 130t18.5 166v324q0 90 -18.5 165.5t-61.5 130t-110.5 84t-165.5 29.5t-166 -29.5t-111 -84t-61.5 -130t-18.5 -165.5v-324zM145 1233h188l121 182l121 -182h189l-197 295 h-225zM328 348v406q0 96 32.5 138t94.5 42q61 0 94 -42t33 -138v-406q0 -96 -33 -138t-94 -42t-94 42t-33 138z" />
<glyph unicode="&#xf5;" d="M98 389q0 -90 18.5 -166t61.5 -130t110.5 -83.5t166.5 -29.5q98 0 165.5 29.5t110.5 83.5t61.5 130t18.5 166v324q0 90 -18.5 165.5t-61.5 130t-110.5 84t-165.5 29.5t-166 -29.5t-111 -84t-61.5 -130t-18.5 -165.5v-324zM121 1249h114q2 45 20.5 67.5t65.5 22.5 q33 0 62.5 -11t60.5 -28q31 -16 63.5 -28t69.5 -12q51 0 87 21.5t60.5 55t40 77.5t23.5 87h-115q-2 -45 -20 -67.5t-66 -22.5q-33 0 -62.5 13.5t-59.5 27.5q-31 14 -64 26.5t-70 12.5q-51 0 -87.5 -21.5t-61.5 -55.5t-39 -78t-22 -87zM328 348v406q0 96 32.5 138t94.5 42 q61 0 94 -42t33 -138v-406q0 -96 -33 -138t-94 -42t-94 42t-33 138z" />
<glyph unicode="&#xf6;" d="M98 389q0 -90 18.5 -166t61.5 -130t110.5 -83.5t166.5 -29.5q98 0 165.5 29.5t110.5 83.5t61.5 130t18.5 166v324q0 90 -18.5 165.5t-61.5 130t-110.5 84t-165.5 29.5t-166 -29.5t-111 -84t-61.5 -130t-18.5 -165.5v-324zM182 1257h221v222h-221v-222zM328 348v406 q0 96 32.5 138t94.5 42q61 0 94 -42t33 -138v-406q0 -96 -33 -138t-94 -42t-94 42t-33 138zM506 1257h221v222h-221v-222z" />
<glyph unicode="&#xf7;" horiz-adv-x="1228" d="M96 418h1037v200h-1037v-200zM451 94q0 -68 48 -116t115 -48q68 0 116 48.5t48 115.5q0 68 -48 116t-116 48t-115.5 -48t-47.5 -116zM451 942q0 -68 48 -116t115 -48q68 0 116 48t48 116t-48 116t-116 48t-115.5 -48t-47.5 -116z" />
<glyph unicode="&#xf8;" d="M86 -246h135l92 248q61 -23 142 -22q98 0 165.5 29.5t110.5 83.5t61.5 130t18.5 166v324q0 100 -22.5 181t-75.5 136l110 293h-139l-84 -223q-68 23 -145 22q-98 0 -166 -29.5t-111 -84t-61.5 -130t-18.5 -165.5v-324q0 -102 24.5 -184t82.5 -137zM328 354v400 q0 96 32.5 138t94.5 42q53 0 82 -29l-205 -551h-4zM377 193l201 530h4v-375q0 -96 -33 -138t-94 -42q-45 0 -78 25z" />
<glyph unicode="&#xf9;" d="M111 211q0 -109 50 -170t142 -61q49 0 86 9t67.5 25.5t59.5 41t66 55.5v-111h217v1102h-230v-864q-41 -29 -75.5 -49.5t-71.5 -20.5t-59.5 19.5t-22.5 60.5v854h-229v-891zM161 1528l269 -295h170l-162 295h-277z" />
<glyph unicode="&#xfa;" d="M111 211q0 -109 50 -170t142 -61q49 0 86 9t67.5 25.5t59.5 41t66 55.5v-111h217v1102h-230v-864q-41 -29 -75.5 -49.5t-71.5 -20.5t-59.5 19.5t-22.5 60.5v854h-229v-891zM309 1233h170l268 295h-276z" />
<glyph unicode="&#xfb;" d="M111 211q0 -109 50 -170t142 -61q49 0 86 9t67.5 25.5t59.5 41t66 55.5v-111h217v1102h-230v-864q-41 -29 -75.5 -49.5t-71.5 -20.5t-59.5 19.5t-22.5 60.5v854h-229v-891zM145 1233h188l121 182l121 -182h189l-197 295h-225z" />
<glyph unicode="&#xfc;" d="M111 211q0 -109 50 -170t142 -61q49 0 86 9t67.5 25.5t59.5 41t66 55.5v-111h217v1102h-230v-864q-41 -29 -75.5 -49.5t-71.5 -20.5t-59.5 19.5t-22.5 60.5v854h-229v-891zM182 1257h221v222h-221v-222zM506 1257h221v222h-221v-222z" />
<glyph unicode="&#xfd;" horiz-adv-x="796" d="M20 1102l240 -936q10 -41 17.5 -76t7.5 -70q0 -88 -33 -133t-119 -45h-55v-188h96q63 0 113.5 13.5t89.5 44t65.5 80.5t44.5 126l289 1184h-231l-139 -705h-5l-147 705h-234zM254 1233h170l268 295h-276z" />
<glyph unicode="&#xfe;" d="M111 -348h229v442q33 -29 60.5 -49t54 -35.5t56.5 -22.5t67 -7q109 0 171 77.5t62 229.5v528q0 152 -62.5 229.5t-170.5 77.5q-86 0 -136.5 -29.5t-97.5 -95.5h-4v482h-229v-1827zM340 225v652q35 25 65.5 41t65.5 16q23 0 43.5 -7t35.5 -27.5t23.5 -54.5t8.5 -89v-410 q0 -55 -8.5 -89t-23.5 -54.5t-35.5 -27.5t-43.5 -7q-35 0 -65.5 16.5t-65.5 40.5z" />
<glyph unicode="&#xff;" horiz-adv-x="796" d="M20 1102l240 -936q10 -41 17.5 -76t7.5 -70q0 -88 -33 -133t-119 -45h-55v-188h96q63 0 113.5 13.5t89.5 44t65.5 80.5t44.5 126l289 1184h-231l-139 -705h-5l-147 705h-234zM127 1257h221v222h-221v-222zM451 1257h221v222h-221v-222z" />
<glyph unicode="&#x152;" horiz-adv-x="1478" d="M123 451q0 -219 108.5 -335t321.5 -116h848v221h-471v434h344v222h-344v380h442v222h-819q-213 0 -321.5 -116t-108.5 -335v-577zM377 420v645q0 86 36 140.5t122 54.5q63 0 102 -35t39 -119v-727q0 -84 -39 -119t-102 -35q-86 0 -122 54.5t-36 140.5z" />
<glyph unicode="&#x153;" horiz-adv-x="1366" d="M98 389q0 -90 18.5 -166t58.5 -130t102.5 -83.5t152.5 -29.5q104 0 164.5 33.5t93.5 92.5q35 -59 94.5 -92.5t153.5 -33.5q86 0 148.5 28.5t102.5 80.5t59.5 124t21.5 160h-230v-25q0 -96 -32.5 -138t-94.5 -42q-61 0 -86.5 42t-25.5 138v160h469v205q0 90 -18.5 165.5 t-58.5 130t-103.5 84t-151.5 29.5q-170 0 -244 -125q-33 63 -94 94t-168 31q-90 0 -152.5 -29.5t-102.5 -84t-58.5 -130t-18.5 -165.5v-324zM328 348v406q0 96 32.5 138t94.5 42q53 0 83.5 -42t30.5 -138v-406q0 -96 -30.5 -138t-83.5 -42q-61 0 -94 42t-33 138zM799 696v58 q0 96 25.5 138t86.5 42t94 -42t33 -138v-58h-239z" />
<glyph unicode="&#x178;" d="M20 1479l308 -865v-614h254v614l307 865h-258l-170 -564h-4l-178 564h-259zM182 1581h221v222h-221v-222zM506 1581h221v222h-221v-222z" />
<glyph unicode="&#x2c6;" horiz-adv-x="454" d="M-82 1233h188l121 182l121 -182h189l-197 295h-225z" />
<glyph unicode="&#x2dc;" horiz-adv-x="454" d="M-106 1249h114q2 45 20.5 67.5t65.5 22.5q33 0 62.5 -11t60.5 -28q31 -16 63.5 -28t69.5 -12q51 0 87 21.5t60.5 55t40 77.5t23.5 87h-115q-2 -45 -20 -67.5t-66 -22.5q-33 0 -62.5 13.5t-59.5 27.5q-31 14 -64 26.5t-70 12.5q-51 0 -87.5 -21.5t-61.5 -55.5t-39 -78 t-22 -87z" />
<glyph unicode="&#x2000;" horiz-adv-x="987" />
<glyph unicode="&#x2001;" horiz-adv-x="1975" />
<glyph unicode="&#x2002;" horiz-adv-x="987" />
<glyph unicode="&#x2003;" horiz-adv-x="1975" />
<glyph unicode="&#x2004;" horiz-adv-x="658" />
<glyph unicode="&#x2005;" horiz-adv-x="493" />
<glyph unicode="&#x2006;" horiz-adv-x="329" />
<glyph unicode="&#x2007;" horiz-adv-x="329" />
<glyph unicode="&#x2008;" horiz-adv-x="246" />
<glyph unicode="&#x2009;" horiz-adv-x="395" />
<glyph unicode="&#x200a;" horiz-adv-x="109" />
<glyph unicode="&#x2010;" horiz-adv-x="681" d="M90 457h502v188h-502v-188z" />
<glyph unicode="&#x2011;" horiz-adv-x="681" d="M90 457h502v188h-502v-188z" />
<glyph unicode="&#x2012;" horiz-adv-x="681" d="M90 457h502v188h-502v-188z" />
<glyph unicode="&#x2013;" horiz-adv-x="1024" d="M0 477h1024v148h-1024v-148z" />
<glyph unicode="&#x2014;" horiz-adv-x="2048" d="M0 477h2048v148h-2048v-148z" />
<glyph unicode="&#x2018;" horiz-adv-x="454" d="M106 1004h242v241h-92l100 254h-108l-142 -254v-241z" />
<glyph unicode="&#x2019;" horiz-adv-x="454" d="M98 983h109l141 254v242h-242v-242h93z" />
<glyph unicode="&#x201a;" horiz-adv-x="454" d="M98 -254h109l141 254v242h-242v-242h93z" />
<glyph unicode="&#x201c;" d="M143 1004h242v241h-92l100 254h-108l-142 -254v-241zM522 1004h242v241h-92l100 254h-108l-142 -254v-241z" />
<glyph unicode="&#x201d;" d="M137 983h109l141 254v242h-242v-242h93zM516 983h109l141 254v242h-242v-242h92z" />
<glyph unicode="&#x201e;" d="M137 -254h109l141 254v242h-242v-242h93zM516 -254h109l141 254v242h-242v-242h92z" />
<glyph unicode="&#x2022;" horiz-adv-x="1024" d="M141 739q0 -78 29 -144.5t79 -117.5t116.5 -79.5t144.5 -28.5q76 0 143.5 28.5t118.5 79.5t80 118t29 144q0 76 -29 143.5t-80 118t-118.5 79t-143.5 28.5q-78 0 -144.5 -28.5t-116.5 -79t-79 -118t-29 -143.5z" />
<glyph unicode="&#x2026;" horiz-adv-x="2048" d="M225 0h234v242h-234v-242zM907 0h234v242h-234v-242zM1589 0h234v242h-234v-242z" />
<glyph unicode="&#x202f;" horiz-adv-x="395" />
<glyph unicode="&#x2039;" horiz-adv-x="681" d="M129 553l236 -317h196l-233 315l239 315h-202z" />
<glyph unicode="&#x203a;" horiz-adv-x="681" d="M115 866l239 -315l-233 -315h196l236 317l-236 313h-202z" />
<glyph unicode="&#x205f;" horiz-adv-x="493" />
<glyph unicode="&#x2122;" horiz-adv-x="2027" d="M70 1325h245v-690h197v690h246v154h-688v-154zM866 635h189v618h4l225 -618h141l226 618h4v-618h188v844h-276l-211 -555l-211 555h-279v-844z" />
<glyph unicode="&#x25fc;" horiz-adv-x="1105" d="M0 0v1106h1106v-1106h-1106z" />
<glyph unicode="&#xfb01;" d="M-8 913h135v-913h229v913h131v189h-131v135q0 41 17.5 57.5t58.5 16.5h66v188h-115q-123 0 -189.5 -62.5t-66.5 -197.5v-137h-135v-189zM567 0h230v1102h-230v-1102zM567 1270h230v209h-230v-209z" />
<glyph unicode="&#xfb02;" d="M-8 913h135v-913h229v913h131v189h-131v135q0 41 17.5 57.5t58.5 16.5h66v188h-115q-123 0 -189.5 -62.5t-66.5 -197.5v-137h-135v-189zM567 0h230v1479h-230v-1479z" />
</font>
</defs>
</svg>
