<?xml version="1.0" standalone="no"?>
<!DOCTYPE svg PUBLIC "-//W3C//DTD SVG 1.1//EN" "http://www.w3.org/Graphics/SVG/1.1/DTD/svg11.dtd" >
<svg xmlns="http://www.w3.org/2000/svg">
<metadata></metadata>
<defs>
<font id="timelessbold" horiz-adv-x="1067" >
<font-face units-per-em="2048" ascent="1638" descent="-410" />
<missing-glyph horiz-adv-x="616" />
<glyph horiz-adv-x="0" />
<glyph horiz-adv-x="682" />
<glyph horiz-adv-x="759" d="M23 1444q4 -68 24.5 -136.5t75.5 -113.5q45 -37 102.5 -55.5t116.5 -18.5t116.5 18.5t102.5 55.5q55 45 76.5 113.5t26.5 136.5h-105q-20 -88 -82.5 -132t-134.5 -44t-134.5 44t-82.5 132h-102z" />
<glyph horiz-adv-x="368" d="M23 1274q0 -53 35.5 -92t88.5 -39t89 39t36 92t-36 92t-89 39t-88.5 -39t-35.5 -92z" />
<glyph horiz-adv-x="555" d="M25 1337q0 -55 24.5 -104t72.5 -81t120 -32t120 32t71.5 81t23.5 104t-23.5 104.5t-71.5 81t-120 31.5t-120 -31.5t-72.5 -80.5t-24.5 -105zM127 1337q0 43 29 79t86 36t84.5 -36t27.5 -79t-27.5 -78.5t-84.5 -35.5t-86 35.5t-29 78.5z" />
<glyph unicode="&#xa;" horiz-adv-x="976" d="M23 1128h139l301 244q10 8 8 17.5t-11 17.5t-20.5 15.5t-17.5 11.5q-35 20 -60.5 26t-64.5 2q-27 -16 -64.5 -60t-77.5 -96.5t-76 -101.5t-56 -76zM428 1128h141l303 244q10 8 7.5 17.5t-12 18.5t-20.5 15.5t-18 10.5q-35 20 -60.5 26t-63.5 2q-27 -16 -65 -60t-78 -96.5 t-75.5 -101.5t-58.5 -76z" />
<glyph horiz-adv-x="577" d="M23 -221q0 -84 55 -127t131 -46t152.5 36t119.5 120l-61 25q-59 -43 -104.5 -52t-73 6t-40 49t-7 75t29 85t64.5 79h-86q-31 -18 -62.5 -46t-58.5 -61t-43 -69.5t-16 -73.5z" />
<glyph horiz-adv-x="794" d="M23 1458l239 -332h197l239 332h-145l-193 -188l-194 188h-143z" />
<glyph unicode="&#xd;" horiz-adv-x="489" d="M23 969l30 -13q25 0 30 -27.5t5 -43.5v-785q0 -39 -12.5 -57t-50.5 -18v-25h368v25q-27 0 -29 27.5t-2 45.5v895q-86 4 -169.5 -2t-169.5 -10v-12z" />
<glyph horiz-adv-x="1744" d="M190 -31h142l876 1467h-141zM190 -154q4 -68 25 -136t76 -113q45 -37 102.5 -55.5t116.5 -18.5t116.5 18.5t102.5 55.5q55 45 76.5 113t25.5 136h-104q-20 -88 -82.5 -132t-134.5 -44t-134.5 44t-82.5 132h-103zM395 1282q0 -53 35 -92t88 -39t89 39t36 92q0 59 -36 95 t-89 36t-88 -39t-35 -92zM412 1317q0 23 22 22q23 1 23 -22t-23 -23t-22 23zM1231 1282q0 -53 36 -92t89 -39t89 36t36 95q0 53 -36 92t-89 39t-89 -39t-36 -92zM1262 1317q0 23 22 22q23 1 23 -22t-23 -23t-22 23z" />
<glyph horiz-adv-x="1214" d="M8 932h158v-832q0 -41 -13.5 -58t-54.5 -17v-25h369v25q-12 0 -17.5 8t-7.5 20.5t-2 24.5v20v834h252v59h-252q0 47 -1 116t11.5 131t46 106.5t105.5 44.5q61 0 103.5 -7.5t68.5 -13.5q-10 -27 -10 -53q0 -59 44 -100t103 -41t103.5 41t44.5 100q0 72 -44 106.5 t-104 34.5q-51 0 -94 -33q-27 16 -86 31.5t-131 17t-148.5 -16t-140 -66t-104.5 -131t-41 -214.5v-53h-158v-59zM741 991q0 -27 2 -33l2 -6q2 0 14.5 -2t28 -14t15.5 -39v-797q0 -35 -10.5 -55t-47.5 -20v-25h359v25q-12 0 -17.5 8t-7.5 20.5t-2 24.5v20v895q-10 8 -57 9.5 t-103.5 -1t-106.5 -6.5t-69 -4z" />
<glyph horiz-adv-x="1232" d="M23 932h155v-832q0 -41 -13 -58t-54 -17v-25h430v25q-41 0 -59.5 8t-24.5 20.5t-5 24.5t1 20v834h305v59h-305q0 45 -3.5 115t8 136.5t43 114.5t101.5 48q18 0 53 -5t70 -11.5t61 -11.5l27 -5v-1272q0 -35 -10 -55t-47 -20v-25h379v25q-18 0 -28.5 8t-15 20.5t-4.5 24.5 v20v1354q-29 10 -63.5 11t-69 -5t-67.5 -19.5t-53 -33.5q-6 16 -57.5 37.5t-124 31t-155.5 0t-154 -53.5t-118 -131t-47 -232v-66h-155v-59z" />
<glyph horiz-adv-x="1263" d="M23 444l157 95v-426q0 -59 -22.5 -70.5t-75.5 -15.5v-27h1036l49 352h-32q-25 -59 -49.5 -99t-56.5 -64.5t-77 -36t-112 -11.5h-258q-37 0 -66 7.5t-29 52.5v520l301 178v154l-301 -179v414q0 33 7.5 49.5t21.5 23.5t34.5 9t49.5 4v27h-524v-27q53 0 78.5 -12t25.5 -72 v-598l-157 -94v-154z" />
<glyph horiz-adv-x="731" d="M23 502l163 112v-514q0 -39 -12 -57t-51 -18v-25h369v25q-27 0 -29 27.5t-2 45.5v701l174 116v142l-174 -117v512q-86 4 -170 -1t-170 -9v-12l31 -13q25 0 29.5 -27.5t4.5 -43.5v-590l-163 -113v-141z" />
<glyph horiz-adv-x="1257" d="M23 0h1107l31 367h-31q-18 -68 -43.5 -111t-62.5 -67.5t-88 -34t-119 -9.5h-442l747 1131v125h-1032l-24 -332h32q16 59 39 96t54.5 56.5t74.5 26.5t103 7l401 2l-747 -1128v-129zM256 1839l242 -332h196l240 332h-146l-192 -188l-195 188h-145z" />
<glyph horiz-adv-x="964" d="M23 0h827l18 272l-30 2q-18 -76 -60.5 -108.5t-120.5 -32.5h-303l498 725v133h-793l-6 -256h27q14 70 46 95.5t99 25.5l303 2l-505 -729v-129zM109 1458l241 -332h197l239 332h-145l-192 -188l-195 188h-145z" />
<glyph unicode=" "  horiz-adv-x="616" />
<glyph unicode="&#x09;" horiz-adv-x="616" />
<glyph unicode="&#xa0;" horiz-adv-x="616" />
<glyph unicode="!" horiz-adv-x="444" d="M23 1305q-4 -23 3 -76t18 -115.5t20.5 -121t13.5 -91.5l39 -457h135l39 457q2 33 13 91.5t21.5 120t17.5 115.5t5 77q-8 55 -56 84.5t-106 29.5q-57 0 -106 -28.5t-57 -85.5zM33 139q0 -63 45 -107t108 -44t108.5 45t45.5 108t-45.5 108.5t-108.5 45.5q-66 0 -109.5 -45 t-43.5 -111z" />
<glyph unicode="&#x22;" horiz-adv-x="811" d="M23 1341q-2 -119 12 -236.5t35 -234.5h155q20 117 33.5 235t13.5 236q0 18 -14 34t-33.5 25t-41 14t-36.5 5q-14 0 -35.5 -5t-41 -14t-33.5 -24.5t-14 -34.5zM465 1341q-2 -119 12.5 -236.5t34.5 -234.5h156q20 117 33.5 235t13.5 236q0 18 -14.5 34t-34 25t-41 14 t-35.5 5t-36 -5t-41 -14t-33.5 -24.5t-14.5 -34.5z" />
<glyph unicode="#" horiz-adv-x="1128" d="M23 424h192l-59 -424h166l59 424h229l-59 -424h166l59 424h199v156h-176l39 266h194v155h-174l62 426h-166l-62 -426h-229l61 426h-166l-61 -426h-217v-155h196l-38 -266h-215v-156zM403 580l39 266h230l-39 -266h-230z" />
<glyph unicode="$" horiz-adv-x="1040" d="M23 1018q0 -92 33.5 -159.5t89 -118t127 -87.5t147.5 -67v-463q-63 2 -123.5 39t-108 80t-76.5 78l-28 34l-1 -30q-1 -31 -4 -76t-10.5 -95.5t-21.5 -89.5l-8 7l8 -9q92 -35 183.5 -51t189.5 -20v-183h102v187q86 8 163 36.5t134.5 78t91 121t33.5 165.5 q0 76 -21.5 136.5t-60.5 107.5t-93 85t-118 69l-127 61h-2v420q49 -2 98.5 -15.5t90.5 -39t71.5 -63.5t40.5 -89l37 10q-4 18 -4 53v72t1 72t1 53q-72 39 -164 60.5t-172 25.5v150h-102v-154q-86 -10 -159 -36.5t-126 -75t-82.5 -118t-29.5 -161.5zM263.5 1047 q-11.5 47 4 92t55 80.5t97.5 50.5v-369q-25 12 -50.5 26.5t-47.5 33.5q-47 39 -58.5 86zM522 133v406q51 -27 94 -60q55 -43 70.5 -96t0.5 -104.5t-58 -91.5t-107 -54z" />
<glyph unicode="%" horiz-adv-x="1703" d="M24.5 1026q-14.5 -100 12 -187t97.5 -144.5t190 -57.5q98 0 170.5 43t122 112.5t73 156.5t23.5 173q0 137 -76 217q66 -4 140.5 -7t143 -2t121 6t70.5 16l-780 -1381h137l831 1469h-122q-20 -23 -92 -38.5t-162 -21.5t-185.5 -5t-165.5 9q-61 31 -145 31 q-115 0 -200 -57.5t-137 -144.5t-66.5 -187zM240 898q-4 58 13 127t48 127t72 97t84 39q57 0 85.5 -39t35 -97t-8 -127t-44 -127t-72.5 -97t-93 -39q-59 0 -87.5 39t-32.5 97zM920.5 366.5q-15.5 -100.5 11 -187.5t97.5 -144.5t190 -57.5q98 0 170.5 43t122 112t73 156 t23.5 173q0 139 -73 217t-214 78q-113 0 -198 -57.5t-136 -144.5t-66.5 -187.5zM1136 237.5q-3 59.5 13 127t47 127t72 98.5t84 39q57 0 85.5 -39t35 -98.5t-8 -127t-44 -127t-72.5 -98.5t-95 -39q-59 0 -86.5 39t-30.5 98.5z" />
<glyph unicode="&#x26;" horiz-adv-x="1554" d="M21.5 352.5q1.5 -71.5 29 -140.5t82.5 -124q66 -66 152 -90.5t176 -24.5q129 0 234.5 37t203.5 121q27 -27 48.5 -53.5t45 -47t53 -33.5t72.5 -13q199 -2 340 141l-31 25q-27 -47 -73 -48q-78 43 -140.5 100.5t-119.5 123.5q80 92 129 201.5t102 215.5q16 33 35.5 42.5 t54.5 13.5v26h-354v-26q20 0 43.5 -6.5t28.5 -28.5q6 -25 -9.5 -69t-39 -92t-49 -90t-40.5 -64q-72 90 -140.5 178t-137.5 180q57 25 111.5 56.5t96.5 72.5t67.5 95t25.5 122q0 92 -57.5 155.5t-144.5 94.5t-188.5 29t-188.5 -39t-144 -109t-57 -180q0 -96 39.5 -171 t99.5 -147q-70 -31 -134.5 -71.5t-117.5 -96.5q-53 -57 -79 -125.5t-24.5 -140zM303 487.5q8 65.5 55 114.5q23 23 47.5 42.5t53.5 35.5q86 -113 171 -222.5t177 -217.5q-84 -70 -163 -83.5t-144.5 10t-112.5 76t-69.5 116t-14.5 129zM487 1169q0 66 39 100t103 34 q57 0 100 -39t58.5 -94.5t-1 -115t-75.5 -100.5q-33 -25 -80 -45q-41 47 -82 101q-27 35 -44.5 74.5t-17.5 84.5z" />
<glyph unicode="'" horiz-adv-x="368" d="M23 1341q-2 -119 12 -236.5t35 -234.5h155q20 117 33.5 235t13.5 236q0 18 -14 34t-33.5 25t-41 14t-36.5 5q-14 0 -35.5 -5t-41 -14t-33.5 -24.5t-14 -34.5z" />
<glyph unicode="(" horiz-adv-x="677" d="M20 575q0 -139 34 -275t100 -255q59 -106 135 -199.5t174 -164.5l119 28q-102 86 -171 224.5t-104 302t-35 339.5q0 178 35 342t103.5 302.5t171.5 224.5l-119 29q-100 -72 -175 -166.5t-134 -200.5q-66 -121 -100 -256t-34 -275z" />
<glyph unicode=")" horiz-adv-x="675" d="M23 -291l118 -28q98 70 174 164t134 200q66 121 98.5 256t32.5 272q0 139 -33 275.5t-98 257.5q-57 106 -133 200.5t-175 166.5l-118 -29q102 -86 170.5 -224.5t102.5 -302t34 -342.5q0 -176 -34 -339.5t-102.5 -302t-170.5 -224.5z" />
<glyph unicode="*" horiz-adv-x="888" d="M31 897q-41 -152 106 -188q61 45 109 103t116 97q0 -37 -8 -73.5t-18 -73.5t-20.5 -73t-14.5 -73q49 -55 107 -55q57 0 106 55q-4 37 -14.5 74t-20.5 73t-18 71.5t-8 74.5q33 -18 61.5 -43.5t54 -53.5t52 -54.5t57.5 -48.5q147 37 106 188q-35 14 -71.5 22.5t-73.5 17.5 t-72 20.5t-67 31.5q66 39 140.5 51.5t143.5 40.5q20 72 -6 121t-100 68q-31 -23 -57.5 -49.5t-52 -54t-54.5 -53.5t-61 -44q0 39 8 75t18 71.5t20.5 72.5t14.5 74q-49 55 -106 55t-107 -55q4 -37 14.5 -73t20.5 -72.5t18 -73.5t8 -74q-68 39 -115.5 97.5t-109.5 103.5 q-74 -18 -100.5 -67.5t-5.5 -121.5q35 -14 71.5 -22t73.5 -17.5t72 -20.5t67 -32q-33 -20 -68.5 -31.5t-72.5 -19.5t-72.5 -17.5t-70.5 -23.5z" />
<glyph unicode="+" horiz-adv-x="1150" d="M23 426h419v-424h193v424h420v192h-420v418h-193v-418h-419v-192z" />
<glyph unicode="," horiz-adv-x="501" d="M23 -270l122 -25q31 16 67 56t68.5 92.5t59.5 109.5t39 109q10 16 13 33.5t3 35.5q0 66 -44.5 111t-110.5 45t-111 -45t-45 -111q0 -45 27.5 -72.5t56.5 -64.5q2 -4 6 -4q6 0 10 -1t6.5 -5t-0.5 -17q-8 -37 -34.5 -79.5t-56 -80.5t-53.5 -63z" />
<glyph unicode="-" horiz-adv-x="636" d="M23 524h518v181h-518v-181z" />
<glyph unicode="." horiz-adv-x="430" d="M23 141q0 -66 45 -109.5t110 -43.5q66 0 111 44t45 109q0 66 -45 111t-111 45t-110.5 -45t-44.5 -111z" />
<glyph unicode="/" horiz-adv-x="788" d="M23 -31h190l479 1461h-192z" />
<glyph unicode="0" horiz-adv-x="1085" d="M23 698q0 -115 22.5 -241.5t77.5 -234t148.5 -177.5t234.5 -70q94 0 165.5 33t126 88.5t91.5 127t58.5 152.5t31.5 163.5t10 158.5t-9 159t-31.5 164t-59.5 154.5t-90.5 129t-126 88t-166.5 32.5t-167 -32.5t-126 -88t-90 -129t-59.5 -154.5t-31.5 -164t-9 -159z M320.5 626.5q1.5 59.5 1.5 92.5t-1.5 88t2 119.5t13.5 130t30.5 120t54.5 88t85 33.5q53 0 88 -36.5t55.5 -94t29.5 -129t11 -140.5t1 -128t-1 -92t1 -88t-2 -118.5t-13 -130.5t-30.5 -120t-54.5 -87t-85 -34q-53 0 -88 37t-55.5 94.5t-29.5 128t-11.5 139t-1 128z" />
<glyph unicode="1" horiz-adv-x="837" d="M23 1149l6 -29l233 21q35 0 52.5 -8.5t17.5 -49.5v-983q0 -31 -12.5 -46t-31 -21t-41 -7t-44.5 -1v-25h538v25q-23 0 -44 1t-37.5 7t-26.5 21.5t-10 43.5v1317h-138l-17 -19q-17 -18 -45 -43.5t-60.5 -53t-63.5 -46.5q-37 -23 -85 -42t-90 -33.5t-72 -21.5z" />
<glyph unicode="2" horiz-adv-x="1073" d="M23 0h901l53 328h-25q-16 -53 -48 -69.5t-87 -16.5h-471l287 278q53 51 102 108.5t88 122t61.5 135t22.5 148.5q0 121 -51 205t-132 129t-180.5 54.5t-194.5 -18.5t-175 -92.5t-123 -162.5l19 -27q27 55 80 86t114.5 39t127 -7t118.5 -50t87 -91.5t34 -129.5 q0 -72 -24.5 -137.5t-65.5 -124.5q-106 -160 -241.5 -301.5t-276.5 -270.5v-135z" />
<glyph unicode="3" horiz-adv-x="1040" d="M23 90q16 -37 58 -59.5t92 -34.5t101.5 -16.5t85.5 -4.5q164 0 283 53.5t191.5 134.5t98 180t6.5 191.5t-85 166t-176 106.5q104 41 161.5 113.5t57.5 189.5q0 102 -49 170t-127 103.5t-173 41t-188.5 -16.5t-172 -70t-124.5 -119l13 -41q25 33 81 64.5t123.5 47t133 5 t108.5 -59.5q33 -39 56.5 -87t29.5 -98.5t-7 -98.5t-53 -84t-110.5 -56t-177.5 -16l2 -60q72 2 147.5 -23.5t138 -74.5t102.5 -118.5t40 -153.5q0 -49 -11 -87t-40 -81q-37 -57 -81 -89t-112 -40q-43 -4 -75.5 12t-62 41.5t-57.5 52.5t-61 41q-35 14 -65.5 10t-52 -23.5 t-34.5 -49t-15 -62.5z" />
<glyph unicode="4" horiz-adv-x="1128" d="M23 299h571v-299h272v299h166v215h-166v901h-243q-154 -221 -303.5 -442t-296.5 -449v-225zM180 514l414 625v-625h-414z" />
<glyph unicode="5" horiz-adv-x="1007" d="M23 94q2 -35 41.5 -57.5t91 -35.5t102.5 -19.5t74 -6.5q113 0 221.5 31t196.5 105q84 72 122.5 160.5t38.5 199.5q0 199 -109.5 314.5t-299.5 150.5q-39 8 -82 13t-82 3q-14 0 -27.5 -2t-27.5 -4l30 223l553 2l45 236l-12 -6h-711l-118 -711q55 18 114 19 q164 0 270.5 -45.5t165 -115t70.5 -150.5t-15.5 -151.5t-89 -116.5t-151.5 -46q-33 0 -64.5 19.5t-64.5 45t-63.5 52t-59.5 39.5q-31 14 -60.5 6t-52 -30.5t-36 -55.5t-10.5 -66z" />
<glyph unicode="6" horiz-adv-x="1064" d="M23 629q0 -123 22.5 -240t77.5 -209t148.5 -148.5t236.5 -56.5q104 0 189 36t145.5 99.5t93.5 150.5t33 190q0 96 -24.5 177t-74 139t-124 91t-175.5 33q-59 0 -127.5 -20.5t-111.5 -61.5q14 68 35.5 134.5t56.5 125.5q27 47 67.5 100.5t90 99.5t104.5 76.5t111 32.5 q27 0 63.5 2t61.5 -8l4 31q-68 27 -142 24q-170 -4 -310 -66.5t-240.5 -169t-155.5 -250.5t-55 -312zM311 496v86v20q12 59 60.5 100t107.5 41q68 0 108 -37.5t60.5 -94t25.5 -120t5 -112.5q0 -41 -6 -89t-23.5 -90t-49.5 -71t-85 -29t-89 26t-58.5 66.5t-33.5 93 t-16.5 106.5t-5.5 104z" />
<glyph unicode="7" horiz-adv-x="1056" d="M23 1061l28 -2q14 43 39 69.5t74 26.5h522l-463 -1155h248l490 1286v115h-883z" />
<glyph unicode="8" horiz-adv-x="1060" d="M23 342q0 -98 38.5 -167t103 -114t147.5 -65.5t169 -20.5q141 0 242.5 44t161 116t77 162t-9 181t-97.5 174t-187 141q100 35 162.5 95t86 129.5t9 142.5t-66.5 132.5t-141 96t-214 36.5q-88 0 -170 -20.5t-146.5 -64.5t-103.5 -113.5t-39 -167.5q0 -66 21.5 -118 t57.5 -96t83 -80t100 -67q-125 -47 -204.5 -131t-79.5 -225zM287 311.5q-6 57.5 7 115.5t47 110.5t85 89.5q96 -43 176 -119q51 -47 71.5 -115.5t7.5 -132t-59.5 -109t-127.5 -45.5q-63 0 -107.5 29t-69 74t-30.5 102.5zM315.5 1177.5q14.5 51.5 58.5 86t118 34.5 q90 0 135 -54t50 -128t-27.5 -148.5t-100.5 -117.5q-47 20 -91 48t-79 65q-47 47 -62.5 105t-1 109.5z" />
<glyph unicode="9" horiz-adv-x="1060" d="M23 952q0 -96 23.5 -177t72.5 -139t123.5 -91t177.5 -33q59 0 127.5 20.5t111.5 61.5q-14 -68 -35.5 -134.5t-56.5 -125.5q-29 -47 -69.5 -100.5t-90 -99.5t-103.5 -76.5t-109 -32.5q-27 0 -64 -2.5t-61 8.5l-4 -31q68 -29 141 -25q170 4 310 66.5t240.5 169t156 251 t55.5 312.5q0 123 -22.5 239.5t-78 209t-148.5 148.5t-237 56q-104 0 -189 -35.5t-145.5 -99t-93 -150.5t-32.5 -190zM313 1024q0 39 6.5 88t23.5 91t49 71t85 29t89 -26t58.5 -67t34 -93t16.5 -106.5t5 -103.5v-86v-20q-12 -59 -60.5 -100.5t-107.5 -41.5q-68 0 -107.5 38 t-60 94.5t-26 120t-5.5 112.5z" />
<glyph unicode=":" horiz-adv-x="430" d="M59 152q0 -66 45.5 -111t110.5 -45q33 0 62.5 12t51 33.5t33 50.5t9.5 60q-6 66 -48 110.5t-108 44.5t-111 -45t-45 -110zM59 848q0 -66 45.5 -111t110.5 -45q33 0 62.5 12.5t51 34t33 50t9.5 59.5q-6 66 -48 111t-108 45t-111 -45.5t-45 -110.5z" />
<glyph unicode=";" horiz-adv-x="501" d="M23 -270l122 -25q31 16 67 56t68.5 92.5t59.5 109.5t39 109q10 16 13 33.5t3 35.5q0 66 -44.5 111t-110.5 45t-111 -45t-45 -111q0 -39 17.5 -66.5t38 -46t37 -30.5t13.5 -21q-8 -37 -34.5 -79.5t-56 -80.5t-53.5 -63zM80 848q0 -66 45 -111t111 -45q33 0 62.5 12.5 t51 34t32.5 50t9 59.5q-6 66 -47.5 111t-107.5 45t-111 -45.5t-45 -110.5z" />
<glyph unicode="&#x3c;" horiz-adv-x="1161" d="M23 430l1042 -448v188l-797 348l797 348v191l-1042 -451v-176z" />
<glyph unicode="=" horiz-adv-x="1150" d="M23 205h1032v192h-1032v-192zM23 639h1032v192h-1032v-192z" />
<glyph unicode="&#x3e;" horiz-adv-x="1161" d="M23 -18l1042 448v176l-1042 451v-191l796 -348l-796 -348v-188z" />
<glyph unicode="?" horiz-adv-x="942" d="M23 1235l38 -16q43 76 125 102.5t164 6t142.5 -87t60.5 -177.5q0 -84 -36 -151.5t-79 -132t-77.5 -132t-30.5 -151.5l2 -58h147q2 33 4 59.5t9.5 49t21.5 45t39 47.5q45 45 96 92t95 101.5t73 114t29 128.5q0 143 -109 248q-41 39 -103.5 63.5t-133 34t-145 2t-140 -30 t-117 -62.5t-75.5 -95zM248 141q0 -66 45 -109.5t110 -43.5q66 0 111 44t45 109q0 66 -45 111t-111 45t-110.5 -45t-44.5 -111z" />
<glyph unicode="@" horiz-adv-x="1591" d="M20.5 445.5q6.5 -138.5 64.5 -265.5t162.5 -224t247 -155.5t314.5 -58.5l2 127q-117 0 -223.5 45t-188.5 123q-88 86 -132 197.5t-44 230.5t43 232.5t127 199.5q166 176 404 176q96 0 198.5 -29.5t186.5 -87t138 -142.5t54 -196q0 -78 -20.5 -155.5t-65.5 -145.5 q-14 -20 -37.5 -48.5t-52.5 -50t-59.5 -27t-57.5 19.5q-8 10 -15 25.5t-3 25.5l133 557h-160l-20 -92q-20 61 -71.5 97t-115.5 36q-98 0 -171.5 -44t-129.5 -122q-39 -53 -70.5 -125.5t-43 -149.5t3 -150.5t67.5 -129.5q33 -35 74 -56.5t90 -21.5q68 0 135.5 38t108.5 91 q20 -80 72.5 -110.5t119 -21t139 54.5t133 117.5t99.5 170t39 209.5q0 127 -53 229.5t-146 184.5q-111 98 -250 142t-282 37t-278.5 -63.5t-239.5 -158.5q-123 -121 -177.5 -259t-48 -276.5zM597 342q-5 55 11.5 121.5t50 122t83 93.5t108.5 38q55 0 81.5 -38t30 -93.5 t-14 -122t-50.5 -121.5t-79 -93t-99 -38q-57 0 -87 38t-35 93z" />
<glyph unicode="A" horiz-adv-x="1544" d="M23 0h370v27q-25 0 -45 3t-31.5 12t-13.5 26.5t8 46.5l99 258h518l100 -262q12 -29 9 -46.5t-15 -25.5t-31.5 -10t-44.5 -2v-27h502v27q-35 0 -56.5 25.5t-33.5 53.5l-535 1311h-186l-520 -1302q-14 -35 -35 -58.5t-59 -29.5v-27zM463 520l203 547l208 -547h-411z" />
<glyph unicode="B" horiz-adv-x="1259" d="M23 0h587q96 0 194.5 18.5t178.5 63.5t130 122t50 191q0 76 -30.5 135.5t-81 102.5t-116 69.5t-132.5 38.5q63 14 118.5 39t95.5 63t63.5 90t23.5 124q0 104 -47 171.5t-120 105.5t-162 52.5t-175 14.5h-577v-27h13q42 0 64 -11q26 -13 25 -73v-1177q0 -59 -25.5 -71.5 t-76.5 -14.5v-27zM428 203v465h86q70 0 130.5 -12.5t105.5 -43t69.5 -82t24.5 -131.5q0 -137 -74 -198.5t-207 -61.5q-43 0 -77.5 11.5t-57.5 52.5zM428 803v409q18 35 57 42.5t74 7.5q117 0 176.5 -54.5t59.5 -173.5q0 -72 -20.5 -117t-57.5 -70.5t-90.5 -34.5t-116.5 -9 h-82z" />
<glyph unicode="C" horiz-adv-x="1345" d="M23 688q0 -172 54 -305t153.5 -225t237.5 -140.5t306 -48.5q141 0 256 44t219 139l-10 51q-83 -78 -195 -109q-64 -18 -135 -18q-52 0 -108 10q-111 18 -194 76.5t-140 142.5t-86 187.5t-29 212.5q0 104 21.5 207.5t72 186.5t133.5 134t205 51q135 0 248 -70.5 t166 -193.5q29 8 30 9l1 1l-2 369h-31q-4 -20 -16.5 -33.5t-34.5 -15.5q-4 0 -25.5 6t-47 13t-48.5 14.5t-29 9.5q-115 37 -231 37q-166 0 -303 -53.5t-234.5 -151t-150.5 -234.5t-53 -303z" />
<glyph unicode="D" horiz-adv-x="1441" d="M23 1374q8 1 16 1q35 1 55 -15q24 -18 25 -70v-1177q0 -55 -22.5 -70.5t-71.5 -15.5v-27h536q172 0 316.5 42t249 130t162 222t57.5 317q0 180 -59.5 310t-165 215t-249 125t-311.5 40h-538v-27zM426 203v1014q25 31 67 35.5t76 4.5q117 0 203 -48t141.5 -125.5t82 -178 t26.5 -205.5q0 -113 -24.5 -214t-80 -177t-143.5 -120t-213 -44q-41 0 -76.5 9.5t-58.5 48.5z" />
<glyph unicode="E" horiz-adv-x="1214" d="M23 0h1048l47 334h-31q-41 -102 -110.5 -147.5t-179.5 -45.5h-273q-37 0 -65.5 7.5t-28.5 52.5v450h272q90 0 125 -39t43 -125h29v463h-29q-10 -86 -44.5 -121.5t-123.5 -35.5h-272v411q0 41 16.5 48.5t53.5 7.5h299q104 0 160.5 -36t72.5 -143h29l-2 320h-1036v-27 q51 0 75.5 -13t24.5 -71v-1177q0 -31 -6 -47.5t-18.5 -24.5t-31 -10t-44.5 -4v-27z" />
<glyph unicode="F" horiz-adv-x="1124" d="M23 0h528v27q-27 0 -49.5 1t-37.5 8t-24.5 24.5t-9.5 50.5v538h244q90 0 127 -38t45 -126h28v463h-28q-10 -86 -47 -121.5t-125 -35.5h-244v413q0 41 16.5 48.5t53.5 7.5h266q104 0 160.5 -36t72.5 -143h29l-2 320h-1003v-27q51 0 75.5 -13t24.5 -71v-1177 q0 -31 -5 -47.5t-17.5 -24.5t-32 -10t-45.5 -4v-27z" />
<glyph unicode="G" horiz-adv-x="1497" d="M23 696q0 -178 55 -314t155.5 -227.5t242.5 -138.5t315 -47q55 0 124.5 6.5t140 19.5t136 33.5t115.5 47.5v518q0 51 23.5 67.5t70.5 16.5v27h-506v-33h45q25 0 39 -2t21.5 -10.5t9.5 -25t2 -44.5v-395q0 -27 -27 -43.5t-61.5 -24.5t-69.5 -11t-51 -3q-102 0 -185 37.5 t-147 117.5q-70 88 -95.5 197.5t-25.5 220.5t23.5 218.5t77 192.5t141.5 136t217 51q68 0 134.5 -16.5t124.5 -49t105.5 -80.5t73.5 -112l27 -2l-2 375h-29q-8 -16 -19.5 -30.5t-31.5 -18.5l-166 47q-59 16 -119.5 24.5t-122.5 8.5q-166 0 -306 -51.5t-241.5 -146.5 t-157.5 -231.5t-56 -304.5z" />
<glyph unicode="H" horiz-adv-x="1464" d="M23 1374q53 -2 74.5 -14t21.5 -70v-1177q0 -59 -20.5 -70.5t-73.5 -15.5v-27h505v27q-29 0 -48 2t-31.5 9t-18.5 24.5t-6 48.5v534h532v-532q0 -31 -5 -47.5t-17 -24.5t-31.5 -10t-46.5 -4v-27h510v27q-27 0 -46 2t-31.5 10t-18.5 24.5t-6 47.5v1177q0 31 5 47.5t17 24.5 t31.5 10t46.5 4v27h-510v-27q27 0 46.5 -2t31.5 -10t18 -24.5t6 -47.5v-489h-532v487q0 31 6 47.5t18.5 24.5t32 10t45.5 4v27h-505v-27z" />
<glyph unicode="I" horiz-adv-x="643" d="M23 1374q27 0 47 -2t33.5 -9t20.5 -24.5t7 -48.5v-1177q0 -31 -6 -47.5t-19.5 -24.5t-34 -10t-46.5 -4v-27h522v27q-27 0 -47.5 2t-33.5 9t-20.5 24.5t-7.5 48.5v1177q0 31 6.5 47.5t19.5 24.5t33.5 10t47.5 4v27h-522v-27z" />
<glyph unicode="J" horiz-adv-x="915" d="M2 43q2 -37 35 -64.5t77 -44t89 -24.5t73 -8q207 0 313.5 108.5t106.5 315.5v962q0 31 6.5 47.5t18.5 24.5t31.5 10t46.5 4v27h-523v-27q27 0 47.5 -1t35 -9t22.5 -24.5t8 -49.5v-1038q0 -70 -24.5 -116t-62.5 -72.5t-82 -37.5q-40 -11 -78 -11h-6q-40 1 -68.5 11.5 t-34.5 24.5q-2 0 -10.5 -2t-16.5 -4q-5 -1 -5 -2h1z" />
<glyph unicode="K" horiz-adv-x="1486" d="M23 1374q27 0 46 -2t31.5 -10t18.5 -24.5t6 -47.5v-1177q0 -31 -5 -47.5t-17.5 -24.5t-32 -10t-45.5 -4v-27h507v27q-51 0 -75.5 13t-24.5 71v473l31 28l33 -38q34 -37 83.5 -95.5t109 -128t108.5 -132t82.5 -109t33.5 -58.5q0 -10 -10 -15t-22.5 -7t-26.5 -2h-18v-27 h555v27q-45 4 -72 32l-629 727l420 467q47 53 99.5 86t125.5 35v27h-489v-27q12 0 28.5 -1t31 -6t22.5 -16.5t2 -29.5q-43 -66 -105.5 -139.5t-131 -148.5t-137.5 -145.5t-124 -129.5v530q0 59 22.5 70.5t75.5 15.5v27h-507v-27z" />
<glyph unicode="L" horiz-adv-x="1204" d="M23 0h1036l49 352h-33q-25 -59 -49.5 -99t-56 -64.5t-76.5 -36t-113 -11.5h-258q-37 0 -65.5 7.5t-28.5 52.5v1087q0 33 7 49.5t21.5 23.5t35 9t49.5 4v27h-518v-27q51 -2 74.5 -14t23.5 -70v-1177q0 -59 -22.5 -70.5t-75.5 -15.5v-27z" />
<glyph unicode="M" horiz-adv-x="1867" d="M23 0h395v27h-12q-54 0 -76 17q-25 19 -25 85v1059l459 -1188h156l458 1204v-1091q0 -31 -6 -47.5t-18.5 -23.5t-31.5 -10t-46 -5v-27h496v27q-49 2 -74 15t-25 69v1177q0 59 23.5 70.5t75.5 15.5v27h-488l-381 -1016l-389 1016h-489v-27q27 0 46 -2t31.5 -10t18.5 -24.5 t6 -47.5v-1159q0 -35 -4 -54.5t-15.5 -28.5t-32 -13t-52.5 -8v-27z" />
<glyph unicode="N" horiz-adv-x="1435" d="M23 2h389v25q-33 0 -54.5 4t-34 16t-16.5 33.5t-4 56.5v932l741 -1075q2 -4 11 -12h192v1290q0 31 4 49t14.5 29.5t28 16.5t45.5 7v27h-374v-27h9q48 0 70 -20q24 -22 25 -80v-844q-158 248 -321.5 485.5t-321.5 485.5h-399v-27h5q40 0 66 -30q26 -32 27 -76v-1129 q0 -35 -4 -55.5t-15.5 -32.5t-31 -17t-51.5 -7v-25z" />
<glyph unicode="O" horiz-adv-x="1533" d="M23 698q0 -160 49 -294t141 -231t223 -150.5t295 -53.5q162 0 293 54.5t223 151.5t141.5 230t49.5 293t-49.5 295t-140.5 231.5t-222 151t-295 54.5q-166 0 -297 -53.5t-223 -151t-140 -231.5t-48 -296zM350 698q0 90 16.5 193.5t59.5 190.5t116.5 145.5t188.5 58.5 q113 0 186.5 -58.5t116.5 -145.5t59.5 -190.5t16.5 -193.5t-16.5 -193.5t-59.5 -191.5t-116.5 -145t-186.5 -57q-115 0 -188.5 57t-116.5 145t-59.5 190.5t-16.5 194.5z" />
<glyph unicode="P" horiz-adv-x="1206" d="M23 1374q9 1 17 1q36 -1 56 -15q24 -18 23 -70v-1177q0 -57 -21.5 -70.5t-72.5 -15.5v-27h503v27h-13q-41 0 -63 11q-26 13 -26 73v469h152q100 0 196 22.5t171 71.5t120 129t45 194q0 121 -49 200t-129 124t-180.5 62.5t-200.5 17.5h-528v-27zM426 723v498 q16 25 47 30.5t57 5.5q129 0 193.5 -67.5t64.5 -196.5q0 -147 -70.5 -208.5t-213.5 -61.5h-78z" />
<glyph unicode="Q" horiz-adv-x="1533" d="M23 698q0 -147 39.5 -272t117.5 -219t192.5 -154.5t264.5 -79.5q55 -92 151.5 -149t202 -89t203.5 -43t154 -11l8 47q-2 2 -33 21.5t-81 53t-100 70.5t-92 74t-57 61q229 90 337 269.5t108 420.5q0 160 -49.5 295t-140.5 231.5t-222 151t-295 54.5q-166 0 -297 -53.5 t-222 -151t-140 -231.5t-49 -296zM350 698q0 90 16.5 193.5t59.5 190.5t116.5 145.5t188.5 58.5q113 0 186.5 -58.5t116.5 -145.5t59.5 -190.5t16.5 -193.5t-16.5 -193.5t-59.5 -191.5t-116.5 -145t-186.5 -57q-115 0 -188.5 57t-116.5 145t-59.5 190.5t-16.5 194.5z" />
<glyph unicode="R" horiz-adv-x="1380" d="M23 0h507v27q-49 0 -74.5 13t-25.5 71v505l84 2q141 -131 235.5 -284.5t161.5 -333.5h373v27q-29 0 -58.5 35.5t-62.5 94t-71.5 131t-83.5 146.5t-99.5 140.5t-120.5 111.5q68 14 132.5 43t113.5 72t79 100t30 131q0 117 -51.5 189.5t-131 112.5t-178 53.5t-192.5 13.5 h-567v-27h11q38 0 62 -13q26 -15 27 -71v-1177q0 -59 -24.5 -71.5t-75.5 -14.5v-27zM430 758v448q20 39 54 46.5t75 7.5q123 0 193.5 -58.5t70.5 -187.5q0 -82 -24.5 -132.5t-68.5 -78t-104.5 -36.5t-131.5 -9h-64z" />
<glyph unicode="S" horiz-adv-x="1069" d="M29 -6h32q4 31 33 37q4 0 25.5 -4t48.5 -10.5t49.5 -11.5t28.5 -7q72 -18 150 -26q36 -4 72 -3q41 1 81 5q76 8 147.5 33.5t132.5 74.5q74 59 109 135t35 170q0 121 -51.5 203t-127 137t-164.5 94t-165 77t-127 83t-51 113q0 74 37 118q38 44 98 62q42 12 90 13 q19 0 39 -2q70 -7 134.5 -36.5t112.5 -80t62 -117.5h25l14 356h-33q-2 -35 -39 -39q-2 0 -21.5 5t-43 11.5t-45 11.5t-25.5 7q-45 12 -90 19.5t-92 7.5q-98 0 -185 -25t-154 -75t-104.5 -128t-37.5 -184q0 -121 50 -199t123.5 -130t162 -89t162 -75t123.5 -87t50 -125 q0 -70 -41 -115.5t-103 -68.5q-54 -20 -118 -20q-10 1 -20 1q-76 4 -146.5 35t-126 91.5t-77.5 150.5h-25z" />
<glyph unicode="T" horiz-adv-x="1288" d="M23 1073h32q12 86 50 126q37 39 93 53q42 10 90 11q16 1 32 -1q66 -4 135 -5v-1144q0 -31 -7.5 -48.5t-21.5 -24.5t-34.5 -9t-47.5 -4v-27h528v27q-27 0 -47 2t-34.5 9t-21.5 24.5t-7 48.5v1146q70 1 136 5q16 1 32 1q47 -1 87 -11q54 -14 92 -53.5t50 -125.5h33l-4 328 h-1161z" />
<glyph unicode="U" horiz-adv-x="1425" d="M23 1374q9 1 17 1q36 -1 54 -15q24 -18 23 -70v-817q0 -135 43 -230.5t118.5 -155.5t181 -89t230.5 -29q274 0 411.5 139.5t137.5 413.5v729q0 63 12.5 91t77.5 32v27h-387v-27h11q63 0 81 -22q20 -24 19 -99v-721q0 -84 -16.5 -157.5t-55.5 -129t-103.5 -87 t-158.5 -31.5q-88 0 -146.5 30.5t-92.5 83t-47 121t-13 146.5v780q0 59 28.5 71.5t79.5 14.5v27h-505v-27z" />
<glyph unicode="V" horiz-adv-x="1495" d="M23 1374q41 -6 59 -20.5t35 -55.5l512 -1312h194l480 1310q16 41 34.5 57.5t61.5 20.5v27h-377v-27q25 -2 45 -6t32.5 -13t16.5 -27.5t-6 -47.5l-322 -920l-339 932q-10 31 -7.5 47.5t16 23.5t34 9t45.5 2v27h-514v-27z" />
<glyph unicode="W" horiz-adv-x="2101" d="M23 1374q41 -4 57 -22.5t26 -55.5l404 -1310h203l313 1038l303 -1038h203l393 1321q10 29 29.5 47t50.5 20v27h-344v-27q51 0 69 -20q11 -12 11 -34q0 -16 -6 -38l-248 -907l-250 925q-6 27 -3 41.5t13 20.5t27.5 8t40.5 4v27h-461v-27q29 0 49.5 -8t34.5 -35 q-6 -29 -11 -58.5t-14 -58.5l-235 -849l-254 921q-8 26 -8 44q0 14 5 24q11 20 66 20v27h-464v-27z" />
<glyph unicode="X" horiz-adv-x="1499" d="M23 0h434v27q-45 2 -66.5 11t-25 25.5t9 39t31.5 53.5l262 403l258 -430q12 -20 20 -38.5t4 -43.5q-10 -16 -39.5 -18t-46.5 -2v-27h539v27q-41 0 -63.5 24.5t-43.5 54.5l-426 668l324 481q37 53 74 84t104 35v27h-428v-27q78 0 78 -43q0 -23 -23 -59l-241 -375l-242 395 q-16 27 -17 43.5t10 25.5t32.5 11t46.5 2v27h-543v-27q29 0 45 -7t27.5 -18.5t19.5 -25.5t19 -31l399 -612l-401 -571q-29 -41 -55.5 -59.5t-75.5 -22.5v-27z" />
<glyph unicode="Y" horiz-adv-x="1495" d="M23 1374q29 -2 52 -19.5t40 -41.5l446 -756v-444q0 -31 -7 -48.5t-20.5 -24.5t-34 -9t-46.5 -4v-27h522v27q-27 0 -47.5 2t-33.5 9t-19.5 24.5t-6.5 48.5v483l426 700q23 37 41.5 55.5t63.5 24.5v27h-395v-27q61 -4 84 -26q10 -9 10 -24q0 -23 -23 -60l-299 -514 l-305 550q-16 29 -13 44.5t16 21.5t33.5 7t43.5 1v27h-528v-27z" />
<glyph unicode="Z" horiz-adv-x="1257" d="M23 0h1107l31 367h-31q-18 -68 -43.5 -111t-62.5 -67.5t-88 -34t-119 -9.5h-442l747 1131v125h-1032l-24 -332h32q16 59 39 96t54.5 56.5t74.5 26.5t103 7l401 2l-747 -1128v-129z" />
<glyph unicode="[" horiz-adv-x="591" d="M23 -319h473v126q-27 0 -68 -3t-80 1.5t-66.5 19.5t-27.5 54v1395q0 39 27.5 54t66.5 19.5t80 1.5t68 -3v127h-473v-1792z" />
<glyph unicode="\" horiz-adv-x="792" d="M23 1430l477 -1461h196l-479 1461h-194z" />
<glyph unicode="]" horiz-adv-x="587" d="M23 -193v-126h469v1792h-469v-127q25 0 64.5 3t78.5 -1.5t66.5 -19.5t27.5 -54v-1395q0 -39 -27.5 -54t-66.5 -19.5t-79 -1.5t-64 3z" />
<glyph unicode="^" horiz-adv-x="1034" d="M23 639h194l264 557l262 -557h195l-369 762h-176z" />
<glyph unicode="_" horiz-adv-x="1064" d="M-18 -356v-103h1024v103h-1024z" />
<glyph unicode="`" horiz-adv-x="581" d="M21.5 1394.5q-1.5 -10.5 11.5 -18.5l307 -248h145q-18 23 -57 74t-82 105.5t-82 99.5t-59 57q-43 4 -72 0t-70 -26q-6 -4 -16 -10.5t-17 -14.5t-8.5 -18.5z" />
<glyph unicode="a" d="M23 236q0 -111 79 -187q59 -57 134 -71q34 -7 68 -7q41 -1 81 9q74 18 140.5 61t111.5 100q2 -23 6 -50.5t14.5 -50t27.5 -37.5t48 -15q61 0 121.5 17.5t116.5 43.5l-15 25l-28 -19q-12 0 -19.5 25.5t-10.5 58.5t-3 64v39v409q0 100 -30.5 170t-86 113t-133.5 62.5 t-172 19.5q-63 0 -125.5 -12.5t-120.5 -40.5q-29 -16 -58.5 -47t-51.5 -74q-10 -23 -18.5 -54.5t-11.5 -51t-3 -23.5l29 -2q0 2 7 15t20.5 33.5t25.5 35.5q47 49 125 77q66 23 130 23q11 0 23 -1q76 -5 130.5 -48t54.5 -135v-101l-205 -43q-68 -14 -139.5 -36.5t-130 -60.5 t-95 -95.5t-36.5 -138.5zM293 281q0 55 46 109t155 79l135 31v-174q0 -35 -17.5 -68t-42.5 -57q-55 -57 -135 -58q-63 0 -102 42t-39 96z" />
<glyph unicode="b" horiz-adv-x="1153" d="M23 1430l28 -13q12 0 18.5 -8t9.5 -19.5t4 -23.5t1 -20v-1346h133l78 106q119 -131 295 -131q156 0 259 77t155.5 192.5t55.5 251.5v16q0 126 -42 234q-45 116 -137.5 193t-231.5 77q-92 0 -164 -35t-127 -111v582q-37 2 -75 2l-93 -3q-84 -5 -167 -9v-12zM358 342v285 q0 70 31 123q31 54 76 80q43 26 95 25h4q54 -1 99.5 -40t76 -120t30.5 -210q0 -131 -30.5 -214t-75.5 -123q-46 -38 -100 -42q-6 0 -12 -1q-47 0 -87 25q-45 28 -76 83t-31 129z" />
<glyph unicode="c" horiz-adv-x="946" d="M17 490v-6q0 -95 32 -185q33 -92 95.5 -165t154.5 -116t209 -43q96 0 188 36t154 114l-25 39q-41 -45 -103.5 -60.5t-119.5 -15.5q-84 0 -141.5 45t-92 112.5t-50 148.5t-15.5 153q0 57 12.5 116.5t40 108.5t73.5 80t114 31q16 0 36.5 -4.5t40 -11.5t36 -19t24.5 -29 q30 -77 64 -109q27 -24 47 -25q5 0 11 2q24 9 36 57q4 16 3 37q0 40 -14 96q-14 37 -45.5 60.5t-66.5 39.5q-73 33 -147 39q-20 2 -39 2q-54 0 -108 -12q-73 -16 -138.5 -53.5t-116.5 -92.5q-74 -80 -111 -176t-38 -194z" />
<glyph unicode="d" horiz-adv-x="1163" d="M18 494v-11q0 -127 43 -239q45 -116 138.5 -193.5t232.5 -77.5q92 0 166 38t133 108v-131q82 16 167 25.5t169 13.5v26q-35 0 -52.5 12.5t-17.5 49.5v1337q-40 2 -80 2q-50 0 -99 -3q-89 -5 -179 -9v-12q20 -8 35.5 -11.5t27 -9.5t16.5 -20.5t5 -42.5v-465 q-111 135 -281 135q-139 0 -232 -77t-141.5 -194t-50.5 -251zM311 494q0 131 31 211.5t76 118.5t98 38q55 0 100.5 -28.5t76 -82t30.5 -120.5v-275q0 -39 -21.5 -83t-46.5 -72q-29 -31 -62.5 -49.5t-74.5 -18.5q-66 0 -105.5 38t-62 93t-31 117.5t-8.5 112.5z" />
<glyph unicode="e" horiz-adv-x="1015" d="M23 492q0 -115 31.5 -210.5t93 -163t151.5 -105.5t209 -38q115 0 214 47.5t171 139.5l-27 37q-53 -63 -133 -99.5t-162 -36.5q-74 0 -125 42t-84.5 104.5t-51 136.5t-23.5 137l633 4q-2 106 -26 201.5t-74 168.5t-133 116t-202 43q-115 0 -200.5 -42t-144 -114t-88 -167 t-29.5 -201zM287 606q2 47 12 97.5t31.5 91.5t58.5 67.5t96 26.5q57 0 91 -27.5t52.5 -69.5t24.5 -92.5t9 -93.5h-375z" />
<glyph unicode="f" horiz-adv-x="878" d="M23 932h159v-832q0 -43 -15 -59t-56 -16v-25h409v25q-41 0 -52 16t-11 57v834h301v59h-301v199q0 27 5 55.5t18.5 50t35 36t53.5 14.5q29 0 65 -8.5t68 -32.5q16 -12 32 -33l16 -21h34l-6 26t-16 46q-16 35 -44 63.5t-58.5 48t-60.5 31t-52 11.5q-121 0 -192.5 -38 t-110.5 -104.5t-50.5 -154.5t-11.5 -189h-159v-59z" />
<glyph unicode="g" horiz-adv-x="1103" d="M23 -223q0 -72 43 -119t108.5 -75.5t146 -42t156.5 -17.5q16 -1 31 -1q96 0 174 32q90 38 174 81q145 72 145 228q0 94 -30.5 143t-79.5 68q-44 18 -101 18h-12q-63 -2 -128.5 -12t-129.5 -20q-45 -8 -84 -8q-15 0 -28 1q-50 4 -80.5 28.5t-30.5 86.5q0 39 32.5 60.5 t65.5 31.5q25 -6 50.5 -7t50.5 -1q88 0 162.5 24.5t130 71.5t87 119t31.5 166q0 25 -13 62.5t-28.5 73.5t-29.5 61l-13 26q28 3 58 3h15q38 -1 71 -11l39 135q-14 6 -53.5 5t-84.5 -7t-86 -13.5t-59 -11.5q-53 33 -112.5 46.5t-121.5 13.5q-109 0 -190.5 -39t-135.5 -102.5 t-78 -142.5q-16 -52 -16 -104q0 -27 5 -54q12 -80 60 -153t138 -122q-66 -25 -112.5 -67t-63.5 -88q-6 -19 -6 -37q0 -28 14 -55q25 -46 105 -81q-35 -12 -67.5 -28.5t-59.5 -39t-43 -53t-16 -73.5zM221 -201q0 20 14.5 41t36 37.5t45 29.5t39.5 21q53 -10 107.5 -12 t107.5 -4q25 0 65 -3t78 -13.5t65.5 -30t27.5 -55.5q0 -43 -28.5 -66t-65.5 -33q-25 -8 -71 -15t-102 -10q-33 -2 -66 -2q-23 0 -45 1q-56 2 -102 14t-76 36.5t-30 63.5zM340 649q0 43 4 86t19.5 78t46.5 57.5t82 22.5q53 0 82.5 -24.5t45 -63.5t19.5 -84t4 -88t-3 -89 t-18.5 -83t-45 -60.5t-80.5 -23.5q-53 0 -85 25.5t-47.5 65.5t-19.5 88t-4 93z" />
<glyph unicode="h" horiz-adv-x="1142" d="M23 0h397v25q-39 0 -50.5 17t-11.5 56q0 131 -1 261v87q0 87 1 175q0 10 6.5 32.5t10.5 32.5q23 66 72 110t122 44q43 0 72 -18.5t45 -48.5t22.5 -65.5t6.5 -72.5v-535q0 -37 -10.5 -56t-49.5 -19v-25h392v25q-37 0 -47.5 19t-10.5 54v564q0 150 -71 238q-70 86 -170 110 q-37 9 -75 9q-65 0 -133 -26q-108 -41 -182 -151v610q-37 2 -75 2l-93 -3q-84 -5 -167 -9v-12l28 -13q12 0 18.5 -8t9.5 -19.5t4 -23.5t1 -20v-1246q0 -39 -11.5 -57t-49.5 -18v-25z" />
<glyph unicode="i" horiz-adv-x="489" d="M23 969l30 -13q25 0 30 -27.5t5 -43.5v-785q0 -39 -12.5 -57t-50.5 -18v-25h368v25q-27 0 -29 27.5t-2 45.5v895q-34 2 -68 2q-52 0 -102 -4q-84 -6 -169 -10v-12zM68 1315q0 -59 44 -100t103 -41t103 41t44 100q0 72 -44 106.5t-103 34.5t-103 -41t-44 -100z" />
<glyph unicode="j" horiz-adv-x="684" d="M-19 -244q-1 -9 -1 -18.5t1 -19.5q1 -19 1 -35v-6q0 -51 32 -86q35 -37 88 -51q26 -6 54 -6q30 0 62 8q61 14 114 64t89 139t36 224v1024q-34 2 -69 2q-52 0 -104 -4q-87 -6 -173 -10v-12l32 -13q29 0 34 -25.5t5 -45.5v-1004q0 -23 -3 -53.5t-12 -58t-27.5 -47 t-49.5 -19.5q-8 0 -14 5t-15 11q-12 8 -18 20.5t-10 25t-10.5 21.5t-18.5 9t-17 -11t-6 -28zM170 1315q0 -59 44 -100t103 -41t103.5 41t44.5 100q0 72 -44 106.5t-104 34.5q-59 0 -103 -41t-44 -100z" />
<glyph unicode="k" horiz-adv-x="1159" d="M23 0h368v25q-27 0 -29 27.5t-2 45.5v310l41 43q8 -12 33 -45t55.5 -76t64.5 -90t62.5 -88t47 -71t18.5 -38l-4 -10q-8 -8 -19 -8v-25h404v25q-23 0 -35 12t-24 29l-398 538l254 289q29 31 67 50.5t79 23.5v24h-392v-24q18 -2 37 -5.5t29 -21.5q0 -10 -8 -21.5t-15 -19.5 l-297 -340v893q-37 2 -75 2q-47 0 -93 -3q-84 -5 -167 -9v-12l28 -13q12 0 18.5 -8t9.5 -19.5t4 -23.5t1 -20v-1246q0 -39 -12.5 -57t-50.5 -18v-25z" />
<glyph unicode="l" horiz-adv-x="489" d="M23 1430l30 -13q25 0 30 -27.5t5 -43.5v-1246q0 -39 -12.5 -57t-50.5 -18v-25h368v25q-27 0 -29 27.5t-2 45.5v1354q-38 2 -76 2q-48 0 -94 -3q-84 -5 -169 -9v-12z" />
<glyph unicode="m" horiz-adv-x="1730" d="M23 0h397v25q-37 0 -47.5 19t-10.5 54q0 131 -1 261v87q0 87 1 175q0 37 15.5 75.5t41 70.5t61.5 52.5t79 20.5t69.5 -20.5t40 -51.5t18.5 -67.5t5 -69.5v-531q0 -37 -10 -56t-49 -19v-25h397v25q-39 0 -49 17t-10 56v523q0 37 14 75.5t39 70.5t58.5 52.5t74.5 20.5 q45 0 72.5 -19.5t43 -49.5t21.5 -66.5t6 -73.5v-531q0 -39 -11 -57t-50 -18v-25h395v25q-39 0 -49 17t-10 56v564q0 106 -36 181t-92 117t-126 54q-29 5 -58 5q-41 -1 -81 -11q-70 -18 -132.5 -62.5t-103.5 -116.5q-29 96 -105.5 141.5t-172.5 45.5q-104 0 -181 -46 t-133 -132v155q-36 2 -73 2q-46 0 -92 -3q-83 -5 -164 -9v-18l28 -13q23 -2 29 -28.5t6 -42.5v-781q0 -41 -12.5 -58t-52.5 -17v-25z" />
<glyph unicode="n" horiz-adv-x="1144" d="M23 965l28 -13q10 0 17.5 -8t11.5 -19.5t5 -23.5t1 -20v-781q0 -39 -11.5 -57t-49.5 -18v-25h385v25q-25 0 -37.5 28.5t-12.5 44.5v523q0 8 6.5 30.5t10.5 32.5q23 68 71 112t123 44q43 0 72 -18.5t45.5 -48.5t22.5 -65.5t6 -72.5v-535q0 -35 -10.5 -55t-47.5 -20v-25 h398l-6 25q-23 0 -35 10t-17.5 22.5t-6.5 24.5t-1 16v564q0 100 -32.5 172.5t-86.5 116.5q-56 43 -124 59q-35 8 -71 9q-33 1 -67 -7q-70 -14 -138.5 -57.5t-119.5 -116.5v155q-36 2 -73 2q-46 0 -92 -3q-83 -5 -164 -9v-18z" />
<glyph unicode="o" horiz-adv-x="1128" d="M23 494q0 -174 74.5 -289t187 -172.5t241.5 -57.5q131 0 244 58.5t187.5 173.5t74.5 287q0 174 -74.5 289.5t-187.5 173t-244 57.5q-129 0 -241.5 -57.5t-187 -173t-74.5 -289.5zM311 494q0 53 6.5 120.5t28 128t63.5 101.5t115 41q72 0 115 -41t66.5 -101.5t30.5 -128 t7 -120.5t-6 -121t-27.5 -127.5t-63.5 -100.5t-116 -41t-116.5 40t-65 99.5t-30 127t-7.5 123.5z" />
<glyph unicode="p" horiz-adv-x="1159" d="M23 -399v-25h432v25q-41 0 -65.5 12t-24.5 63v433q49 -68 117.5 -101t152.5 -33q106 0 188 47.5t135.5 123t81.5 172.5q26 95 26 190v7q-1 99 -29.5 193.5t-84.5 165.5q-59 74 -141 110q-76 33 -154 33h-13q-85 -3 -161.5 -47t-126.5 -128v151q-36 2 -73 2q-45 0 -91 -3 q-81 -5 -163 -9v-12l28 -13q23 -2 28 -29.5t5 -41.5v-1211q0 -43 -13.5 -59t-53.5 -16zM365 360v261q0 61 30.5 113t75.5 83t99 35h12q48 0 88 -31q45 -35 75.5 -113.5t30.5 -213.5q0 -131 -30.5 -210t-75.5 -116t-101 -37q-53 0 -98 28.5t-75.5 80.5t-30.5 120z" />
<glyph unicode="q" horiz-adv-x="1157" d="M20 496q-1 -10 -1 -20q0 -124 42 -232q45 -115 137.5 -192t231.5 -77q176 1 289 138v-437q0 -49 -22.5 -62t-63.5 -13v-25h428v25q-41 0 -53.5 17t-12.5 58v1328h-137l-86 -130q-55 72 -131 107t-166 35q-150 0 -250 -77t-151 -192.5t-54 -250.5zM309 506q0 127 31 209 t76 123t98 45q7 1 13 1q46 0 85 -25q45 -28 76 -84t31 -136v-285q0 -68 -31 -119t-76 -77q-43 -26 -94 -26h-4q-53 1 -98 41t-76 121t-31 212z" />
<glyph unicode="r" horiz-adv-x="854" d="M23 0h426v25q-41 0 -64 12t-23 61v437q0 39 8.5 87t28 88t53 67.5t85.5 27.5q53 0 92 -39q25 -8 48 7t41.5 42t29 56.5t10.5 52.5q-2 47 -44 69.5t-83 22.5q-102 0 -173 -65.5t-110 -153.5v196q-36 2 -72 2q-45 0 -90 -3q-82 -5 -161 -9v-12l28 -13q10 0 17.5 -8 t11.5 -19t5 -23.5t1 -20.5v-787q0 -41 -12.5 -58t-52.5 -17v-25z" />
<glyph unicode="s" horiz-adv-x="841" d="M23 709q0 -90 35.5 -145.5t90 -90.5t118 -57.5t117.5 -46t90 -55t36 -85.5q0 -51 -30 -81q-28 -28 -74 -40q-29 -7 -62 -8q-18 0 -38 2q-54 6 -103 30t-88 62.5t-52 90.5l-26 -19l-12 -270h26l27 29q70 -16 143.5 -34t145.5 -18q74 0 141 19.5t120.5 58.5t85 99.5 t31.5 140.5q0 90 -35.5 148.5t-90 95t-118 60t-117.5 48.5t-90 54.5t-36 78.5q0 59 48 88q41 25 95 25q9 0 19 -1q66 -5 134.5 -43t104.5 -112l25 12l12 246h-22q-8 -20 -27 -20q-16 0 -35.5 6t-36.5 10q-45 10 -90 19.5t-92 9.5q-72 0 -138.5 -18.5t-118.5 -56.5 t-82.5 -95.5t-30.5 -136.5z" />
<glyph unicode="t" horiz-adv-x="800" d="M23 932h151v-666q0 -92 31 -152.5t80 -94t109 -41.5q23 -3 47 -4q37 0 72 8q58 14 109.5 45.5t82.5 78.5l-29 48q-20 -27 -53 -46.5t-66 -19.5q-66 0 -87 39t-21 96v709h217v59h-217v320l-27 2l-125 -4q0 -4 -4 -29t-13.5 -65.5t-19.5 -69.5t-29.5 -66t-33 -58.5 t-15.5 -25.5l-159 -6v-57z" />
<glyph unicode="u" horiz-adv-x="1138" d="M23 967q37 0 47 -14.5t10 -51.5v-584q0 -102 33.5 -172.5t89 -111.5t125.5 -55q34 -7 67 -6q37 0 74 8q72 14 138.5 55t113.5 106v-153q14 -2 57 3t93.5 12t98.5 14.5t72 9.5l-2 24q-35 -2 -45 16.5t-10 49.5v874h-348v-24q39 0 56.5 -11.5t17.5 -54.5v-541 q0 -43 -18.5 -81.5t-49.5 -69.5q-47 -45 -97 -59q-23 -7 -44 -7q-26 -1 -49 9q-43 18 -71 64t-28 122v653h-331v-24z" />
<glyph unicode="v" horiz-adv-x="1140" d="M23 967q20 -2 34.5 -16.5t25.5 -34t19.5 -41t14.5 -37.5l332 -848h176l350 903q10 27 23.5 49.5t45.5 24.5v24h-299v-24q47 0 57.5 -18.5t-3.5 -59.5l-201 -574l-215 592q-10 25 -2 45q10 10 27.5 11.5t27.5 3.5v24h-413v-24z" />
<glyph unicode="w" horiz-adv-x="1695" d="M23 967q29 -6 37 -20.5t18 -41.5l334 -915h176l241 696l215 -696h181l323 928q8 23 18.5 34t32.5 15v24h-274v-24q37 -4 49 -19.5t0 -52.5l-184 -584l-178 604q-4 12 -3 17.5t3 17.5q8 10 26.5 13.5t28.5 3.5v24h-369v-24q23 -2 34 -7.5t22 -27.5q-4 -18 -8.5 -39 t-10.5 -39l-176 -547l-197 596q-10 33 0.5 46.5t40.5 17.5v24h-380v-24z" />
<glyph unicode="x" horiz-adv-x="1150" d="M23 0h329v25q-55 0 -54 21.5t24 55.5l170 267l176 -285q11 -19 11 -32q0 -27 -48 -27v-25h424v25q-20 4 -31.5 14t-22.5 27l-315 487l250 365q16 25 35.5 35t48.5 14v24h-330v-24q27 0 47.5 -11.5t-0.5 -44.5l-157 -249l-148 239q-8 12 -14 24.5t-2 28.5q10 10 24.5 11.5 t26.5 1.5v24h-430v-24q29 -2 42 -16.5t27 -37.5l283 -434l-272 -389q-16 -23 -41 -44t-53 -21v-25z" />
<glyph unicode="y" horiz-adv-x="1144" d="M23 967q20 0 34.5 -11.5t24.5 -28t16 -36t13 -35.5l348 -883q-10 -31 -23.5 -87t-34 -112.5t-50 -97.5t-70.5 -41q-20 0 -39 19q-4 14 -13.5 35.5t-22.5 40t-30.5 30t-40.5 9.5q-39 -6 -61 -37q-19 -28 -19 -62v-6q0 -27 23.5 -45t55.5 -30.5t64.5 -17.5t51.5 -5 q76 0 130 25.5t94 69.5t68.5 101.5t53.5 120.5l387 1016q10 27 22.5 45.5t43.5 22.5v24h-301v-24q35 0 52 -13.5t5 -50.5l-201 -596l-223 613q-10 29 14.5 38t44.5 9v24h-417v-24z" />
<glyph unicode="z" horiz-adv-x="964" d="M23 0h827l18 272l-30 2q-18 -76 -60.5 -108.5t-120.5 -32.5h-303l498 725v133h-793l-6 -256h27q14 70 46 95.5t99 25.5l303 2l-505 -729v-129z" />
<glyph unicode="{" horiz-adv-x="741" d="M23 539q102 -16 145 -66.5t43 -155.5v-364q0 -55 17.5 -104.5t56.5 -90.5q31 -31 76 -47t94 -23t98 -7h92v88q-104 -4 -154.5 43t-50.5 153v346q0 127 -53 188.5t-180 75.5q127 14 180 76t53 189v348q0 106 50.5 153.5t154.5 42.5v89h-92q-49 0 -98 -7.5t-94.5 -24 t-75.5 -46.5q-39 -41 -56.5 -90.5t-17.5 -104.5v-366q0 -104 -43 -154.5t-145 -67.5v-73z" />
<glyph unicode="|" horiz-adv-x="311" d="M23 -35h192v1503h-192v-1503z" />
<glyph unicode="}" horiz-adv-x="745" d="M23 -231v-88h88q51 0 101 7t95 23.5t76 46.5q39 41 57.5 90.5t18.5 104.5v364q0 104 43 154.5t147 67.5v73q-104 16 -147 66.5t-43 155.5v366q0 55 -18.5 104.5t-57.5 90.5q-31 31 -76 47t-95 23.5t-101 7.5h-88v-89q104 4 155 -42t51 -154v-348q0 -127 55.5 -188.5 t180.5 -76.5q-125 -14 -180.5 -75.5t-55.5 -188.5v-346q0 -109 -51 -155t-155 -41z" />
<glyph unicode="~" d="M23 506l73 -158q33 80 77 113t94 34t105.5 -20.5t114 -48.5t118 -48.5t114.5 -21.5q86 0 149.5 52.5t102.5 123.5l-76 158q-35 -82 -79 -113.5t-94 -32.5t-105.5 20.5t-113 48t-115.5 48t-114 21.5q-86 0 -151.5 -51t-99.5 -125z" />
<glyph unicode="&#xa1;" horiz-adv-x="444" d="M23 -287q4 -37 29.5 -62.5t59 -38.5t72.5 -13q41 0 75 12t58.5 37.5t30.5 64.5q2 25 -4 78t-17.5 113.5t-21.5 119t-12 91.5l-39 456h-135l-39 -456q-4 -33 -14.5 -91.5t-20.5 -120t-18.5 -114.5t-3.5 -76zM31 874q0 -63 45 -108t108 -45q66 0 110 45t44 111 q0 63 -45 108t-109 45q-66 0 -109.5 -45t-43.5 -111z" />
<glyph unicode="&#xa2;" horiz-adv-x="940" d="M29.5 383q19.5 -111 85 -209t182.5 -158l-88 -264h96l78 238q57 -18 121.5 -17.5t127 19t118 52.5t94.5 81l-25 39q-31 -35 -78 -46.5t-99 -5t-102.5 28t-88.5 49.5l215 644l8 -15q-2 -59 20.5 -88t51 -23.5t52 47.5t23.5 122q-14 35 -45 58t-63 40l84 254h-97l-73 -225 q-49 12 -103 12q-135 0 -236.5 -57.5t-165 -148.5t-88 -203.5t-5 -223.5zM304 515q-3 73 10.5 144.5t47 125t88 81t134.5 13.5l-205 -617q-33 45 -52.5 112.5t-22.5 140.5z" />
<glyph unicode="&#xa3;" horiz-adv-x="1064" d="M23 174q0 -66 8 -102.5t31.5 -55t64.5 -23.5t106 -5q115 0 197 69q47 -29 99.5 -49t107.5 -20q41 0 88 22.5t89 53t78 62.5t55.5 52.5t21.5 22.5l-4 35l-28 -14q-28 -15 -70 -31.5t-91 -27.5t-92 -5q-59 10 -108.5 42.5t-77.5 47.5q2 49 6 112.5t7 130t6 130t3 112.5h262 v62h-268q-8 41 -18.5 93t-15.5 107.5t-1 106.5t23.5 92t59.5 65.5t106 24.5q41 0 78.5 -15.5t58.5 -51.5q0 -12 -1 -24.5t-1 -25.5q0 -35 22.5 -44t51.5 -1q27 8 42 25.5t21 39t8 47.5t2 48q-12 43 -45 69.5t-73.5 43t-85 22.5t-82.5 6q-96 0 -184.5 -28.5t-153.5 -100.5 q-63 -68 -95 -150.5t-24 -174.5l14 -174h-168v-62h185q12 -49 20 -107.5t13 -120t7.5 -122t2.5 -111.5q-35 2 -80 7.5t-85 0t-66.5 -28t-26.5 -77.5zM145 135q0 31 16.5 43t39.5 12t46.5 -9t39.5 -21q-6 -39 -28.5 -56.5t-48.5 -19.5t-45.5 12.5t-19.5 38.5z" />
<glyph unicode="&#xa5;" horiz-adv-x="1335" d="M23 1374q35 -2 55 -17.5t37 -43.5l323 -586h-233v-68h278l19 -34v-172h-297v-68h297v-272q0 -31 -7.5 -48.5t-21.5 -24.5t-34.5 -9t-47.5 -4v-27h490v27q-27 0 -47.5 2t-34 9t-20.5 24.5t-7 48.5v274h297v68h-297v186l10 20h287v68h-240l320 582q16 31 35.5 45t54.5 20 v27h-348v-27q53 0 69.5 -19.5t-8.5 -70.5l-266 -534l-270 540q-27 53 -15.5 66.5t72.5 17.5v27h-450v-27z" />
<glyph unicode="&#xa6;" horiz-adv-x="311" d="M23 -35h192v570h-192v-570zM23 895h192v573h-192v-573z" />
<glyph unicode="&#xa7;" horiz-adv-x="948" d="M23 586q0 -80 40.5 -142.5t102 -113.5t131.5 -92t127 -74q23 -12 51.5 -30.5t55 -41t44 -49.5t17.5 -57q0 -68 -51.5 -100.5t-121 -39t-138 8t-105.5 43.5q2 8 10.5 16t16.5 16.5t14 17.5t6 19q0 25 -20.5 40.5t-45 16.5t-47 -13.5t-24.5 -47.5q-4 -45 3 -73.5t28.5 -49 t57.5 -37t85 -36.5q102 -41 199 -41q98 0 174 31.5t123 89t53 131t-38 156.5t-153 165q115 20 174.5 86t59.5 182q0 80 -41 142.5t-102.5 113.5t-131 91t-126.5 75q-23 14 -52.5 32.5t-55.5 41t-43 49.5t-17 57q0 66 44 98.5t105.5 40t125 -7t99.5 -43.5q-6 -16 -26.5 -31.5 t-20.5 -37.5q0 -31 20.5 -46.5t45 -16.5t46 15.5t26.5 51.5q6 43 -1.5 71.5t-28 49t-55 38t-83.5 38.5q-102 43 -193.5 42t-162 -34t-113.5 -92.5t-45.5 -133t42 -155.5t148.5 -162q-115 -20 -174 -86t-59 -182zM205 666q0 47 28.5 83t73.5 46q53 -14 116.5 -50t108.5 -69 q49 -35 93.5 -77t44.5 -110q0 -47 -29 -82.5t-74 -46.5q-53 14 -116.5 51.5t-108.5 67.5q-51 35 -94 77t-43 110z" />
<glyph unicode="&#xa8;" horiz-adv-x="794" d="M23 1282q0 -53 34.5 -92t87.5 -39t89 39t36 92q0 59 -35.5 95t-89.5 36q-53 0 -87.5 -39t-34.5 -92zM449 1282q0 -53 35.5 -92t88.5 -39t89 36t36 95q0 53 -35.5 92t-89.5 39q-53 0 -88.5 -39t-35.5 -92z" />
<glyph unicode="&#xa9;" horiz-adv-x="1564" d="M21.5 690q3.5 -137 56.5 -265t147 -227.5t226.5 -158.5t293.5 -59q160 0 292 59t227.5 158.5t148.5 227.5t56.5 265t-48 272.5t-166.5 249.5q-213 213 -510 213q-299 0 -512 -213q-115 -115 -165 -250t-46.5 -272zM196 701.5q1 113.5 38.5 221t108.5 191.5t173 135 t229 51q117 0 214.5 -45t175.5 -131q84 -90 122.5 -200.5t37.5 -224t-38.5 -221t-108.5 -191.5t-173.5 -135.5t-229.5 -51.5q-117 0 -214 45t-175 131q-84 90 -122.5 201t-37.5 224.5zM348 711q0 -96 31 -175t87 -134.5t135 -85t175 -29.5q49 0 98.5 21.5t87 58t59 85 t15.5 101.5h-24q-16 -57 -57.5 -97t-92.5 -56.5t-105.5 -9.5t-100.5 44t-75.5 105.5t-29.5 175.5q0 98 28.5 164.5t72.5 103.5t98.5 47t103.5 -6t87 -56t52 -102h41q0 20 -2 40t-8 42q-16 68 -72.5 114t-131.5 64.5t-157.5 6t-152.5 -61.5t-116 -138t-46 -222z" />
<glyph unicode="&#xaa;" horiz-adv-x="745" d="M23 958q0 -74 46 -111.5t110.5 -42.5t133 19.5t115.5 77.5q6 -53 27.5 -74.5t53.5 -24.5t68.5 8t71.5 26l-10 26l-18 -12q-8 0 -12.5 15.5t-6.5 36t-2 36.5v25v245q0 76 -32.5 124t-82 70.5t-109 26t-113.5 -10t-96 -39t-54 -56.5q0 -27 -10.5 -46.5t14.5 -29.5 q6 -4 8 -8t2 12q0 10 13.5 21.5t9.5 21.5q20 31 66 46.5t92 10.5t81 -31t35 -77v-59l-135 -27q-43 -8 -90 -19.5t-86 -33t-64.5 -56t-25.5 -90.5zM202 987q1 33 31.5 64.5t100.5 46.5l90 18v-104q0 -25 -12.5 -44.5t-31 -33.5t-42 -22.5t-43.5 -8.5q-43 0 -68.5 25.5 t-24.5 58.5z" />
<glyph unicode="&#xab;" horiz-adv-x="1038" d="M23 498l339 -381q16 -6 40 -10.5t46.5 -2.5t38 14.5t17.5 37.5l-213 348l223 348q-2 25 -17.5 37t-38 14t-46 -2t-39.5 -10l-350 -381v-12zM451 498l340 -381q16 -6 39.5 -10.5t46 -2.5t38 14.5t17.5 37.5l-213 348l223 348q-2 25 -17.5 37t-38 14t-46 -2t-39.5 -10 l-350 -381v-12z" />
<glyph unicode="&#xac;" horiz-adv-x="1388" d="M135 641h842v-420h190v610h-1032v-190zM340 1446q0 -53 35 -92t88 -39t89 39t36 92q0 59 -36 95t-89 36t-88 -39t-35 -92zM506 1425q0 23 22 23q23 0 23 -23t-23 -22q-23 0 -22 22zM766 1446q0 -53 36 -92t89 -39t89 36t36 95q0 53 -36 92t-89 39t-89 -39t-36 -92z M928 1425q0 23 22 23q23 0 23 -23t-23 -22q-23 0 -22 22z" />
<glyph unicode="&#xad;" horiz-adv-x="636" d="M23 524h518v181h-518v-181z" />
<glyph unicode="&#xae;" horiz-adv-x="1564" d="M21.5 690q3.5 -137 56.5 -265t147 -227.5t226.5 -158.5t293.5 -59q160 0 292 59t227.5 158.5t148.5 227.5t56.5 265t-48 272.5t-166.5 249.5q-213 213 -510 213q-299 0 -512 -213q-115 -115 -165 -250t-46.5 -272zM196 701.5q1 113.5 38.5 221t108.5 191.5t173 135 t229 51q117 0 214.5 -45t175.5 -131q84 -90 122.5 -200.5t37.5 -224t-38.5 -221t-108.5 -191.5t-173.5 -135.5t-229.5 -51.5q-117 0 -214 45t-175 131q-84 90 -122.5 201t-37.5 224.5zM424 309h274v33q-27 0 -39 15.5t-12 39.5v256h78q20 -35 55 -83t75 -97t79 -93t65 -71 h164v13q-33 39 -72.5 81.5t-79.5 88t-78 90.5t-65 88q63 12 107.5 49t65 85t17.5 101t-34 97.5t-89 73t-149 28.5h-362v-33q53 0 53 -53v-621q0 -25 -13 -40t-40 -15v-33zM647 739v279h103q47 0 77.5 -20.5t45 -51.5t14.5 -67q0 -37 -16.5 -68t-47 -51.5t-75.5 -20.5h-101z " />
<glyph unicode="&#xaf;" horiz-adv-x="2121" />
<glyph unicode="&#xb0;" horiz-adv-x="733" d="M27.5 1172q-13.5 -91 19.5 -170.5t106.5 -135t176.5 -55.5q102 0 176 55.5t106.5 135t19 171t-84.5 162.5q-90 90 -217 90t-217 -90q-72 -72 -85.5 -163zM129 1118q0 53 22.5 98.5t66.5 75t112 29.5t111.5 -29.5t66 -75t22.5 -98.5t-22.5 -98t-66.5 -75t-111 -30 q-68 0 -112 30t-66.5 75t-22.5 98z" />
<glyph unicode="&#xb1;" horiz-adv-x="1150" d="M23 0h1032v190h-1032v-190zM23 559h419v-287h193v287h420v191h-420v288h-193v-288h-419v-191z" />
<glyph unicode="&#xb2;" horiz-adv-x="749" d="M23 569h595l35 197h-16q-14 -35 -34.5 -43t-55.5 -8h-311q49 43 112.5 94t120.5 110.5t97 128t40 142.5t-33.5 124t-87 77.5t-118 31.5t-127 -13t-115.5 -55t-84 -95l29 -68q25 49 84 74.5t118.5 22.5t105.5 -36.5t46 -101.5q0 -41 -21.5 -87t-55.5 -93t-78 -93.5 t-88 -88t-86 -77.5t-72 -61v-82z" />
<glyph unicode="&#xb3;" horiz-adv-x="727" d="M23 623q12 -23 39.5 -37.5t61.5 -21.5t66.5 -9t55.5 -2q109 0 187.5 31.5t125.5 82t63.5 110t4 114.5t-55.5 99t-114 63q63 27 103 68.5t40 113.5q0 61 -32.5 102t-85 62.5t-116 24.5t-124 -10t-112.5 -42t-79 -72l19 -71q35 41 85 61.5t103 20.5q82 0 123 -41t35 -91.5 t-63.5 -91t-172.5 -40.5l2 -74q43 2 92.5 -7.5t92.5 -31t70.5 -58t27.5 -88.5q0 -66 -50 -103.5t-112 -37.5q-53 0 -88 16.5t-80 34.5q-43 18 -75.5 -6t-36.5 -69z" />
<glyph unicode="&#xb4;" horiz-adv-x="581" d="M23 1128h143l309 248q12 8 10 18.5t-9 18.5t-18.5 14.5t-17.5 10.5q-39 23 -67.5 26.5t-71.5 -0.5q-23 -12 -61.5 -57t-80.5 -99.5t-80 -105.5t-56 -74z" />
<glyph unicode="&#xb5;" horiz-adv-x="1138" d="M23 967q37 0 47 -14.5t10 -51.5q0 -223 -1 -445.5t-7 -445.5q0 -25 -6.5 -77t-11.5 -107t-9 -102.5t0 -61.5q8 -41 44 -63.5t80 -24.5t84 19.5t58 68.5q0 98 -16 194.5t-23 194.5q35 -43 87.5 -59.5t105.5 -16.5q82 0 149.5 48.5t106.5 117.5v-153q14 -2 57 3t93.5 12 t98.5 14.5t72 9.5l-2 24q-35 0 -45 17.5t-10 48.5v874h-348v-24q39 0 56.5 -11.5t17.5 -54.5v-541q0 -43 -18.5 -81.5t-49.5 -69.5q-45 -45 -96 -59.5t-94 3t-71 63.5t-28 122v653h-331v-24z" />
<glyph unicode="&#xb6;" horiz-adv-x="1187" d="M23 1026q0 -207 111.5 -307.5t314.5 -104.5v-829q0 -27 -6.5 -40t-18.5 -20.5t-29.5 -9.5t-38.5 -4v-26h289v1613h158v-1613h289v26q-23 2 -39.5 4t-28.5 9.5t-18.5 20.5t-6.5 40v1515q0 41 28 57.5t65 16.5v27h-621q-96 0 -179 -18.5t-142.5 -62.5t-93 -115.5 t-33.5 -178.5zM217 1024q0 57 13.5 106.5t41 86t71.5 58t106 21.5v-571q-61 4 -105.5 29.5t-72 66.5t-41 93.5t-13.5 109.5z" />
<glyph unicode="&#xb7;" horiz-adv-x="430" d="M23 618q0 -66 45 -110.5t110 -44.5q66 0 111 46t45 109q0 66 -45 111t-111 45t-110.5 -45t-44.5 -111z" />
<glyph unicode="&#xb8;" horiz-adv-x="593" d="M23 -408q49 -18 102 -28t106 -10q94 0 152.5 26.5t86.5 65.5t29 84t-19.5 82.5t-59.5 59.5t-92 15l-80 -12l80 137h-107l-102 -190l28 -33q16 4 35 7t35 7q37 6 62.5 -17.5t28.5 -54t-23.5 -56t-89.5 -25.5q-29 0 -70 8t-66 23z" />
<glyph unicode="&#xb9;" horiz-adv-x="593" d="M23 1260l43 -72l114 65q20 0 32.5 -6t12.5 -28v-590q0 -18 -9 -27.5t-21.5 -13.5t-27.5 -6t-28 -4v-9h359v15q-27 0 -53.5 5t-26.5 40v790h-90z" />
<glyph unicode="&#xba;" horiz-adv-x="784" d="M23 1114q0 -104 49 -174t122.5 -104.5t159.5 -34.5q88 0 162 34.5t123 104.5t49 174t-49 174t-123 104.5t-162 34.5q-86 0 -159.5 -34.5t-122.5 -104t-49 -174.5zM213 1114q0 37 4 78t19.5 76t43 57.5t74.5 22.5q45 0 74 -24t44 -58.5t20.5 -75.5t5.5 -76q0 -37 -4.5 -78 t-19.5 -75.5t-43 -57t-75 -22.5t-74.5 22.5t-43 57t-20.5 75.5t-5 78z" />
<glyph unicode="&#xbb;" horiz-adv-x="1044" d="M23 852l229 -348l-219 -348q2 -27 18.5 -38.5t38 -13.5t46 2.5t40.5 10.5l344 381v12l-354 381q-16 6 -41 10t-46.5 2t-37.5 -13t-18 -38zM451 852l229 -348l-219 -348q2 -27 18.5 -38.5t38 -13.5t46 2.5t40.5 10.5l344 381v12l-354 381q-16 6 -41 10t-46.5 2t-37.5 -13 t-18 -38z" />
<glyph unicode="&#xbc;" horiz-adv-x="1654" d="M23 1260l43 -72l114 65q20 0 32.5 -6t12.5 -28v-590q0 -18 -9 -27.5t-21.5 -13.5t-27.5 -6t-28 -4v-9h359v15q-27 0 -53.5 5t-26.5 40v790h-90zM309 -31h142l878 1467h-141zM893 180h377v-180h178v180h111v129h-111v541h-160l-395 -535v-135zM995 309l275 375v-375h-275z " />
<glyph unicode="&#xbd;" horiz-adv-x="1728" d="M23 1260l43 -72l114 65q20 0 32.5 -6t12.5 -28v-590q0 -18 -9 -27.5t-21.5 -13.5t-27.5 -6t-28 -4v-9h359v15q-27 0 -53.5 5t-26.5 40v790h-90zM283 -31h141l879 1467h-142zM1001 0h596l35 197h-16q-14 -35 -34.5 -43.5t-55.5 -8.5h-312q49 43 113 94.5t121 111t97 128 t40 142.5t-33.5 124t-86 77.5t-118 31.5t-128 -13.5t-116.5 -55t-83 -95.5l29 -67q25 49 84 74.5t118.5 22.5t105.5 -37t46 -101q0 -41 -21.5 -87t-55.5 -93.5t-78 -93.5t-88 -88t-86 -78t-73 -60v-82z" />
<glyph unicode="&#xbe;" horiz-adv-x="1669" d="M23 623q12 -23 39.5 -37.5t61.5 -21.5t66.5 -9t55.5 -2q109 0 187.5 31.5t125.5 82t63.5 110t4 114.5t-55.5 99t-114 63q63 27 103 68.5t40 113.5q0 61 -32.5 102t-85 62.5t-116 24.5t-124 -10t-112.5 -42t-79 -72l19 -71q35 41 85 61.5t103 20.5q82 0 123 -41t35 -91.5 t-63.5 -91t-172.5 -40.5l2 -74q43 2 92.5 -7.5t92.5 -31t70.5 -58t27.5 -88.5q0 -66 -50 -103.5t-112 -37.5q-53 0 -88 16.5t-80 34.5q-43 18 -75.5 -6t-36.5 -69zM330 -31h141l879 1467h-142zM907 180h377v-180h178v180h111v129h-111v541h-159l-396 -535v-135zM1010 309 l274 375v-375h-274z" />
<glyph unicode="&#xbf;" horiz-adv-x="946" d="M23 -55q0 -143 108 -248q41 -39 104.5 -64.5t135 -35t146.5 -3t141.5 30t117.5 63.5t74 97q0 16 3 33.5t3 29.5t-3 18.5t-15 4.5q-18 -4 -19.5 -21.5t-11.5 -33.5q-29 -41 -77 -65.5t-102.5 -34t-109.5 0t-100 38t-73 78.5t-28 124q0 86 36 152.5t79 128t77 128t32 156.5 l-2 58h-146q-2 -33 -5 -59.5t-10 -49t-21.5 -45.5t-39.5 -47q-45 -43 -96 -91t-95 -101.5t-73.5 -114t-29.5 -127.5zM311 874q0 -63 45 -108t109 -45q66 0 109.5 45t43.5 111q0 63 -45 108t-108 45q-66 0 -110 -45t-44 -111z" />
<glyph unicode="&#xc0;" horiz-adv-x="1544" d="M23 0h370v27q-25 0 -45 3t-31.5 12t-13.5 26.5t8 46.5l99 258h518l100 -262q12 -29 9 -46.5t-15 -25.5t-31.5 -10t-44.5 -2v-27h502v27q-35 0 -56.5 25.5t-33.5 53.5l-535 1311h-186l-520 -1302q-14 -35 -35 -58.5t-59 -29.5v-27zM439 1775.5q-1 -10.5 12 -18.5l307 -248 h145q-18 23 -57 74t-82 105.5t-82 99.5t-59 57q-43 4 -72 0t-70 -26q-6 -4 -16 -10.5t-17.5 -14.5t-8.5 -18.5zM463 520l203 547l208 -547h-411z" />
<glyph unicode="&#xc1;" horiz-adv-x="1544" d="M23 0h370v27q-25 0 -45 3t-31.5 12t-13.5 26.5t8 46.5l99 258h518l100 -262q12 -29 9 -46.5t-15 -25.5t-31.5 -10t-44.5 -2v-27h502v27q-35 0 -56.5 25.5t-33.5 53.5l-535 1311h-186l-520 -1302q-14 -35 -35 -58.5t-59 -29.5v-27zM463 520l203 547l208 -547h-411z M578 1509h143l309 248q12 8 10 18.5t-9 18.5t-18.5 14.5t-17.5 10.5q-39 23 -67.5 26.5t-71.5 -0.5q-23 -12 -61.5 -57t-80.5 -99.5t-80 -105.5t-56 -74z" />
<glyph unicode="&#xc2;" horiz-adv-x="1544" d="M23 0h370v27q-25 0 -45 3t-31.5 12t-13.5 26.5t8 46.5l99 258h518l100 -262q12 -29 9 -46.5t-15 -25.5t-31.5 -10t-44.5 -2v-27h502v27q-35 0 -56.5 25.5t-33.5 53.5l-535 1311h-186l-520 -1302q-14 -35 -35 -58.5t-59 -29.5v-27zM403 1509h146l194 189l193 -189h145 l-239 332h-197zM463 520l203 547l208 -547h-411z" />
<glyph unicode="&#xc3;" horiz-adv-x="1544" d="M23 0h370v27q-25 0 -45 3t-31.5 12t-13.5 26.5t8 46.5l99 258h518l100 -262q12 -29 9 -46.5t-15 -25.5t-31.5 -10t-44.5 -2v-27h502v27q-35 0 -56.5 25.5t-33.5 53.5l-535 1311h-186l-520 -1302q-14 -35 -35 -58.5t-59 -29.5v-27zM373 1546h94q8 53 35.5 72.5t63.5 18.5 t75 -15t70 -29q41 -18 82 -30.5t86 -12.5q53 0 93 21.5t68.5 56.5t45 80t22.5 92h-96q-6 -53 -34 -71.5t-65 -18.5t-75.5 13.5t-69.5 27.5q-39 18 -81 31.5t-85 13.5q-53 0 -93 -21.5t-68.5 -56.5t-45 -80t-22.5 -92zM463 520l203 547l208 -547h-411z" />
<glyph unicode="&#xc4;" horiz-adv-x="1544" d="M23 0h370v27q-25 0 -45 3t-31.5 12t-13.5 26.5t8 46.5l99 258h518l100 -262q12 -29 9 -46.5t-15 -25.5t-31.5 -10t-44.5 -2v-27h502v27q-35 0 -56.5 25.5t-33.5 53.5l-535 1311h-186l-520 -1302q-14 -35 -35 -58.5t-59 -29.5v-27zM371 1630q0 -53 34.5 -92t88.5 -39 q53 0 88.5 39t35.5 92q0 59 -35.5 95t-88.5 36t-88 -39t-35 -92zM463 520l203 547l208 -547h-411zM797 1630q0 -53 35.5 -92t89.5 -39q53 0 89 36t36 95q0 53 -36 92t-89 39t-89 -39t-36 -92z" />
<glyph unicode="&#xc5;" horiz-adv-x="1544" d="M23 0h370v27q-25 0 -45 3t-31.5 12t-13.5 26.5t8 46.5l99 258h518l100 -262q12 -29 9 -46.5t-15 -25.5t-31.5 -10t-44.5 -2v-27h502v27q-35 0 -56.5 25.5t-33.5 53.5l-535 1311h-186l-520 -1302q-14 -35 -35 -58.5t-59 -29.5v-27zM463 520l203 547l208 -547h-411z M520 1694q0 -55 24.5 -104.5t73 -81t119.5 -31.5q72 0 120 31.5t71.5 80.5t23.5 105q0 55 -23.5 104t-71.5 81t-120 32t-120 -32t-72.5 -81t-24.5 -104zM623 1694q0 43 28.5 78.5t85.5 35.5t85 -35.5t28 -78.5t-27.5 -79t-85.5 -36q-57 0 -85.5 36t-28.5 79z" />
<glyph unicode="&#xc6;" horiz-adv-x="2002" d="M23 0h364v27q-53 4 -73.5 19t8.5 71l190 362h442l13 -366q0 -29 -6.5 -45.5t-18.5 -24.5t-30.5 -11t-43.5 -5v-27h992l47 334h-31q-41 -102 -110.5 -147.5t-180.5 -45.5h-223q-39 0 -65.5 6.5t-28.5 53.5l-11 450h234q90 0 125 -39t43 -125h29v463h-29 q-10 -86 -45 -121.5t-123 -35.5h-242l-12 411q-2 41 15.5 48.5t54.5 7.5h280q104 0 160.5 -36t73.5 -143h28l-2 320h-1175v-25q14 0 35.5 -2t39 -8t24.5 -19.5t-5 -37.5l-651 -1200q-16 -33 -35 -54.5t-57 -27.5v-27zM592 627l340 624l16 -624h-356z" />
<glyph unicode="&#xc7;" horiz-adv-x="1345" d="M23 688q0 -172 54 -305t153.5 -225t237.5 -140.5t306 -48.5q141 0 256 44t219 139l-28 22l-13 115q-84 -78 -189.5 -120t-217.5 -42q-125 0 -211 49t-138.5 130t-76 185.5t-23.5 213.5q0 104 21.5 207.5t72 186.5t133.5 134t205 51q135 0 244 -70.5t162 -193.5 q14 18 18 54t21 59l-2 266h-31q-4 -20 -16.5 -33.5t-34.5 -15.5q-4 0 -25.5 6t-47 13t-48.5 14.5t-29 9.5q-115 37 -231 37q-166 0 -303 -53.5t-234.5 -151t-150.5 -234.5t-53 -303zM469 -408q49 -18 102.5 -28t106.5 -10q94 0 152.5 26.5t86 65.5t28.5 84t-19.5 82.5 t-59.5 59.5t-92 15l-80 -12l80 137h-106l-103 -190l29 -33q16 4 34.5 7t35.5 7q37 6 62.5 -17.5t28.5 -54t-23.5 -56t-90.5 -25.5q-29 0 -70 8t-65 23z" />
<glyph unicode="&#xc8;" horiz-adv-x="1214" d="M23 0h1048l47 334h-31q-41 -102 -110.5 -147.5t-179.5 -45.5h-273q-37 0 -65.5 7.5t-28.5 52.5v450h272q90 0 125 -39t43 -125h29v463h-29q-10 -86 -44.5 -121.5t-123.5 -35.5h-272v411q0 41 16.5 48.5t53.5 7.5h299q104 0 160.5 -36t72.5 -143h29l-2 320h-1036v-27 q51 0 75.5 -13t24.5 -71v-1177q0 -31 -6 -47.5t-18.5 -24.5t-31 -10t-44.5 -4v-27zM271 1775.5q-1 -10.5 12 -18.5l307 -248h145q-18 23 -57 74t-82 105.5t-82 99.5t-59 57q-43 4 -72 0t-70 -26q-6 -4 -16 -10.5t-17.5 -14.5t-8.5 -18.5z" />
<glyph unicode="&#xc9;" horiz-adv-x="1214" d="M23 0h1048l47 334h-31q-41 -102 -110.5 -147.5t-179.5 -45.5h-273q-37 0 -65.5 7.5t-28.5 52.5v450h272q90 0 125 -39t43 -125h29v463h-29q-10 -86 -44.5 -121.5t-123.5 -35.5h-272v411q0 41 16.5 48.5t53.5 7.5h299q104 0 160.5 -36t72.5 -143h29l-2 320h-1036v-27 q51 0 75.5 -13t24.5 -71v-1177q0 -31 -6 -47.5t-18.5 -24.5t-31 -10t-44.5 -4v-27zM410 1509h143l309 248q12 8 10 18.5t-9 18.5t-18 14.5t-18 10.5q-39 23 -67.5 26.5t-71.5 -0.5q-23 -12 -61.5 -57t-80.5 -99.5t-80 -105.5t-56 -74z" />
<glyph unicode="&#xca;" horiz-adv-x="1214" d="M23 0h1048l47 334h-31q-41 -102 -110.5 -147.5t-179.5 -45.5h-273q-37 0 -65.5 7.5t-28.5 52.5v450h272q90 0 125 -39t43 -125h29v463h-29q-10 -86 -44.5 -121.5t-123.5 -35.5h-272v411q0 41 16.5 48.5t53.5 7.5h299q104 0 160.5 -36t72.5 -143h29l-2 320h-1036v-27 q51 0 75.5 -13t24.5 -71v-1177q0 -31 -6 -47.5t-18.5 -24.5t-31 -10t-44.5 -4v-27zM236 1509h145l194 189l193 -189h145l-239 332h-197z" />
<glyph unicode="&#xcb;" horiz-adv-x="1214" d="M23 0h1048l47 334h-31q-41 -102 -110.5 -147.5t-179.5 -45.5h-273q-37 0 -65.5 7.5t-28.5 52.5v450h272q90 0 125 -39t43 -125h29v463h-29q-10 -86 -44.5 -121.5t-123.5 -35.5h-272v411q0 41 16.5 48.5t53.5 7.5h299q104 0 160.5 -36t72.5 -143h29l-2 320h-1036v-27 q51 0 75.5 -13t24.5 -71v-1177q0 -31 -6 -47.5t-18.5 -24.5t-31 -10t-44.5 -4v-27zM227 1651q0 -53 35 -92t88 -39t89 39t36 92q0 59 -36 95t-89 36t-88 -39t-35 -92zM653 1651q0 -53 36 -92t89 -39t89 36t36 95q0 53 -36 92t-89 39t-89 -39t-36 -92z" />
<glyph unicode="&#xcc;" horiz-adv-x="681" d="M21.5 1775.5q-1.5 -10.5 11.5 -18.5l307 -248h145q-18 23 -57 74t-82 105.5t-82 99.5t-59 57q-43 4 -72 0t-70 -26q-6 -4 -16 -10.5t-17 -14.5t-8.5 -18.5zM61 1374q27 0 47.5 -2t34 -9t20.5 -24.5t7 -48.5v-1177q0 -31 -6 -47.5t-19.5 -24.5t-34 -10t-47.5 -4v-27h523 v27q-27 0 -47.5 2t-33.5 9t-20.5 24.5t-7.5 48.5v1177q0 31 6 47.5t19.5 24.5t34 10t47.5 4v27h-523v-27z" />
<glyph unicode="&#xcd;" horiz-adv-x="679" d="M23 1374q27 0 47 -2t33.5 -9t20.5 -24.5t7 -48.5v-1177q0 -31 -6 -47.5t-19.5 -24.5t-34 -10t-46.5 -4v-27h522v27q-27 0 -47.5 2t-33.5 9t-20.5 24.5t-7.5 48.5v1177q0 31 6.5 47.5t19.5 24.5t33.5 10t47.5 4v27h-522v-27zM121 1509h143l309 248q12 8 10.5 18.5t-9 18.5 t-18.5 14.5t-17 10.5q-39 23 -68 26.5t-72 -0.5q-23 -12 -61.5 -57t-80.5 -99.5t-80 -105.5t-56 -74z" />
<glyph unicode="&#xce;" horiz-adv-x="796" d="M23 1509h145l194 189l193 -189h145l-239 332h-197zM98 1374q27 0 47.5 -2t34 -9t20.5 -24.5t7 -48.5v-1177q0 -31 -6 -47.5t-19.5 -24.5t-34 -10t-47.5 -4v-27h523v27q-27 0 -47.5 2t-34 9t-20.5 24.5t-7 48.5v1177q0 31 6 47.5t19.5 24.5t34 10t47.5 4v27h-523v-27z" />
<glyph unicode="&#xcf;" horiz-adv-x="796" d="M23 1651q0 -53 34.5 -92t87.5 -39t89 39t36 92q0 59 -35.5 95t-89.5 36q-53 0 -87.5 -39t-34.5 -92zM100 1374q27 0 47.5 -2t34 -9t20.5 -24.5t7 -48.5v-1177q0 -31 -6 -47.5t-19.5 -24.5t-34 -10t-47.5 -4v-27h523v27q-27 0 -47.5 2t-34 9t-20.5 24.5t-7 48.5v1177 q0 31 6 47.5t19.5 24.5t34 10t47.5 4v27h-523v-27zM449 1651q0 -53 35.5 -92t88.5 -39t89 36t36 95q0 53 -35.5 92t-89.5 39q-53 0 -88.5 -39t-35.5 -92z" />
<glyph unicode="&#xd0;" horiz-adv-x="1501" d="M23 670h161v-557q0 -55 -22.5 -70.5t-71.5 -15.5v-27h535q172 0 316 43t246.5 130t160 221t57.5 317q0 180 -58.5 310t-163 215t-247.5 125t-311 40h-537v-23q47 4 71.5 -12t24.5 -70v-493h-161v-133zM492 203v467h272v133h-272v414q25 31 65.5 35.5t75.5 4.5 q117 0 202 -48t140 -126.5t80.5 -178t25.5 -204.5q0 -113 -24.5 -213t-78.5 -175.5t-141 -121t-212 -45.5q-41 0 -76 9.5t-57 48.5z" />
<glyph unicode="&#xd1;" horiz-adv-x="1435" d="M23 2h389v25q-33 0 -54.5 4t-34 16t-16.5 33.5t-4 56.5v932l741 -1075q2 -4 11 -12h192v1290q0 31 4 49t14.5 29.5t28 16.5t45.5 7v27h-374v-27q55 2 79.5 -19.5t24.5 -80.5v-844q-158 248 -321.5 485.5t-321.5 485.5h-399v-27q45 2 71.5 -30.5t26.5 -75.5v-1129 q0 -35 -4 -55.5t-15.5 -32.5t-31 -17t-51.5 -7v-25zM315 1546h95q8 53 35.5 72.5t63.5 18.5t75 -15t69 -29q41 -18 82 -30.5t86 -12.5q53 0 93 21.5t69 56.5t45.5 80t22.5 92h-97q-6 -53 -33.5 -71.5t-64.5 -18.5t-76 13.5t-69 27.5q-39 18 -81 31.5t-85 13.5 q-53 0 -93 -21.5t-69 -56.5t-45 -80t-23 -92z" />
<glyph unicode="&#xd2;" horiz-adv-x="1533" d="M23 698q0 -160 49 -294t141 -231t223 -150.5t295 -53.5q162 0 293 54.5t223 151.5t141.5 230t49.5 293t-49.5 295t-140.5 231.5t-222 151t-295 54.5q-166 0 -297 -53.5t-223 -151t-140 -231.5t-48 -296zM350 698q0 90 16.5 193.5t59.5 190.5t116.5 145.5t188.5 58.5 q113 0 186.5 -58.5t116.5 -145.5t59.5 -190.5t16.5 -193.5t-16.5 -193.5t-59.5 -191.5t-116.5 -145t-186.5 -57q-115 0 -188.5 57t-116.5 145t-59.5 190.5t-16.5 194.5zM431 1775.5q-1 -10.5 11 -18.5l308 -248h145q-18 23 -57 74t-82 105.5t-82 99.5t-60 57q-43 4 -71.5 0 t-69.5 -26q-6 -4 -16.5 -10.5t-17.5 -14.5t-8 -18.5z" />
<glyph unicode="&#xd3;" horiz-adv-x="1533" d="M23 698q0 -160 49 -294t141 -231t223 -150.5t295 -53.5q162 0 293 54.5t223 151.5t141.5 230t49.5 293t-49.5 295t-140.5 231.5t-222 151t-295 54.5q-166 0 -297 -53.5t-223 -151t-140 -231.5t-48 -296zM350 698q0 90 16.5 193.5t59.5 190.5t116.5 145.5t188.5 58.5 q113 0 186.5 -58.5t116.5 -145.5t59.5 -190.5t16.5 -193.5t-16.5 -193.5t-59.5 -191.5t-116.5 -145t-186.5 -57q-115 0 -188.5 57t-116.5 145t-59.5 190.5t-16.5 194.5zM569 1509h144l309 248q12 8 10 18.5t-9 18.5t-18.5 14.5t-17.5 10.5q-39 23 -67.5 26.5t-71.5 -0.5 q-23 -12 -61.5 -57t-80.5 -99.5t-80.5 -105.5t-56.5 -74z" />
<glyph unicode="&#xd4;" horiz-adv-x="1533" d="M23 698q0 -160 49 -294t141 -231t223 -150.5t295 -53.5q162 0 293 54.5t223 151.5t141.5 230t49.5 293t-49.5 295t-140.5 231.5t-222 151t-295 54.5q-166 0 -297 -53.5t-223 -151t-140 -231.5t-48 -296zM350 698q0 90 16.5 193.5t59.5 190.5t116.5 145.5t188.5 58.5 q113 0 186.5 -58.5t116.5 -145.5t59.5 -190.5t16.5 -193.5t-16.5 -193.5t-59.5 -191.5t-116.5 -145t-186.5 -57q-115 0 -188.5 57t-116.5 145t-59.5 190.5t-16.5 194.5zM395 1509h146l194 189l193 -189h145l-239 332h-197z" />
<glyph unicode="&#xd5;" horiz-adv-x="1533" d="M23 698q0 -160 49 -294t141 -231t223 -150.5t295 -53.5q162 0 293 54.5t223 151.5t141.5 230t49.5 293t-49.5 295t-140.5 231.5t-222 151t-295 54.5q-166 0 -297 -53.5t-223 -151t-140 -231.5t-48 -296zM350 698q0 90 16.5 193.5t59.5 190.5t116.5 145.5t188.5 58.5 q113 0 186.5 -58.5t116.5 -145.5t59.5 -190.5t16.5 -193.5t-16.5 -193.5t-59.5 -191.5t-116.5 -145t-186.5 -57q-115 0 -188.5 57t-116.5 145t-59.5 190.5t-16.5 194.5zM365 1546h94q8 53 35.5 72.5t63.5 18.5t75 -15t69 -29q41 -18 82 -30.5t86 -12.5q53 0 93.5 21.5 t69 56.5t45 80t22.5 92h-96q-6 -53 -34 -71.5t-65 -18.5t-75.5 13.5t-69.5 27.5q-39 18 -81 31.5t-85 13.5q-53 0 -93 -21.5t-69 -56.5t-45 -80t-22 -92z" />
<glyph unicode="&#xd6;" horiz-adv-x="1533" d="M23 698q0 -160 49 -294t141 -231t223 -150.5t295 -53.5q162 0 293 54.5t223 151.5t141.5 230t49.5 293t-49.5 295t-140.5 231.5t-222 151t-295 54.5q-166 0 -297 -53.5t-223 -151t-140 -231.5t-48 -296zM350 698q0 90 16.5 193.5t59.5 190.5t116.5 145.5t188.5 58.5 q113 0 186.5 -58.5t116.5 -145.5t59.5 -190.5t16.5 -193.5t-16.5 -193.5t-59.5 -191.5t-116.5 -145t-186.5 -57q-115 0 -188.5 57t-116.5 145t-59.5 190.5t-16.5 194.5zM371 1630q0 -53 34.5 -92t88.5 -39q53 0 88.5 39t35.5 92q0 59 -35.5 95t-88.5 36t-88 -39t-35 -92z M797 1630q0 -53 35.5 -92t89.5 -39q53 0 89 36t36 95q0 53 -36 92t-89 39t-89 -39t-36 -92z" />
<glyph unicode="&#xd7;" horiz-adv-x="1089" d="M23 168l135 -135l350 350l350 -350l135 135l-350 350l350 350l-135 136l-350 -351l-350 351l-135 -136l350 -350z" />
<glyph unicode="&#xd8;" horiz-adv-x="1542" d="M23 698q0 -78 12 -155.5t39.5 -150.5t70.5 -138.5t105 -116.5l-158 -213q27 -4 52.5 -15t50.5 -22l139 187q88 -59 192.5 -82t208.5 -23q166 0 297 53.5t223.5 148.5t141.5 229.5t49 297.5q0 166 -54.5 312.5t-181.5 257.5l144 196q-27 4 -52.5 15.5t-50.5 21.5 l-127 -172q-86 59 -186 80t-203 21q-166 0 -298 -53.5t-224 -151t-141 -231.5t-49 -296zM348 717.5q2 103.5 23.5 205t67.5 182.5t119 131t177 50q82 0 147.5 -32.5t112.5 -100.5l-585 -801q-31 70 -47.5 166t-14.5 199.5zM463 252l590 803q33 -68 50 -164t16 -200.5 t-22.5 -209t-67.5 -186.5t-118.5 -133t-175.5 -51q-174 0 -272 141z" />
<glyph unicode="&#xd9;" horiz-adv-x="1425" d="M23 1374q47 4 70.5 -13.5t23.5 -70.5v-817q0 -135 43 -230.5t118.5 -155.5t181 -89t230.5 -29q274 0 411.5 139.5t137.5 413.5v729q0 63 12.5 91t77.5 32v27h-387v-27q72 2 91.5 -22.5t19.5 -98.5v-721q0 -84 -16.5 -157.5t-55.5 -129t-103.5 -87t-158.5 -31.5 q-88 0 -146.5 30.5t-92.5 83t-47 121t-13 146.5v780q0 59 28.5 71.5t79.5 14.5v27h-505v-27zM398 1775.5q-1 -10.5 12 -18.5l307 -248h145q-18 23 -57 74t-82 105.5t-82 99.5t-59 57q-43 4 -72 0t-70 -26q-6 -4 -16 -10.5t-17.5 -14.5t-8.5 -18.5z" />
<glyph unicode="&#xda;" horiz-adv-x="1425" d="M23 1374q47 4 70.5 -13.5t23.5 -70.5v-817q0 -135 43 -230.5t118.5 -155.5t181 -89t230.5 -29q274 0 411.5 139.5t137.5 413.5v729q0 63 12.5 91t77.5 32v27h-387v-27q72 2 91.5 -22.5t19.5 -98.5v-721q0 -84 -16.5 -157.5t-55.5 -129t-103.5 -87t-158.5 -31.5 q-88 0 -146.5 30.5t-92.5 83t-47 121t-13 146.5v780q0 59 28.5 71.5t79.5 14.5v27h-505v-27zM537 1509h143l309 248q12 8 10 18.5t-9 18.5t-18 14.5t-18 10.5q-39 23 -67.5 26.5t-71.5 -0.5q-23 -12 -61.5 -57t-80.5 -99.5t-80 -105.5t-56 -74z" />
<glyph unicode="&#xdb;" horiz-adv-x="1425" d="M23 1374q47 4 70.5 -13.5t23.5 -70.5v-817q0 -135 43 -230.5t118.5 -155.5t181 -89t230.5 -29q274 0 411.5 139.5t137.5 413.5v729q0 63 12.5 91t77.5 32v27h-387v-27q72 2 91.5 -22.5t19.5 -98.5v-721q0 -84 -16.5 -157.5t-55.5 -129t-103.5 -87t-158.5 -31.5 q-88 0 -146.5 30.5t-92.5 83t-47 121t-13 146.5v780q0 59 28.5 71.5t79.5 14.5v27h-505v-27zM362 1509h146l194 189l193 -189h145l-239 332h-197z" />
<glyph unicode="&#xdc;" horiz-adv-x="1425" d="M23 1374q47 4 70.5 -13.5t23.5 -70.5v-817q0 -135 43 -230.5t118.5 -155.5t181 -89t230.5 -29q274 0 411.5 139.5t137.5 413.5v729q0 63 12.5 91t77.5 32v27h-387v-27q72 2 91.5 -22.5t19.5 -98.5v-721q0 -84 -16.5 -157.5t-55.5 -129t-103.5 -87t-158.5 -31.5 q-88 0 -146.5 30.5t-92.5 83t-47 121t-13 146.5v780q0 59 28.5 71.5t79.5 14.5v27h-505v-27zM371 1630q0 -53 34.5 -92t88.5 -39q53 0 88.5 39t35.5 92q0 59 -35.5 95t-88.5 36t-88 -39t-35 -92zM797 1630q0 -53 35.5 -92t89.5 -39q53 0 89 36t36 95q0 53 -36 92t-89 39 t-89 -39t-36 -92z" />
<glyph unicode="&#xdd;" horiz-adv-x="1495" d="M23 1374q29 -2 52 -19.5t40 -41.5l446 -756v-444q0 -31 -7 -48.5t-20.5 -24.5t-34 -9t-46.5 -4v-27h522v27q-27 0 -47.5 2t-33.5 9t-19.5 24.5t-6.5 48.5v483l426 700q23 37 41.5 55.5t63.5 24.5v27h-395v-27q61 -4 84.5 -26.5t-13.5 -83.5l-299 -514l-305 550 q-16 29 -13 44.5t16 21.5t33.5 7t43.5 1v27h-528v-27zM569 1509h144l309 248q12 8 10 18.5t-9 18.5t-18.5 14.5t-17.5 10.5q-39 23 -67.5 26.5t-71.5 -0.5q-23 -12 -61.5 -57t-80.5 -99.5t-80.5 -105.5t-56.5 -74z" />
<glyph unicode="&#xde;" horiz-adv-x="1212" d="M23 1374q49 2 75.5 -12t26.5 -72v-1177q0 -29 -5 -45.5t-16.5 -25.5t-29 -11t-43.5 -4v-27h510v27q-49 -2 -79 11t-30 73v862q16 25 47 31t58 6q131 0 194.5 -69t63.5 -198q0 -147 -71 -208.5t-214 -61.5h-78v-143h152q100 0 196.5 22.5t171 71.5t119.5 129t45 195 q0 117 -41 194.5t-111.5 124.5t-163.5 66.5t-196 19.5h-172v135q0 31 6 47.5t18.5 24.5t31 10t44.5 4v27h-509v-27z" />
<glyph unicode="&#xdf;" horiz-adv-x="1146" d="M23 0h337v1108q0 43 7.5 85t27 77t52 56.5t83.5 21.5t83 -21.5t50.5 -56.5t24.5 -77t6 -85q0 -53 -7 -102.5t-26.5 -88t-54.5 -63.5t-90 -31q-6 0 -11 -1t-11 -3v-24q16 -4 24 -4q27 -4 51.5 -5.5t51.5 -11.5q45 -16 73.5 -57t44 -93.5t20.5 -106.5t5 -97t-4 -108.5 t-20.5 -127t-50.5 -104.5t-91 -43q-63 0 -90 17l-27 16l-16 -50q31 -20 79 -28t83 -8q94 0 172 30.5t134 87t87 134t31 172.5q0 88 -28 155.5t-78 116.5t-118.5 78.5t-150.5 46.5q117 29 187.5 90t97 136t11 154t-70.5 143.5t-148.5 106.5t-220.5 42q-92 0 -174 -28 t-147 -91q-74 -70 -100.5 -165t-26.5 -194v-905q0 -37 -13.5 -50t-47.5 -19v-25z" />
<glyph unicode="&#xe0;" d="M23 236q0 -111 79 -187q59 -57 134 -71.5t149 3t140.5 60.5t111.5 100q2 -23 6 -50.5t14.5 -50t27.5 -37.5t48 -15q61 0 121.5 17.5t116.5 43.5l-15 25l-28 -19q-12 0 -19.5 25.5t-10.5 58.5t-3 64v39v409q0 100 -30.5 170t-86 113t-133.5 62.5t-172 19.5 q-63 0 -125.5 -12.5t-120.5 -40.5q-29 -16 -58.5 -47t-51.5 -74q-10 -23 -18.5 -54.5t-11.5 -51t-3 -23.5l29 -2q0 2 7 15t20.5 33.5t25.5 35.5q47 49 125 76.5t153.5 22.5t130 -48t54.5 -135v-101l-205 -43q-68 -14 -139.5 -36.5t-130 -60.5t-95 -95.5t-36.5 -138.5z M185 1394.5q-1 -10.5 12 -18.5l307 -248h145q-18 23 -57 74t-82 105.5t-82 99.5t-59 57q-43 4 -72 0t-70 -26q-6 -4 -16 -10.5t-17.5 -14.5t-8.5 -18.5zM293 281q0 55 46 109t155 79l135 31v-174q0 -35 -17.5 -68t-42.5 -57q-55 -57 -135 -58q-63 0 -102 42t-39 96z" />
<glyph unicode="&#xe1;" d="M23 236q0 -111 79 -187q59 -57 134 -71.5t149 3t140.5 60.5t111.5 100q2 -23 6 -50.5t14.5 -50t27.5 -37.5t48 -15q61 0 121.5 17.5t116.5 43.5l-15 25l-28 -19q-12 0 -19.5 25.5t-10.5 58.5t-3 64v39v409q0 100 -30.5 170t-86 113t-133.5 62.5t-172 19.5 q-63 0 -125.5 -12.5t-120.5 -40.5q-29 -16 -58.5 -47t-51.5 -74q-10 -23 -18.5 -54.5t-11.5 -51t-3 -23.5l29 -2q0 2 7 15t20.5 33.5t25.5 35.5q47 49 125 76.5t153.5 22.5t130 -48t54.5 -135v-101l-205 -43q-68 -14 -139.5 -36.5t-130 -60.5t-95 -95.5t-36.5 -138.5z M293 281q0 55 46 109t155 79l135 31v-174q0 -35 -17.5 -68t-42.5 -57q-55 -57 -135 -58q-63 0 -102 42t-39 96zM324 1128h143l309 248q12 8 10 18.5t-9 18.5t-18 14.5t-18 10.5q-39 23 -67.5 26.5t-71.5 -0.5q-23 -12 -61.5 -57t-80.5 -99.5t-80 -105.5t-56 -74z" />
<glyph unicode="&#xe2;" d="M23 236q0 -111 79 -187q59 -57 134 -71.5t149 3t140.5 60.5t111.5 100q2 -23 6 -50.5t14.5 -50t27.5 -37.5t48 -15q61 0 121.5 17.5t116.5 43.5l-15 25l-28 -19q-12 0 -19.5 25.5t-10.5 58.5t-3 64v39v409q0 100 -30.5 170t-86 113t-133.5 62.5t-172 19.5 q-63 0 -125.5 -12.5t-120.5 -40.5q-29 -16 -58.5 -47t-51.5 -74q-10 -23 -18.5 -54.5t-11.5 -51t-3 -23.5l29 -2q0 2 7 15t20.5 33.5t25.5 35.5q47 49 125 76.5t153.5 22.5t130 -48t54.5 -135v-101l-205 -43q-68 -14 -139.5 -36.5t-130 -60.5t-95 -95.5t-36.5 -138.5z M150 1128h145l194 189l193 -189h145l-239 332h-197zM293 281q0 55 46 109t155 79l135 31v-174q0 -35 -17.5 -68t-42.5 -57q-55 -57 -135 -58q-63 0 -102 42t-39 96z" />
<glyph unicode="&#xe3;" d="M23 236q0 -111 79 -187q59 -57 134 -71.5t149 3t140.5 60.5t111.5 100q2 -23 6 -50.5t14.5 -50t27.5 -37.5t48 -15q61 0 121.5 17.5t116.5 43.5l-15 25l-28 -19q-12 0 -19.5 25.5t-10.5 58.5t-3 64v39v409q0 100 -30.5 170t-86 113t-133.5 62.5t-172 19.5 q-63 0 -125.5 -12.5t-120.5 -40.5q-29 -16 -58.5 -47t-51.5 -74q-10 -23 -18.5 -54.5t-11.5 -51t-3 -23.5l29 -2q0 2 7 15t20.5 33.5t25.5 35.5q47 49 125 76.5t153.5 22.5t130 -48t54.5 -135v-101l-205 -43q-68 -14 -139.5 -36.5t-130 -60.5t-95 -95.5t-36.5 -138.5z M119 1165h94q8 53 35.5 72.5t63.5 18.5t75 -15t70 -29q41 -18 82 -30.5t86 -12.5q53 0 93 21.5t68.5 56.5t45 80t22.5 92h-96q-6 -53 -34 -71.5t-65 -18.5t-75.5 13.5t-69.5 27.5q-39 18 -81 31.5t-85 13.5q-53 0 -93 -21.5t-68.5 -56t-45 -80t-22.5 -92.5zM293 281 q0 55 46 109t155 79l135 31v-174q0 -35 -17.5 -68t-42.5 -57q-55 -57 -135 -58q-63 0 -102 42t-39 96z" />
<glyph unicode="&#xe4;" d="M23 236q0 -111 79 -187q59 -57 134 -71.5t149 3t140.5 60.5t111.5 100q2 -23 6 -50.5t14.5 -50t27.5 -37.5t48 -15q61 0 121.5 17.5t116.5 43.5l-15 25l-28 -19q-12 0 -19.5 25.5t-10.5 58.5t-3 64v39v409q0 100 -30.5 170t-86 113t-133.5 62.5t-172 19.5 q-63 0 -125.5 -12.5t-120.5 -40.5q-29 -16 -58.5 -47t-51.5 -74q-10 -23 -18.5 -54.5t-11.5 -51t-3 -23.5l29 -2q0 2 7 15t20.5 33.5t25.5 35.5q47 49 125 76.5t153.5 22.5t130 -48t54.5 -135v-101l-205 -43q-68 -14 -139.5 -36.5t-130 -60.5t-95 -95.5t-36.5 -138.5z M125 1282q0 -53 35 -92t88 -39t89 39t36 92q0 59 -36 95t-89 36t-88 -39t-35 -92zM293 281q0 55 46 109t155 79l135 31v-174q0 -35 -17.5 -68t-42.5 -57q-55 -57 -135 -58q-63 0 -102 42t-39 96zM551 1282q0 -53 36 -92t89 -39t89 36t36 95q0 53 -36 92t-89 39t-89 -39 t-36 -92z" />
<glyph unicode="&#xe5;" d="M23 236q0 -111 79 -187q59 -57 134 -71.5t149 3t140.5 60.5t111.5 100q2 -23 6 -50.5t14.5 -50t27.5 -37.5t48 -15q61 0 121.5 17.5t116.5 43.5l-15 25l-28 -19q-12 0 -19.5 25.5t-10.5 58.5t-3 64v39v409q0 100 -30.5 170t-86 113t-133.5 62.5t-172 19.5 q-63 0 -125.5 -12.5t-120.5 -40.5q-29 -16 -58.5 -47t-51.5 -74q-10 -23 -18.5 -54.5t-11.5 -51t-3 -23.5l29 -2q0 2 7 15t20.5 33.5t25.5 35.5q47 49 125 76.5t153.5 22.5t130 -48t54.5 -135v-101l-205 -43q-68 -14 -139.5 -36.5t-130 -60.5t-95 -95.5t-36.5 -138.5z M266 1337q0 -55 24.5 -104t73 -81t119.5 -32q72 0 120 32t71.5 81t23.5 104t-23.5 104.5t-71.5 81t-120 31.5t-120 -31.5t-72.5 -80.5t-24.5 -105zM293 281q0 55 46 109t155 79l135 31v-174q0 -35 -17.5 -68t-42.5 -57q-55 -57 -135 -58q-63 0 -102 42t-39 96zM369 1337 q0 43 28.5 79t85.5 36t85 -36t28 -79t-27.5 -78.5t-85.5 -35.5q-57 0 -85.5 35.5t-28.5 78.5z" />
<glyph unicode="&#xe6;" horiz-adv-x="1603" d="M23 236q0 -66 26.5 -115t71.5 -82t101.5 -49.5t115.5 -16.5q111 0 212 51.5t165 143.5q59 -104 160.5 -150.5t213 -43.5t218 52.5t174.5 135.5l-27 57q-47 -51 -113.5 -88t-136 -46t-136.5 15.5t-112 92.5q-16 25 -27 62.5t-19.5 78.5t-14.5 81t-8 68l620 4 q-2 104 -23.5 199.5t-70.5 168.5t-129 117t-199 44q-86 0 -167 -28t-140 -89q-41 55 -101.5 83t-130 33t-138 -9.5t-123.5 -42.5q-29 -14 -64 -47t-63 -74q-16 -25 -30.5 -58.5t-22 -54t-9.5 -24.5h33q2 2 13.5 17t32 37.5t38.5 35.5q49 35 119.5 60.5t135 24.5t110 -39 t45.5 -130v-101l-201 -43q-68 -14 -138.5 -36.5t-129 -60.5t-95 -95.5t-36.5 -138.5zM297 281q0 45 15.5 76.5t42 53t62.5 35t75 23.5l131 31v-174q0 -35 -17.5 -67t-40.5 -58q-51 -57 -133 -58q-66 0 -100.5 37t-34.5 101zM887 606q2 47 10 97.5t28.5 91.5t57.5 67.5 t96 26.5q55 0 88 -29t50.5 -70.5t23.5 -91t8 -92.5h-362z" />
<glyph unicode="&#xe7;" horiz-adv-x="946" d="M19.5 511q-5.5 -93 21.5 -183t80 -163t133 -122t184 -63l-86 -158l29 -33q16 4 34.5 7t35.5 7q37 6 62.5 -17.5t28.5 -54t-23.5 -56t-90.5 -25.5q-29 0 -70 8t-65 23l-37 -89q49 -18 102.5 -28t106.5 -10q94 0 152.5 26.5t86 65.5t28.5 84t-19.5 82.5t-59.5 59.5t-92 15 l-80 -12l60 100q88 6 171 42t138 108l-25 59q-39 -45 -101 -70.5t-122 -25.5q-84 0 -140 45t-92 112.5t-51.5 148.5t-15.5 153q0 57 12.5 116.5t40 108.5t73.5 80t114 31q35 0 78 -14.5t59 -49.5q0 -59 22.5 -83.5t50 -16.5t51 48t23.5 110q-14 37 -45.5 60.5t-66.5 39.5 q-70 33 -145.5 39t-147.5 -10.5t-138.5 -53.5t-117.5 -92q-70 -76 -105.5 -166t-41 -183z" />
<glyph unicode="&#xe8;" horiz-adv-x="1015" d="M23 492q0 -115 31.5 -210.5t93 -163t151.5 -105.5t209 -38q115 0 214 47.5t171 139.5l-27 37q-53 -63 -133 -99.5t-162 -36.5q-74 0 -125 42t-84.5 104.5t-51 136.5t-23.5 137l633 4q-2 106 -26 201.5t-74 168.5t-133 116t-202 43q-115 0 -200.5 -42t-144 -114t-88 -167 t-29.5 -201zM179 1394.5q-1 -10.5 11 -18.5l308 -248h145q-18 23 -57 74t-82 105.5t-82 99.5t-60 57q-43 4 -71.5 0t-69.5 -26q-6 -4 -16 -10.5t-17.5 -14.5t-8.5 -18.5zM287 606q2 47 12 97.5t31.5 91.5t58.5 67.5t96 26.5q57 0 91 -27.5t52.5 -69.5t24.5 -92.5t9 -93.5 h-375z" />
<glyph unicode="&#xe9;" horiz-adv-x="1015" d="M23 492q0 -115 31.5 -210.5t93 -163t151.5 -105.5t209 -38q115 0 214 47.5t171 139.5l-27 37q-53 -63 -133 -99.5t-162 -36.5q-74 0 -125 42t-84.5 104.5t-51 136.5t-23.5 137l633 4q-2 106 -26 201.5t-74 168.5t-133 116t-202 43q-115 0 -200.5 -42t-144 -114t-88 -167 t-29.5 -201zM287 606q2 47 12 97.5t31.5 91.5t58.5 67.5t96 26.5q57 0 91 -27.5t52.5 -69.5t24.5 -92.5t9 -93.5h-375zM317 1128h144l309 248q12 8 10 18.5t-9 18.5t-18.5 14.5t-17.5 10.5q-39 23 -67.5 26.5t-71.5 -0.5q-23 -12 -61.5 -57t-80.5 -99.5t-80.5 -105.5 t-56.5 -74z" />
<glyph unicode="&#xea;" horiz-adv-x="1015" d="M23 492q0 -115 31.5 -210.5t93 -163t151.5 -105.5t209 -38q115 0 214 47.5t171 139.5l-27 37q-53 -63 -133 -99.5t-162 -36.5q-74 0 -125 42t-84.5 104.5t-51 136.5t-23.5 137l633 4q-2 106 -26 201.5t-74 168.5t-133 116t-202 43q-115 0 -200.5 -42t-144 -114t-88 -167 t-29.5 -201zM143 1128h146l194 189l193 -189h145l-239 332h-197zM287 606q2 47 12 97.5t31.5 91.5t58.5 67.5t96 26.5q57 0 91 -27.5t52.5 -69.5t24.5 -92.5t9 -93.5h-375z" />
<glyph unicode="&#xeb;" horiz-adv-x="1015" d="M23 492q0 -115 31.5 -210.5t93 -163t151.5 -105.5t209 -38q115 0 214 47.5t171 139.5l-27 37q-53 -63 -133 -99.5t-162 -36.5q-74 0 -125 42t-84.5 104.5t-51 136.5t-23.5 137l633 4q-2 106 -26 201.5t-74 168.5t-133 116t-202 43q-115 0 -200.5 -42t-144 -114t-88 -167 t-29.5 -201zM145 1282q0 -53 35 -92t88 -39t89 39t36 92q0 59 -35.5 95t-89.5 36q-53 0 -88 -39t-35 -92zM287 606q2 47 12 97.5t31.5 91.5t58.5 67.5t96 26.5q57 0 91 -27.5t52.5 -69.5t24.5 -92.5t9 -93.5h-375zM571 1282q0 -53 36 -92t89 -39t89 36t36 95q0 53 -35.5 92 t-89.5 39q-53 0 -89 -39t-36 -92z" />
<glyph unicode="&#xec;" horiz-adv-x="501" d="M-80 1395q0 -10 10 -19l306 -248h145q-18 23 -57 74t-82 105.5t-82 99.5t-60 57q-43 4 -72.5 0t-68.5 -26q-8 -4 -17.5 -10.5t-15.5 -14.5t-6 -18zM23 969l30 -13q25 0 30 -27.5t5 -43.5v-785q0 -39 -12.5 -57t-50.5 -18v-25h368v25q-27 0 -29 27.5t-2 45.5v895 q-86 4 -169.5 -2t-169.5 -10v-12z" />
<glyph unicode="&#xed;" horiz-adv-x="522" d="M23 969l30 -13q25 0 30 -27.5t5 -43.5v-785q0 -39 -12.5 -57t-50.5 -18v-25h409v25q-27 0 -49.5 27.5t-22.5 45.5v895q-86 4 -169.5 -2t-169.5 -10v-12zM55 1128h144l309 248q12 8 10 18.5t-9 18.5t-18.5 14.5t-17.5 10.5q-39 23 -67.5 26.5t-71.5 -0.5q-23 -12 -62 -57 t-80.5 -99.5t-80 -105.5t-56.5 -74z" />
<glyph unicode="&#xee;" horiz-adv-x="503" d="M-100 1128h143l195 189l192 -189h145l-239 332h-197zM39 969l31 -13q25 0 29.5 -27.5t4.5 -43.5v-785q0 -39 -12 -57t-51 -18v-25h369v25q-27 0 -29 27.5t-2 45.5v895q-86 4 -170 -2t-170 -10v-12z" />
<glyph unicode="&#xef;" horiz-adv-x="524" d="M-100 1282q0 -53 34.5 -92t88.5 -39q53 0 88.5 39t35.5 92q0 59 -35.5 95t-88.5 36t-88 -39t-35 -92zM41 969l31 -13q25 0 29.5 -27.5t4.5 -43.5v-785q0 -39 -12 -57t-51 -18v-25h369v25q-27 0 -29 27.5t-2 45.5v895q-86 4 -170 -2t-170 -10v-12zM326 1282 q0 -53 35.5 -92t89.5 -39q53 0 88.5 36t35.5 95q0 53 -35.5 92t-88.5 39t-89 -39t-36 -92z" />
<glyph unicode="&#xf0;" horiz-adv-x="1126" d="M19 477q1 -98 36 -192.5t109 -167.5q74 -76 166 -110t196 -34q137 0 232.5 52.5t156 138.5t88 198.5t27.5 233.5q0 164 -48 313.5t-159 272.5q-29 33 -60.5 61.5t-66.5 56.5l183 101l-95 84l-200 -111q-70 41 -147 66.5t-154 42.5l-113 -99q63 -16 123.5 -41.5 t116.5 -62.5l-213 -117l98 -82l221 121q66 -66 122 -138.5t85 -160.5q-43 53 -104.5 75.5t-126.5 22.5q-113 0 -201 -45t-148.5 -118.5t-92.5 -168t-31 -192.5zM311 473q0 53 6.5 122t28 130t64 103t116.5 42q70 0 113 -41t64.5 -100t28.5 -126.5t7 -119.5q0 -51 -6 -116.5 t-27.5 -124t-63.5 -98.5t-112 -40q-72 0 -114.5 38t-65 93.5t-31 120t-8.5 117.5z" />
<glyph unicode="&#xf1;" horiz-adv-x="1112" d="M23 965l28 -13q10 0 17.5 -8t11.5 -19.5t5 -23.5t1 -20v-781q0 -39 -11.5 -57t-49.5 -18v-25h364v25q-12 0 -18 8t-8.5 20.5t-2.5 24.5v20v523q0 8 6.5 30.5t10.5 32.5q23 68 71 112t123 44q43 0 72 -18.5t45.5 -48.5t22.5 -65.5t6 -72.5v-535q0 -35 -10.5 -55t-47.5 -20 v-25h357l-6 25q-8 0 -12.5 10t-5.5 22.5t-1 24.5v16v564q0 100 -32.5 172.5t-87 116.5t-123 59.5t-139 1t-138.5 -57.5t-119 -116v155q-82 4 -165 -1t-164 -9v-18zM164 1165h94q8 53 36 72.5t63.5 18.5t74.5 -15t70 -29q41 -18 82 -30.5t86 -12.5q53 0 93 21.5t68.5 56.5 t45 80t22.5 92h-96q-6 -53 -34 -71.5t-64 -18.5q-37 0 -76 13.5t-70 27.5q-39 18 -81 31.5t-85 13.5q-53 0 -93 -21.5t-68.5 -56t-45 -80t-22.5 -92.5z" />
<glyph unicode="&#xf2;" horiz-adv-x="1128" d="M23 494q0 -174 74.5 -289t187 -172.5t241.5 -57.5q131 0 244 58.5t187.5 173.5t74.5 287q0 174 -74.5 289.5t-187.5 173t-244 57.5q-129 0 -241.5 -57.5t-187 -173t-74.5 -289.5zM226 1394.5q-1 -10.5 12 -18.5l307 -248h145q-18 23 -57 74t-82 105.5t-82 99.5t-59 57 q-43 4 -72 0t-70 -26q-6 -4 -16 -10.5t-17.5 -14.5t-8.5 -18.5zM311 494q0 53 6.5 120.5t28 128t63.5 101.5t115 41q72 0 115 -41t66.5 -101.5t30.5 -128t7 -120.5t-6 -121t-27.5 -127.5t-63.5 -100.5t-116 -41t-116.5 40t-65 99.5t-30 127t-7.5 123.5z" />
<glyph unicode="&#xf3;" horiz-adv-x="1128" d="M23 494q0 -174 74.5 -289t187 -172.5t241.5 -57.5q131 0 244 58.5t187.5 173.5t74.5 287q0 174 -74.5 289.5t-187.5 173t-244 57.5q-129 0 -241.5 -57.5t-187 -173t-74.5 -289.5zM311 494q0 53 6.5 120.5t28 128t63.5 101.5t115 41q72 0 115 -41t66.5 -101.5t30.5 -128 t7 -120.5t-6 -121t-27.5 -127.5t-63.5 -100.5t-116 -41t-116.5 40t-65 99.5t-30 127t-7.5 123.5zM365 1128h143l309 248q12 8 10 18.5t-9 18.5t-18.5 14.5t-17.5 10.5q-39 23 -67.5 26.5t-71.5 -0.5q-23 -12 -61.5 -57t-80.5 -99.5t-80 -105.5t-56 -74z" />
<glyph unicode="&#xf4;" horiz-adv-x="1128" d="M23 494q0 -174 74.5 -289t187 -172.5t241.5 -57.5q131 0 244 58.5t187.5 173.5t74.5 287q0 174 -74.5 289.5t-187.5 173t-244 57.5q-129 0 -241.5 -57.5t-187 -173t-74.5 -289.5zM190 1128h146l194 189l193 -189h145l-239 332h-197zM311 494q0 53 6.5 120.5t28 128 t63.5 101.5t115 41q72 0 115 -41t66.5 -101.5t30.5 -128t7 -120.5t-6 -121t-27.5 -127.5t-63.5 -100.5t-116 -41t-116.5 40t-65 99.5t-30 127t-7.5 123.5z" />
<glyph unicode="&#xf5;" horiz-adv-x="1128" d="M23 494q0 -174 74.5 -289t187 -172.5t241.5 -57.5q131 0 244 58.5t187.5 173.5t74.5 287q0 174 -74.5 289.5t-187.5 173t-244 57.5q-129 0 -241.5 -57.5t-187 -173t-74.5 -289.5zM160 1165h94q8 53 35.5 72.5t63.5 18.5t75 -15t70 -29q41 -18 82 -30.5t86 -12.5 q53 0 93 21.5t68.5 56.5t45 80t22.5 92h-96q-6 -53 -34 -71.5t-65 -18.5t-75.5 13.5t-69.5 27.5q-39 18 -81 31.5t-85 13.5q-53 0 -93 -21.5t-68.5 -56t-45 -80t-22.5 -92.5zM311 494q0 53 6.5 120.5t28 128t63.5 101.5t115 41q72 0 115 -41t66.5 -101.5t30.5 -128t7 -120.5 t-6 -121t-27.5 -127.5t-63.5 -100.5t-116 -41t-116.5 40t-65 99.5t-30 127t-7.5 123.5z" />
<glyph unicode="&#xf6;" horiz-adv-x="1128" d="M23 494q0 -174 74.5 -289t187 -172.5t241.5 -57.5q131 0 244 58.5t187.5 173.5t74.5 287q0 174 -74.5 289.5t-187.5 173t-244 57.5q-129 0 -241.5 -57.5t-187 -173t-74.5 -289.5zM186 1282q0 -53 35 -92t88 -39t89 39t36 92q0 59 -36 95t-89 36t-88 -39t-35 -92zM311 494 q0 53 6.5 120.5t28 128t63.5 101.5t115 41q72 0 115 -41t66.5 -101.5t30.5 -128t7 -120.5t-6 -121t-27.5 -127.5t-63.5 -100.5t-116 -41t-116.5 40t-65 99.5t-30 127t-7.5 123.5zM612 1282q0 -53 36 -92t89 -39t89 36t36 95q0 53 -35.5 92t-89.5 39q-53 0 -89 -39t-36 -92z " />
<glyph unicode="&#xf7;" horiz-adv-x="1150" d="M23 422h1032v192h-1032v-192zM395 98q0 -59 43 -100t103 -41q59 0 101 41t42 100t-42 102.5t-101 43.5t-102.5 -43t-43.5 -103zM395 938q0 -59 43 -101t103 -42q59 0 101 34.5t42 108.5q0 59 -42 102t-101 43t-102.5 -43t-43.5 -102z" />
<glyph unicode="&#xf8;" horiz-adv-x="1134" d="M19 490.5q-1 -99.5 35 -195.5t112 -174q6 -6 13 -12.5t14 -12.5l-144 -207l92 -32l129 182q59 -37 126 -50.5t134 -13.5q121 0 216.5 45.5t161 119t100 167.5t34.5 193q0 100 -35.5 195.5t-111.5 170.5l-31 31l137 199l-92 34l-123 -178q-57 37 -123.5 50.5t-132.5 13.5 q-119 0 -214 -45t-160.5 -118t-100.5 -168t-36 -194.5zM308 520.5q1 65.5 12.5 131t37 116.5t66.5 84t102 33q49 0 89 -19.5t67 -62.5l-348 -506q-12 39 -19.5 98.5t-6.5 125zM375 193l350 505q12 -41 19.5 -100t7.5 -127q0 -66 -10.5 -131.5t-36 -117.5t-67.5 -85t-103 -33 q-109 0 -160 89z" />
<glyph unicode="&#xf9;" horiz-adv-x="1138" d="M23 967q37 0 47 -14.5t10 -51.5v-584q0 -102 33.5 -172.5t89 -111.5t125 -54.5t141.5 1t138.5 55.5t113.5 106v-153q14 -2 57 3t93.5 12t98.5 14.5t72 9.5l-2 24q-35 -2 -45 16.5t-10 49.5v874h-348v-24q39 0 56.5 -11.5t17.5 -54.5v-541q0 -43 -18.5 -81.5t-49.5 -69.5 q-47 -45 -97 -59.5t-93 3t-71 63.5t-28 122v653h-331v-24zM230 1394.5q-1 -10.5 12 -18.5l307 -248h145q-18 23 -57 74t-82 105.5t-82 99.5t-59 57q-43 4 -72 0t-70 -26q-6 -4 -16 -10.5t-17.5 -14.5t-8.5 -18.5z" />
<glyph unicode="&#xfa;" horiz-adv-x="1138" d="M23 967q37 0 47 -14.5t10 -51.5v-584q0 -102 33.5 -172.5t89 -111.5t125 -54.5t141.5 1t138.5 55.5t113.5 106v-153q14 -2 57 3t93.5 12t98.5 14.5t72 9.5l-2 24q-35 -2 -45 16.5t-10 49.5v874h-348v-24q39 0 56.5 -11.5t17.5 -54.5v-541q0 -43 -18.5 -81.5t-49.5 -69.5 q-47 -45 -97 -59.5t-93 3t-71 63.5t-28 122v653h-331v-24zM369 1128h143l309 248q12 8 10 18.5t-9 18.5t-18 14.5t-18 10.5q-39 23 -67.5 26.5t-71.5 -0.5q-23 -12 -61.5 -57t-80.5 -99.5t-80 -105.5t-56 -74z" />
<glyph unicode="&#xfb;" horiz-adv-x="1138" d="M23 967q37 0 47 -14.5t10 -51.5v-584q0 -102 33.5 -172.5t89 -111.5t125 -54.5t141.5 1t138.5 55.5t113.5 106v-153q14 -2 57 3t93.5 12t98.5 14.5t72 9.5l-2 24q-35 -2 -45 16.5t-10 49.5v874h-348v-24q39 0 56.5 -11.5t17.5 -54.5v-541q0 -43 -18.5 -81.5t-49.5 -69.5 q-47 -45 -97 -59.5t-93 3t-71 63.5t-28 122v653h-331v-24zM195 1128h145l195 189l192 -189h145l-239 332h-197z" />
<glyph unicode="&#xfc;" horiz-adv-x="1138" d="M23 967q37 0 47 -14.5t10 -51.5v-584q0 -102 33.5 -172.5t89 -111.5t125 -54.5t141.5 1t138.5 55.5t113.5 106v-153q14 -2 57 3t93.5 12t98.5 14.5t72 9.5l-2 24q-35 -2 -45 16.5t-10 49.5v874h-348v-24q39 0 56.5 -11.5t17.5 -54.5v-541q0 -43 -18.5 -81.5t-49.5 -69.5 q-47 -45 -97 -59.5t-93 3t-71 63.5t-28 122v653h-331v-24zM186 1282q0 -53 35 -92t88 -39t89 39t36 92q0 59 -36 95t-89 36t-88 -39t-35 -92zM612 1282q0 -53 36 -92t89 -39t89 36t36 95q0 53 -35.5 92t-89.5 39q-53 0 -89 -39t-36 -92z" />
<glyph unicode="&#xfd;" horiz-adv-x="1144" d="M23 967q20 0 34.5 -11.5t24.5 -28t16 -36t13 -35.5l348 -883q-10 -31 -23.5 -71.5t-34 -76.5t-50 -61.5t-70.5 -25.5q-20 0 -39 18q-10 31 -44 50.5t-63 23.5q-16 -10 -31.5 -29.5t-25.5 -44t-16.5 -49t-6.5 -43.5q0 -27 23.5 -45t55.5 -30.5t64.5 -17.5t51.5 -5 q76 0 130 25.5t94 69.5t68.5 101.5t53.5 120.5l387 1016q10 27 22.5 45.5t43.5 22.5v24h-301v-24q35 0 52 -13.5t5 -50.5l-201 -596l-223 613q-10 29 14.5 38t44.5 9v24h-417v-24zM373 1128h143l309 248q12 8 10.5 18.5t-9 18.5t-18.5 14.5t-17 10.5q-39 23 -68 26.5 t-72 -0.5q-23 -12 -61.5 -57t-80.5 -99.5t-80 -105.5t-56 -74z" />
<glyph unicode="&#xfe;" horiz-adv-x="1159" d="M23 -399v-25h432v25q-41 0 -65.5 12t-24.5 63v433q49 -68 117.5 -101t152.5 -33q106 0 188 47.5t135.5 123t81 173t26.5 196.5t-29.5 193.5t-84.5 165.5q-59 74 -140 110t-165 33t-159.5 -46t-122.5 -129v610q-86 4 -171 -1t-171 -9v-12l30 -13q12 0 20.5 -7t11.5 -18.5 t4 -24.5t1 -21v-1670q0 -43 -13.5 -59t-53.5 -16zM365 360v261q0 61 30.5 113t75.5 83t99.5 35t99.5 -31t75.5 -113.5t30.5 -213.5q0 -131 -30.5 -210t-75.5 -116t-101 -37q-53 0 -98 28.5t-75.5 80.5t-30.5 120z" />
<glyph unicode="&#xff;" horiz-adv-x="1144" d="M23 967q20 0 34.5 -11.5t24.5 -28t16 -36t13 -35.5l348 -883q-10 -31 -23.5 -71.5t-34 -76.5t-50 -61.5t-70.5 -25.5q-20 0 -39 18q-10 31 -44 50.5t-63 23.5q-16 -10 -31.5 -29.5t-25.5 -44t-16.5 -49t-6.5 -43.5q0 -27 23.5 -45t55.5 -30.5t64.5 -17.5t51.5 -5 q76 0 130 25.5t94 69.5t68.5 101.5t53.5 120.5l387 1016q10 27 22.5 45.5t43.5 22.5v24h-301v-24q35 0 52 -13.5t5 -50.5l-201 -596l-223 613q-10 29 14.5 38t44.5 9v24h-417v-24zM227 1221q0 -53 35 -92t88 -39t89 39t36 92q0 59 -36 95t-89 36t-88 -39t-35 -92zM653 1221 q0 -53 36 -92t89 -39t89 36t36 95q0 53 -36 92t-89 39t-89 -39t-36 -92z" />
<glyph unicode="&#x152;" horiz-adv-x="1988" d="M23 702q0 -170 46 -305t135 -227t221 -139t306 -41q281 10 557.5 12t556.5 -2l47 334h-30q-41 -102 -112 -147.5t-179 -45.5h-246q-37 0 -65.5 7.5t-28.5 52.5v450h248q90 0 125.5 -39t42.5 -125h28v463h-28q-10 -84 -45 -120.5t-123 -36.5h-248v411q0 39 17.5 47.5 t51.5 8.5h273q102 0 160.5 -36t72.5 -143h29l-2 320q-180 0 -360.5 -2t-360.5 2q-125 2 -242.5 10t-228.5 -1t-216.5 -48t-203.5 -133q-111 -104 -154.5 -240.5t-43.5 -286.5zM344 678q0 104 17.5 209.5t63.5 190.5t126 139.5t207 54.5q76 0 125 -30t49 -114v-827 q0 -102 -46 -136t-143 -34q-121 0 -198.5 47t-121.5 124t-61.5 175t-17.5 201z" />
<glyph unicode="&#x153;" horiz-adv-x="1673" d="M21.5 495.5q-1.5 -135.5 52 -251t162 -192.5t272.5 -77q100 0 194.5 29t157.5 113q25 -41 60.5 -67.5t78.5 -43t89.5 -24t91.5 -7.5q111 0 210 48.5t164 138.5l-26 78q-23 -31 -55.5 -62t-69.5 -56.5t-77 -42t-77 -16.5q-72 0 -120 43.5t-77.5 106.5t-44 137t-20.5 133 l594 4q-2 104 -24.5 199.5t-71.5 169.5t-130 117t-200 43q-186 0 -305 -144q-63 78 -151.5 111t-186.5 33q-162 0 -270.5 -77t-163.5 -192.5t-56.5 -251zM311 494q0 51 5.5 118.5t24.5 128t60 102.5t113 42q70 0 112 -42t63.5 -102.5t27.5 -128t6 -118.5t-5 -119 t-24.5 -127.5t-60.5 -101.5t-113 -42t-112.5 41t-62 101.5t-28 127t-6.5 120.5zM987 606q2 43 9.5 93.5t25.5 92.5t52 69.5t91 27.5q55 0 86 -29t46.5 -72t20.5 -92t5 -90h-336z" />
<glyph unicode="&#x178;" horiz-adv-x="1495" d="M23 1374q29 -2 52 -19.5t40 -41.5l446 -756v-444q0 -31 -7 -48.5t-20.5 -24.5t-34 -9t-46.5 -4v-27h522v27q-27 0 -47.5 2t-33.5 9t-19.5 24.5t-6.5 48.5v483l426 700q23 37 41.5 55.5t63.5 24.5v27h-395v-27q61 -4 84.5 -26.5t-13.5 -83.5l-299 -514l-305 550 q-16 29 -13 44.5t16 21.5t33.5 7t43.5 1v27h-528v-27zM391 1630q0 -53 35 -92t88 -39t89 39t36 92q0 59 -36 95t-89 36t-88 -39t-35 -92zM817 1630q0 -53 36 -92t89 -39t89 36t36 95q0 53 -36 92t-89 39t-89 -39t-36 -92z" />
<glyph unicode="&#x2c6;" horiz-adv-x="794" d="M23 1128h143l194 189l193 -189h145l-239 332h-197z" />
<glyph unicode="&#x2dc;" horiz-adv-x="851" d="M23 1165h92q8 53 35.5 72.5t63.5 18.5t75 -15t69 -29q41 -18 82 -30.5t86 -12.5q53 0 93 21.5t69 56.5t45.5 80t22.5 92h-97q-6 -53 -33.5 -71.5t-64.5 -18.5t-76 13.5t-69 27.5q-39 18 -81 31.5t-85 13.5q-53 0 -93 -21.5t-68 -56t-44 -80t-22 -92.5z" />
<glyph unicode="&#x2000;" horiz-adv-x="955" />
<glyph unicode="&#x2001;" horiz-adv-x="1911" />
<glyph unicode="&#x2002;" horiz-adv-x="955" />
<glyph unicode="&#x2003;" horiz-adv-x="1911" />
<glyph unicode="&#x2004;" horiz-adv-x="637" />
<glyph unicode="&#x2005;" horiz-adv-x="477" />
<glyph unicode="&#x2006;" horiz-adv-x="318" />
<glyph unicode="&#x2007;" horiz-adv-x="318" />
<glyph unicode="&#x2008;" horiz-adv-x="238" />
<glyph unicode="&#x2009;" horiz-adv-x="382" />
<glyph unicode="&#x200a;" horiz-adv-x="106" />
<glyph unicode="&#x2010;" horiz-adv-x="636" d="M23 524h518v181h-518v-181z" />
<glyph unicode="&#x2011;" horiz-adv-x="636" d="M23 524h518v181h-518v-181z" />
<glyph unicode="&#x2012;" horiz-adv-x="636" d="M23 524h518v181h-518v-181z" />
<glyph unicode="&#x2013;" horiz-adv-x="1142" d="M23 410h1024v182h-1024v-182z" />
<glyph unicode="&#x2014;" horiz-adv-x="2166" d="M23 410h2048v182h-2048v-182z" />
<glyph unicode="&#x2018;" horiz-adv-x="501" d="M23 975q0 -66 44.5 -111t110.5 -45q66 -2 111 44t45 112q0 45 -27.5 71.5t-56.5 63.5q-4 4 -8 4t-8.5 2t-6.5 6t0 17q8 37 35 80t56.5 80.5t53.5 62.5l23 24l-123 25q-31 -16 -66.5 -56t-68.5 -92.5t-59.5 -109.5t-38.5 -109q-10 -16 -13 -33.5t-3 -35.5z" />
<glyph unicode="&#x2019;" horiz-adv-x="501" d="M23 844l122 -25q31 16 67 56t68.5 91.5t59.5 109t39 108.5q16 27 16 71q0 63 -44.5 108.5t-110.5 47.5q-66 0 -111 -46t-45 -110q0 -23 7 -40t19.5 -32.5t28 -30.5t29.5 -34q2 -4 6 -4q6 0 10 -2t6.5 -6t-0.5 -16q-8 -37 -34.5 -80t-56 -80t-53.5 -62z" />
<glyph unicode="&#x201a;" horiz-adv-x="501" d="M23 -270l122 -25q31 16 67 56t68.5 92.5t59.5 109.5t39 109q10 16 13 33.5t3 35.5q0 66 -44.5 111t-110.5 45t-111 -45t-45 -111q0 -45 27.5 -72.5t56.5 -64.5q2 -4 6 -4q6 0 10 -1t6.5 -5t-0.5 -17q-8 -37 -34.5 -79.5t-56 -80.5t-53.5 -63z" />
<glyph unicode="&#x201c;" horiz-adv-x="993" d="M16 973q0 -66 45 -111t111 -45t111 45t45 111q0 45 -21.5 74.5t-62.5 62.5q-8 6 -17.5 4t-5.5 23q8 37 35 80t56.5 80.5t53.5 62.5l23 24l-123 25q-31 -16 -66.5 -56t-68.5 -92.5t-59.5 -109.5t-38.5 -109q-10 -16 -13.5 -33.5t-3.5 -35.5zM467 973q0 -66 45 -111 t111 -45t110.5 45t44.5 111q0 45 -21.5 74.5t-62.5 62.5q-8 6 -17 4t-5 23q8 37 34.5 80t56.5 80.5t53 62.5l24 24l-123 25q-31 -16 -67 -56t-68.5 -92.5t-59 -109.5t-39.5 -109q-10 -16 -13 -33.5t-3 -35.5z" />
<glyph unicode="&#x201d;" horiz-adv-x="993" d="M16 842l123 -25q31 16 67 56t68.5 92.5t59 110t39.5 108.5q10 16 13 33.5t3 35.5q0 66 -45 111t-111 45t-110.5 -45t-44.5 -111q0 -45 21.5 -74.5t62.5 -62.5q8 -6 17 -4t5 -22q-8 -37 -34.5 -80t-56.5 -81t-53 -63zM467 842l123 -25q31 16 66.5 56t68.5 92.5t59.5 110 t38.5 108.5q10 16 13.5 33.5t3.5 35.5q0 66 -45 111t-111 45t-111 -45t-45 -111q0 -45 21.5 -74.5t62.5 -62.5q8 -6 17.5 -4t5.5 -22q-8 -37 -35 -80t-56.5 -81t-53.5 -63z" />
<glyph unicode="&#x201e;" horiz-adv-x="993" d="M16 -242l123 -24q31 16 67 56t68.5 91t59 108.5t39.5 108.5q16 27 16 72q0 63 -45 108.5t-111 47.5q-66 0 -110.5 -46.5t-44.5 -109.5q0 -45 21.5 -74.5t62.5 -62.5q8 -6 17 -5t5 -24q-8 -37 -34.5 -80t-56.5 -80t-53 -62zM467 -242l123 -24q31 16 66.5 56t68.5 91 t59.5 108.5t38.5 108.5q16 27 17 72q0 63 -45 108.5t-111 47.5q-66 0 -111 -46.5t-45 -109.5q0 -45 21.5 -74.5t62.5 -62.5q8 -6 17.5 -5t5.5 -24q-8 -37 -35 -80t-56.5 -80t-53.5 -62z" />
<glyph unicode="&#x2022;" horiz-adv-x="499" d="M59 848q0 -66 45.5 -111t110.5 -45q33 0 62.5 12.5t51 34t33 50t9.5 59.5q-6 66 -48 111t-108 45t-111 -45.5t-45 -110.5z" />
<glyph unicode="&#x2026;" horiz-adv-x="1669" d="M23 141q0 -66 45 -109.5t110 -43.5q66 0 111 44t45 109q0 66 -45 111t-111 45t-110.5 -45t-44.5 -111zM637 141q0 -66 45 -109.5t111 -43.5t110.5 44t44.5 109q0 66 -44.5 111t-110.5 45t-111 -45t-45 -111zM1251 141q0 -66 45 -109.5t111 -43.5t111 44t45 109 q0 66 -45 111t-111 45t-111 -45t-45 -111z" />
<glyph unicode="&#x202f;" horiz-adv-x="382" />
<glyph unicode="&#x2039;" horiz-adv-x="610" d="M23 498l339 -381q16 -6 40 -10.5t46.5 -2.5t38 14.5t17.5 37.5l-213 348l223 348q-2 25 -17.5 37t-38 14t-46 -2t-39.5 -10l-350 -381v-12z" />
<glyph unicode="&#x203a;" horiz-adv-x="616" d="M23 852l229 -348l-219 -348q2 -27 18.5 -38.5t38 -13.5t46 2.5t40.5 10.5l344 381v12l-354 381q-16 6 -41 10t-46.5 2t-37.5 -13t-18 -38z" />
<glyph unicode="&#x205f;" horiz-adv-x="477" />
<glyph unicode="&#x20ac;" horiz-adv-x="1599" d="M115 467h139q31 -121 96.5 -213t159.5 -155.5t212 -96.5t257 -33q70 0 127 11.5t107.5 34t98.5 56t101 81.5l12 22l-12 115q-84 -78 -189.5 -120t-217.5 -42q-90 0 -160 26.5t-121 72.5t-85 107.5t-54 133.5h835v139h-860q-2 25 -3 49.5t-1 49.5v38t2 39h862v140h-839 q16 74 48 140t82 115.5t118.5 78t158.5 28.5q135 0 243.5 -70.5t162.5 -193.5q16 18 27 14l12 -4l-2 369h-31q-4 -20 -16.5 -33.5t-34.5 -15.5q-4 0 -25.5 6t-47.5 13t-48.5 14.5l-28.5 9.5q-115 37 -231 37q-135 0 -251 -36t-207 -101.5t-155.5 -160t-97.5 -210.5h-143 v-140h116q-2 -23 -3 -46t-1 -48q0 -23 1 -42t3 -40h-116v-139z" />
<glyph unicode="&#x2122;" horiz-adv-x="2025" d="M23 1227h38q8 37 34 53t58.5 20.5t66.5 2t63 -2.5v-620q0 -33 -9.5 -54.5t-46.5 -23.5v-39h305v39q-37 2 -46 23.5t-9 54.5v620q27 0 62.5 2.5t67.5 -2t57.5 -20.5t35.5 -53h39v174h-716v-174zM883 563h243v39q-37 2 -48 22.5t-11 55.5v487l256 -604h86l266 604v-487 q0 -35 -10 -55.5t-47 -22.5v-39h311v39q-37 2 -48 22.5t-11 55.5v604q0 35 11 55.5t48 22.5v39h-264l-260 -567l-254 567h-268v-39q37 -2 48 -22.5t11 -55.5v-604q0 -35 -11 -55.5t-48 -22.5v-39z" />
<glyph unicode="&#x25fc;" horiz-adv-x="993" d="M0 0v993h993v-993h-993z" />
</font>
</defs>
</svg>
