<?xml version="1.0" standalone="no"?>
<!DOCTYPE svg PUBLIC "-//W3C//DTD SVG 1.1//EN" "http://www.w3.org/Graphics/SVG/1.1/DTD/svg11.dtd" >
<svg xmlns="http://www.w3.org/2000/svg" xmlns:xlink="http://www.w3.org/1999/xlink" version="1.1">
<metadata></metadata>
<defs>
<font id="komika_text_kapsbold_italic" horiz-adv-x="1251" >
<font-face units-per-em="2048" ascent="1638" descent="-410" />
<missing-glyph horiz-adv-x="536" />
<glyph horiz-adv-x="0" />
<glyph unicode="&#xd;" horiz-adv-x="1024" />
<glyph unicode=" "  horiz-adv-x="536" />
<glyph unicode="&#x09;" horiz-adv-x="536" />
<glyph unicode="&#xa0;" horiz-adv-x="536" />
<glyph unicode="!" horiz-adv-x="454" d="M82 59q-10 -43 10.5 -79.5t81.5 -36.5q84 0 136 36.5t87 147.5l4 20q10 53 -12 85t-88 32q-35 0 -68.5 -14t-63.5 -40t-51.5 -60.5t-33.5 -73.5zM221.5 409.5q-10.5 -47.5 5 -76t66.5 -28.5q78 0 121.5 52.5t66.5 134.5l211 710q8 31 19 68q6 31 6 57q0 29 -9.5 50.5 t-27.5 34.5t-51 13q-43 0 -73 -15t-49.5 -39.5t-30.5 -54.5t-15 -56q-2 -6 -2 -19l-4 -14l-203 -725v2q-20 -47 -30.5 -94.5z" />
<glyph unicode="&#x22;" horiz-adv-x="704" d="M262 922q-2 -23 4 -44.5t20.5 -37t43.5 -19.5h14q51 0 95.5 52.5t60.5 130.5l73 262q2 6 2 12q0 8 3 14q2 25 4 51.5t-5.5 49t-27 37t-60.5 14.5q-72 0 -106.5 -49t-48.5 -115l-2 -14v-15l-51 -243v4q-6 -14 -7.5 -19.5t-5.5 -27.5q-4 -20 -6 -43zM628 869.5 q7 -44.5 64 -48.5h10q61 0 101.5 55.5t56.5 137.5l-2 2l57 248q2 8 3.5 15t5.5 17q2 10 5 20.5t5 20.5q4 20 4 39q0 20 -8 35.5t-27.5 24t-54.5 8.5q-43 0 -70.5 -16.5t-44 -42t-26 -59.5t-15.5 -69l-55 -251l-4 -29q-12 -63 -5 -107.5z" />
<glyph unicode="#" horiz-adv-x="1431" d="M226 395.5q-1 -18.5 7.5 -34t30 -24.5t64.5 -9q10 0 20 1t23 3h32l-88 -156q-59 -102 -67 -147q-8 -41 12.5 -58.5t75.5 -17.5q23 0 47.5 17.5t48 43t43 58t31.5 63.5l-4 -4l114 201h185l-96 -172v2q-47 -68 -54 -113q-10 -53 15.5 -72.5t60.5 -23.5h6q25 0 49.5 19.5 t48 48t44 62.5t36.5 64l-2 -2l105 187h63q6 0 13.5 -1t13.5 -1q25 -2 45 -2h37q63 0 94 22.5t53 100.5l2 14q4 25 -2 38t-25.5 20t-56.5 9.5t-94 2.5h-22l155 274h56q23 -2 43 -2h38q59 0 100.5 19.5t51.5 64.5v12q8 17 10 25q6 31 -18.5 58.5t-87.5 27.5q-27 0 -58 -6h-18 l72 125v-3q68 92 80 152q14 80 -74 80q-35 0 -56.5 -6t-40 -24.5t-39 -53.5t-51.5 -90v2l-106 -182h-182l88 155q45 63 55 113q8 41 -10.5 63.5t-69.5 22.5q-33 0 -59.5 -17.5t-48 -43t-36 -53t-20.5 -46.5l-114 -194h-99q-174 0 -204 -101l-3 -14q-10 -51 20 -68.5 t85 -17.5h24q14 0 29 2h33l-160 -274h-76q-88 0 -143 -26t-70 -79q-4 -16 -5 -34.5zM735 535l158 274h182l-157 -274h-183z" />
<glyph unicode="$" horiz-adv-x="1024" d="M123 252q-12 -63 6 -107.5t56 -74t92.5 -46t115.5 -22.5l-24 -88v2q-6 -16 -9.5 -31.5t-7.5 -31.5q-25 -127 72 -127q41 0 67.5 15t45 40.5t28.5 59.5t19 71l26 100q80 23 160 71t150.5 119.5t128 166t90.5 211.5q4 10 6 21t4 24q14 78 6 134t-34.5 93t-69.5 54.5 t-97 17.5q-45 0 -90 -15l49 176q35 -4 56.5 -17t34.5 -24q72 -61 118 -61q78 0 111 119l2 10q8 39 -13.5 74t-59.5 61.5t-87 42t-98 19.5l6 22l-2 -4q4 10 10 24.5t10 28.5q8 39 -6 72t-71 33h-11q-35 -4 -60.5 -18.5t-42.5 -34t-26.5 -42t-13.5 -42.5v-13l-2 -6l-12 -39 q-74 -23 -149 -67.5t-140.5 -107t-116.5 -140.5t-76 -166v2q-4 -8 -5 -16.5t-3 -18.5q-12 -61 -1 -109.5t37 -83t61.5 -53t72.5 -18.5q45 0 111 35l-92 -330q-23 -6 -37 -6q-72 0 -96.5 2t-22.5 6q0 4 11 5l12 1q16 39 19 50.5t5 17.5q10 57 -13.5 88t-60.5 31 q-41 0 -80.5 -34t-62.5 -99q0 -4 -2 -7.5t-2 -7.5zM488.5 765q-1.5 13 3.5 34q0 4 1 7l3 9q23 78 77 139.5t119 98.5l-69 -246q-37 -23 -70 -39t-53 -16q-10 0 -11.5 13zM686 274l119 418q51 23 94 23q53 0 35 -88q0 -12 -6 -27v-2q-35 -119 -99.5 -201t-142.5 -123z" />
<glyph unicode="%" horiz-adv-x="1355" d="M322 43q-10 -53 11 -84t64 -31q37 0 87.5 31t97.5 96q123 182 221 328.5t176 262.5t136.5 202t101.5 149q59 88 92.5 138.5t51 78t23 38t7.5 18.5v6q10 51 -22 88t-79 37q-35 0 -67.5 -19.5t-65.5 -64.5q-123 -186 -223 -336t-179 -267.5t-139.5 -207.5t-105.5 -158 q-66 -98 -102.5 -153.5t-55 -84t-22.5 -38t-6 -17.5zM343 965q5 -43 26.5 -78t59.5 -57.5t97 -22.5q49 0 112.5 25.5t125 68.5t111 101.5t69.5 123.5v-2q4 8 5 16.5t3 18.5q20 104 -32 169t-166 65q-61 0 -124 -25t-118 -68t-98 -101t-62 -126q-2 -4 -3 -7t-3 -7v-10 q-8 -41 -3 -84zM565 1055l2 14q14 41 54.5 75t74.5 34q23 0 31 -11.5t6 -21.5q-6 -25 -24.5 -47.5t-41 -40t-45 -28.5t-38.5 -11q-6 0 -14.5 4t-4.5 33zM764 75q2 -42 20.5 -76t56.5 -56.5t101 -22.5q49 0 115.5 23.5t132 68.5t119.5 110.5t77 147.5l5 27q8 49 3 92 t-24.5 77t-52.5 53.5t-80 19.5q-70 0 -139.5 -18.5t-131 -59.5t-110.5 -107.5t-78 -165.5v2q-4 -8 -5 -16t-3 -18q-8 -39 -6 -81zM995 172l6 25q16 57 57.5 91t80.5 34q25 0 33 -7.5t4 -17.5l-5 -23q-8 -29 -25.5 -54t-39 -44.5t-44 -31t-40.5 -11.5q-23 0 -26 12.5t-1 26.5 z" />
<glyph unicode="&#x26;" horiz-adv-x="1284" d="M118 145.5q1 -65.5 24.5 -114.5t73.5 -79t134 -30q119 0 264.5 62.5t284.5 165.5l39 -91q18 -53 47 -75.5t64 -22.5q27 0 55.5 14.5t53 36t44 48t29.5 51.5l-127 206q27 27 54.5 58t54 61.5t50.5 58t40 50.5l-3 -2q39 39 46 69q4 25 -7.5 41.5t-32 27.5t-48 16t-56.5 5 q-27 0 -46 -10t-34.5 -27.5t-27 -37t-19.5 -37.5q-4 -6 -8 -14.5t-8 -12.5q-4 -6 -9.5 -13t-9.5 -11q-6 -6 -10 -12.5t-8 -12.5q-23 55 -43.5 110.5t-38.5 106.5q-10 23 -17.5 45.5t-13.5 42.5q47 27 98.5 63t95.5 80t77.5 93t48.5 100l2 14q10 53 -9.5 94.5t-58.5 70 t-92 44t-113 15.5q-135 0 -229 -50.5t-133 -183.5l-4 -18q-10 -55 -2 -116.5t24 -115.5q-170 -88 -289.5 -218t-174.5 -331l-3 -8q-4 -18 -8 -35.5t-8 -33.5q-14 -72 -13 -137.5zM353 254q1 31 7 63q2 10 4.5 18.5t6.5 18.5q35 133 116.5 218t198.5 147q12 -41 31 -86 q25 -66 52.5 -143.5t55.5 -151.5q-53 -39 -108 -75t-109.5 -62.5t-105.5 -42t-92 -15.5q-20 0 -32.5 15.5t-19 40t-5.5 55.5zM815 1145l2 10q14 45 90 45q12 0 29.5 -2t33 -7t26 -13.5t8.5 -20.5v-2q-16 -49 -62.5 -83.5t-101.5 -61.5q-14 35 -22.5 69.5t-2.5 65.5z" />
<glyph unicode="'" horiz-adv-x="350" d="M262 922q-2 -23 4 -44.5t20.5 -37t43.5 -19.5h14q51 0 95.5 52.5t60.5 130.5l73 262q2 6 2 12q0 8 3 14q2 25 4 51.5t-5.5 49t-27 37t-60.5 14.5q-72 0 -106.5 -49t-48.5 -115l-2 -14v-15l-51 -243v4q-6 -14 -7.5 -19.5t-5.5 -27.5q-4 -20 -6 -43z" />
<glyph unicode="(" horiz-adv-x="786" d="M245 100.5q40 -192.5 175 -311.5q41 -33 78 -33q45 0 72.5 37t45.5 92l2 9q4 23 -3 43t-20 38.5t-28.5 34l-27.5 27.5q-2 4 -5.5 5t-5.5 5q-14 31 -27.5 85t-19.5 126t-2 161t25 191q6 31 13 64t18 67q76 266 190.5 455.5t257.5 276.5q4 4 16.5 10t26.5 14 q29 14 52.5 29.5t33.5 40.5l4 20q12 63 -12.5 92t-69.5 29q-29 0 -64.5 -13.5t-70.5 -35.5q-223 -145 -364.5 -366.5t-233.5 -547.5q-14 -47 -24.5 -93t-20.5 -91q-51 -268 -11 -460.5z" />
<glyph unicode=")" horiz-adv-x="786" d="M98 -150q-6 -29 1 -50t23.5 -34.5t39 -19.5t45.5 -6q57 0 86 27h-2q131 117 226 222t167 216.5t125 238.5t96 289l8 45q2 10 5.5 21.5t5.5 21.5q27 135 37 260t-4.5 233.5t-55.5 198t-119 154.5q-16 16 -34.5 21.5t-36.5 5.5q-47 0 -87 -40t-57 -104v-6q-6 -31 7.5 -53.5 t35.5 -46.5q20 -23 40 -47.5t24 -57.5v2l3 -15t3 -9q6 -31 15.5 -78t13.5 -108.5t1 -136t-20 -160.5q-4 -23 -10 -45.5t-12 -47.5v-4q-23 -76 -40.5 -134t-38 -109.5t-46 -98.5t-62.5 -100t-86 -118.5t-119 -151.5q-4 -4 -11 -8.5t-13 -8.5h2q-43 -25 -92 -60.5t-62 -86.5z " />
<glyph unicode="*" horiz-adv-x="1087" d="M252 1114q-16 -82 37 -141q63 -57 137 -58q8 0 18.5 1.5t20.5 3.5t22.5 3t16.5 1q33 0 39 -11q10 -12 0 -61q-2 -10 -5 -21.5t-6 -21.5q-4 -12 -7 -25.5t-5 -21.5q-20 -119 72 -184q12 -10 59 -11q80 0 121 113q31 94 53 133q12 -6 32 -14t48 -23h-2q68 -41 90 -41 q43 0 81 36t48 79q10 53 -53 108q-18 16 -31.5 27.5t-19.5 22.5q16 4 31.5 7t31.5 7l86 18q113 33 138 148q14 76 -9.5 100.5t-103.5 24.5q-10 0 -25 6q-10 4 -25.5 7t-31.5 3q-4 0 -6 -1t-4 -1h-10q-31 -4 -50.5 -6t-31.5 -2q-59 0 -70 22l2 -2q-10 31 6 129q18 106 8 150 l-2 -2q-12 82 -110 82q-29 -2 -54.5 -15.5t-47 -34t-37 -46t-21.5 -52.5l-2 -10v-8q-4 -23 -6 -44.5t-2 -43.5l-54 74q-49 55 -118 55q-45 0 -80 -32t-45 -75q-8 -47 39 -135l59 -100q-18 -8 -49 -8h-4q-39 0 -47 -4l2 2q-41 -10 -79 -40t-44 -67z" />
<glyph unicode="+" horiz-adv-x="1112" d="M131 436q-8 -41 15.5 -71.5t84.5 -30.5l23 -4q10 -2 23.5 -3t29.5 -1q10 0 18.5 1t18.5 5h172l-51 -189l-2 -6l4 8q-10 -14 -16.5 -34.5t-10.5 -38.5l-6 -33q-4 -10 -8 -27q-10 -59 15.5 -84.5t66.5 -25.5q43 0 88 28.5t61 79.5q2 10 8.5 29.5t12.5 42.5q8 25 13 49.5 t9 38.5l48 162h200q10 -4 17.5 -5t17.5 -1q18 0 28.5 2t20.5 4t17 2q35 0 64.5 12t53 32.5t39 44t19.5 48.5q6 37 -13.5 65.5t-78.5 28.5l-113 -2h-207l53 182q6 10 11.5 22.5t9.5 29.5q2 27 8 32l2 17q12 61 -13.5 90t-66.5 29q-45 0 -90 -32t-61 -91q-4 -14 -17 -37 q-4 -12 -8 -23.5t-6 -21.5q0 -2 1 -3t1 -3l-2 -2l-53 -189h-187q-8 4 -20 4q-33 0 -37 -2t-14 -4q-8 -2 -15 -2h-6q-74 0 -118 -39t-54 -84z" />
<glyph unicode="," horiz-adv-x="438" d="M-47 -188q-10 -53 14.5 -69.5t61.5 -16.5q61 0 122.5 31.5t113.5 78.5t89.5 104.5t51.5 108.5q4 10 5 20.5t5 20.5q14 78 -13.5 122t-113.5 44q-51 0 -89 -13.5t-63.5 -35t-41 -50t-21.5 -57t-2 -53t14 -47.5q20 -39 14 -63q-6 -29 -33.5 -44.5t-56.5 -25.5 q-20 -8 -33.5 -15.5t-19.5 -21.5z" />
<glyph unicode="-" horiz-adv-x="790" d="M172 571q-8 -45 16.5 -81.5t87.5 -36.5q2 0 23 -4q10 -2 21.5 -3.5t25.5 -1.5q29 0 47 11l269 2l143 2q57 0 95 34.5t46 77.5q10 43 -19.5 80t-107.5 37q-8 0 -14 1t-17 1h5q-10 2 -23 2h-20q-23 0 -48 -6h-278q-6 2 -27 2q-12 0 -28.5 -1t-28.5 -3q-10 -2 -16 -2h-9 q-61 0 -98 -35t-45 -76z" />
<glyph unicode="." horiz-adv-x="407" d="M53 115q-6 -31 1 -61.5t24.5 -55.5t43 -40t58.5 -15q45 0 82 18.5t64.5 46t45 60t25.5 61.5v-2q4 8 5 17.5t6 19.5q4 25 4 51q0 27 -10.5 47.5t-33 33.5t-61.5 13q-45 0 -87 -17.5t-75.5 -44t-57.5 -58t-32 -62.5z" />
<glyph unicode="/" horiz-adv-x="825" d="M90 2q-8 -45 13.5 -66.5t80.5 -21.5q29 0 53.5 14.5t45 36t38 46t29.5 44.5q8 14 14.5 22.5t10.5 12.5q29 49 77 123t105 160q66 98 138.5 208.5t140 218t124 203t89.5 164.5h-2q16 29 31.5 61.5t19.5 59.5q8 39 -4.5 64.5t-63.5 25.5q-43 0 -73.5 -10t-51 -25.5t-34 -34 t-23.5 -34.5q-35 -57 -86 -143.5t-111.5 -187.5t-127 -209.5t-130 -212t-121 -194.5t-98.5 -157q-72 -113 -84 -168z" />
<glyph unicode="0" horiz-adv-x="829" d="M112 309q7 -96 39.5 -169.5t92 -116.5t143.5 -43q88 0 169 48t146.5 131t113.5 192.5t73 230.5l2 10q16 86 23.5 182t-10 179t-67 137.5t-143.5 54.5q-41 0 -75.5 -3t-66.5 -13.5t-64.5 -30t-69.5 -49.5q-109 -90 -185.5 -232.5t-107.5 -302.5q-20 -109 -13 -205z M357.5 303q-19.5 70 9.5 209q18 102 55 188t80 134q10 12 27.5 26t36 25.5t33.5 18.5t26 7q29 0 45 -23.5t22 -65.5t1 -98t-17 -122q-12 -68 -32.5 -132t-49.5 -116.5t-70 -86.5t-94 -38q-53 4 -72.5 74z" />
<glyph unicode="1" horiz-adv-x="409" d="M82 57q-2 -18 14.5 -34.5t38.5 -26.5h-2q12 -10 29.5 -13t34.5 -3q61 0 80.5 25.5t27.5 68.5q18 80 31 149l6 33q31 141 60.5 262t68.5 205q16 35 29.5 80t36.5 121q2 14 9 37.5t11 35.5q0 4 2 9q2 33 -14.5 54t-37 33.5t-37.5 16.5t-19 4q-35 0 -78 -19.5t-83 -44 t-67.5 -47t-27.5 -28.5q-16 -82 75 -109q-8 -35 -19 -74.5t-26 -80.5q0 -4 -2 -7.5t-2 -7.5q-23 -70 -45 -146.5t-41 -166.5q-10 -47 -18 -106.5t-19 -120.5q-4 -12 -4 -25q0 -12 -4 -25q-4 -14 -5 -26t-3 -23z" />
<glyph unicode="2" horiz-adv-x="831" d="M-29 86q-8 -43 10.5 -73.5t67.5 -30.5q27 4 36 6t32 6q59 12 148 27.5t179 15.5q68 0 112 -1t72.5 -3t43 -4t22.5 -4q4 0 8.5 -1t6.5 -1h14q51 0 79.5 33.5t39.5 78.5q16 84 -47.5 114t-216.5 30q-63 0 -134 -7q20 18 40 37t42 41l9.5 9.5t7.5 9.5l-2 -4l37 36 q31 29 57.5 55.5t52.5 49.5q135 121 201.5 229.5t77.5 161.5l2 4q16 92 -32 148.5t-151 56.5q-53 0 -110.5 -12.5t-118.5 -40.5q-47 -23 -107.5 -57.5t-115.5 -75.5t-96 -83t-48 -77q-4 -23 4.5 -44.5t23.5 -39t32.5 -27.5t32.5 -10q39 6 81 31.5t107 79.5q29 23 62.5 44 t65.5 38.5t60.5 27.5t47.5 10q14 0 14 -10q-4 -16 -39 -58t-90 -100.5t-120.5 -125t-131.5 -128t-121 -113.5t-90 -81q-49 -41 -79 -69.5t-46 -48t-23.5 -31t-9.5 -19.5z" />
<glyph unicode="3" horiz-adv-x="862" d="M0 219q-10 -49 14.5 -92t73.5 -76t120 -52t152 -19q88 0 172 22.5t154 66.5t119 110.5t67 156.5q35 176 -94 246q115 63 175.5 126.5t76.5 149.5q10 55 -4 100.5t-46 78t-78 50t-99 17.5q-41 0 -99.5 -15.5t-125 -41t-132 -59.5t-120 -70.5t-91 -74.5t-42.5 -73 q-4 -23 3 -45.5t22 -39.5t34.5 -28.5t40.5 -11.5q23 0 41 8l-2 -10q55 51 114.5 93t114.5 73t101.5 47t76.5 16q16 0 26.5 -5t8.5 -17q-6 -33 -53 -70t-112.5 -70.5t-138.5 -60t-130 -35.5q-47 -4 -65.5 -26.5t-28.5 -67.5q-4 -27 -1 -52.5t13 -46t25.5 -32.5t33.5 -12 q4 0 7.5 1l17.5 5q-2 0 -2 -2h2t4 2q4 0 7 1t7 1q41 16 81 22.5t77 6.5q55 0 88 -16.5t25 -55.5q-10 -53 -74.5 -97t-169.5 -44q-57 0 -96 10t-43 35q-6 25 -20.5 40t-32 22t-31.5 9t-21 2q-47 0 -90 -20t-53 -80z" />
<glyph unicode="4" horiz-adv-x="978" d="M51 391q-4 -20 2 -43.5t17.5 -43t27 -32t31.5 -12.5h8q2 0 6 1t7 1q39 12 90 24.5t101 22.5t93 17.5t70 9.5q-25 -93 -37 -150q-23 -111 2 -156.5t96 -45.5q31 0 58.5 11t48 27.5t34 36t17.5 35.5q-6 43 -4 67.5t6 53.5q4 23 12 53.5t21 71.5q12 2 26.5 3t26.5 1l127 -8 h8q23 0 43.5 12t35.5 30.5t26.5 40t15.5 40.5q6 39 -7 61.5t-41 33.5t-66 14t-79 3h-40q27 72 75.5 175.5t104.5 207.5l6 11l27 47q-6 14 -18.5 34.5t-28 39t-35 31.5t-37.5 13q-39 -16 -118 -67t-174 -123t-195.5 -153.5t-185.5 -158.5t-141.5 -140.5t-62.5 -96.5zM471 553 q59 53 98 87.5t74 61.5q-14 -33 -28.5 -65.5t-30.5 -73.5q-33 -2 -61.5 -4t-51.5 -6z" />
<glyph unicode="5" horiz-adv-x="847" d="M4 233q-10 -47 19.5 -92t83 -79.5t124 -56t142.5 -21.5q104 0 193 28.5t158 76.5t113 111.5t58 135.5q12 68 -2 132t-59.5 114.5t-120 82t-181.5 31.5q-49 0 -92 -6l62 150q2 6 28.5 11t66.5 8t88 5t95 3t87 2t63 1q51 0 73.5 32t30.5 69q8 45 3 71.5t-18 41t-33.5 18.5 t-41.5 4h-41q-18 -2 -79.5 -8t-142.5 -16.5t-170 -28t-163 -39.5q-16 -6 -38.5 -43t-48 -88.5t-50.5 -111.5t-44.5 -111.5t-32.5 -88t-13 -43.5q-4 -20 1 -42.5t17.5 -42t33 -32t48.5 -12.5q10 0 21.5 2t29.5 11q61 23 112.5 35t98.5 12q76 0 124 -37t38 -90 q-10 -51 -64.5 -78t-140.5 -33h-14q-33 0 -60.5 10.5t-51 25.5t-43 33.5t-33.5 33.5q-6 4 -10.5 8t-8.5 8q-14 12 -25.5 20.5t-27.5 8.5q-51 0 -113 -56l-2 -4q-39 -43 -47 -76z" />
<glyph unicode="6" horiz-adv-x="907" d="M106 377q-25 -125 9.5 -203t91.5 -121t116.5 -57t88.5 -14q92 0 183 38.5t168 103t130 147.5t72 173q14 74 -0.5 140.5t-54.5 117t-102.5 80t-143.5 29.5q-10 0 -21.5 -1t-24.5 -3q43 51 84 84.5t70 56.5q57 45 59 68q10 47 -23.5 82t-84.5 35q-57 0 -135 -56.5 t-185 -187.5h3q-88 -106 -142.5 -183t-87.5 -135.5t-47 -103.5t-23 -90zM356 381q20 104 84 157.5t138 53.5q43 0 66.5 -8.5t34.5 -20.5t14 -26.5t5 -24.5q-2 -6 -2 -14v-6h11q2 -27 0 -58q-27 -72 -58 -115t-63.5 -65.5t-64.5 -30.5t-58 -8q-59 0 -91 42t-16 124z" />
<glyph unicode="7" horiz-adv-x="790" d="M168 965q-10 -45 17.5 -70t67.5 -37t80 -14t56 -2h14h72q33 0 62.5 1t62.5 5q-174 -264 -279.5 -457.5t-121.5 -277.5l-2 -9q-10 -55 12 -89.5t88 -34.5q39 0 68.5 11t50 27.5t33 33t14.5 28.5l2 12q-4 20 -4 31q0 12 4 22q8 39 57 146.5t166 283.5q37 55 75 106.5 t73.5 95.5t64.5 78t47 54q33 37 37 54q6 47 -7 73.5t-34.5 41t-48.5 17.5t-47 3l-17 -82q2 0 -13 9t-46 19.5t-75 19.5t-99 9q-111 0 -157 2t-60 4h-29q-94 -10 -136 -46t-48 -68z" />
<glyph unicode="8" horiz-adv-x="845" d="M47 219q-10 -55 6.5 -99t56.5 -75t99 -48t137 -17q63 0 129 11t121 36.5t95 64.5t50 94v7q6 33 1 65.5t-22.5 68t-47 79t-72.5 100.5q31 25 77 61.5t91 75.5t82 75t51 56q31 41 46.5 76t21.5 65.5t-2.5 63.5t-31 60.5t-60 45t-93.5 17.5q-53 0 -114.5 -10.5t-120 -25.5 t-108.5 -33.5t-81 -33.5q-154 -78 -180 -215q-25 -127 88 -274q-104 -88 -155.5 -155.5t-63.5 -135.5zM289 225q4 25 31.5 57.5t74.5 69.5q92 -102 86 -133q-4 -10 -16 -18l2 2q-37 -16 -72 -17q-113 0 -106 39zM418 780q2 16 28.5 35t67.5 35t91 26.5t102 12.5h4 q27 0 22 -12q-2 -14 -20.5 -34t-43 -39.5t-50 -36.5t-41.5 -30l4 2l-8 -5q-7 -5 -9 -7l-4 -4q-41 -29 -59.5 -42t-26.5 -17q-35 39 -47 75.5t-10 40.5z" />
<glyph unicode="9" horiz-adv-x="862" d="M102 569q-12 -59 1.5 -109t44 -86t75.5 -55.5t101 -19.5q70 0 146.5 25.5t150.5 64.5l-84 -352q27 -57 104 -57q45 0 90 20t57 80q2 37 6.5 67.5t12.5 71.5q16 84 41.5 173t56.5 175t65 167t68 149h-4q27 47 33 61t8 25q2 16 -3 35.5t-15 38t-22.5 33t-24.5 20.5 q-14 4 -55.5 11t-94.5 7q-90 0 -161.5 -15.5t-126 -36t-91.5 -41t-55 -32.5q-4 -4 -8 -4q-96 -61 -155.5 -124.5t-93.5 -120t-48.5 -101.5t-18.5 -70zM350 575q10 51 46 104.5t84 96.5t101.5 69.5t100.5 26.5q27 0 45 -12t18 -41q-8 -41 -40.5 -93t-79.5 -98t-105.5 -78 t-116.5 -32q-29 0 -44 15.5t-9 41.5z" />
<glyph unicode=":" horiz-adv-x="405" d="M78 96q-10 -59 13.5 -106t88.5 -47q84 0 138 58t79 134l2 15q4 8 4 12q14 66 -9 106.5t-89 40.5q-43 0 -81 -18.5t-66.5 -46t-48 -63.5t-27.5 -68zM231 666q-10 -59 14.5 -107.5t90.5 -48.5q84 0 138 58t79 134l2 15q0 4 2 7t2 7q14 66 -8.5 106t-87.5 40 q-45 0 -83 -18.5t-66.5 -46.5t-49 -63.5t-28.5 -68.5z" />
<glyph unicode=";" horiz-adv-x="405" d="M-63 -190q-10 -53 14 -69.5t61 -16.5q61 0 123 31.5t113 78.5t89 104.5t52 110.5l-2 -2q4 10 6 21.5t6 21.5q14 78 -13.5 122t-113.5 44q-47 0 -83.5 -19.5t-64.5 -47t-46.5 -59.5t-24.5 -56l-4 -17q-10 -59 19.5 -84.5t70.5 -27.5q-20 -12 -42.5 -19.5t-41.5 -13.5 q-41 -10 -73.5 -26.5t-42.5 -61.5zM238 666q-10 -59 13 -107.5t89 -48.5q84 0 138 58t79 134l2 15q0 4 2 7t2 7q14 66 -8.5 106t-87.5 40q-43 0 -81 -18.5t-67.5 -46.5t-49 -63.5t-27.5 -68.5z" />
<glyph unicode="&#x3c;" horiz-adv-x="1077" d="M242 467q-4 -29 8 -57.5t37 -51.5l452 -366q27 -39 76 -39q25 0 51.5 9t49 26.5t40 40t23.5 49.5l4 18q10 55 -14.5 70.5t-53.5 19.5l-348 273l502 227q37 2 73 30t52 87l2 12q10 51 -21.5 82t-78.5 31q-33 0 -66 -16.5t-55 -47.5l-625 -282q-49 -23 -75.5 -53.5 t-32.5 -61.5z" />
<glyph unicode="=" horiz-adv-x="1202" d="M213 418q-10 -47 8.5 -84t73.5 -37q12 0 33.5 5t48.5 17h604q18 -8 28.5 -10t18.5 -2h6q35 0 64.5 13.5t53.5 35t39 47t19 52.5q10 45 -12.5 79.5t-83.5 34.5q-33 0 -43 -2t-29 -16h-608q-12 10 -29.5 12t-33.5 2q-66 0 -107 -47t-51 -100zM326 827q-10 -47 9 -84.5 t73 -37.5q45 0 77 20h607q16 -10 29.5 -12t29.5 -2q66 0 104 33t54 92l4 16q10 47 -8.5 86t-71.5 39q-33 0 -43 -3t-37 -18h-604q-18 12 -37.5 14.5t-28.5 2.5q-33 0 -60.5 -13.5t-47 -34t-32.5 -46t-17 -52.5z" />
<glyph unicode="&#x3e;" horiz-adv-x="1077" d="M141 78q-10 -61 25 -96t82 -35q27 0 54.5 13t47.5 38v2l672 373v-2q31 16 55.5 45.5t32.5 64.5q4 27 -5 52.5t-38 44.5l-475 290q-4 23 -28.5 43.5t-51.5 20.5q-35 0 -65.5 -13.5t-54 -34t-39 -46t-19.5 -50.5q-6 -35 7 -63.5t56 -38.5l377 -225l-506 -271 q-29 -2 -66.5 -19t-56.5 -81z" />
<glyph unicode="?" horiz-adv-x="1087" d="M231 49q-6 -35 1.5 -59.5t25.5 -40t43 -22.5t51 -7q68 0 117 40t78 114h2q4 12 6 20q4 10 6 19.5t6 19.5l-6 -4q8 51 -11.5 83t-78.5 32q-80 0 -145.5 -37t-92.5 -139zM305 453q-12 -63 13.5 -99.5t115.5 -36.5q35 0 55.5 30t49.5 79q20 35 47.5 80t70.5 93t104.5 97 t151.5 92q53 25 105.5 61t97.5 80t78 94t49 105l2 13q4 8 4 12q12 55 -5 103.5t-55 84t-91.5 55t-114.5 19.5q-68 0 -136.5 -20.5t-136 -52t-131 -71.5t-118.5 -77q-51 -35 -94 -81t-58 -93l-4 -19q-10 -57 10.5 -84.5t63.5 -27.5t101.5 30.5t123.5 96.5q86 68 167 118 t149 50q41 0 68.5 -12.5t23.5 -34.5l-2 -7q-6 -18 -29 -40.5t-56.5 -48t-77.5 -54.5t-91 -59q-68 -43 -137.5 -91.5t-130 -97.5t-104.5 -101t-58 -106q-6 -20 -11.5 -40.5t-9.5 -38.5z" />
<glyph unicode="@" horiz-adv-x="1650" d="M149 200q7 -83 51 -144.5t130 -97.5t223 -36q53 0 102.5 8.5t89 19.5t68.5 22.5t41 17.5l4 2q59 2 103.5 46t54.5 93q8 41 -13.5 70.5t-84.5 29.5q-39 0 -58.5 -15t-46.5 -44l-12 -14q-37 -20 -59.5 -30.5t-41 -16t-40 -6.5t-58.5 -1q-86 0 -138 24t-77 62.5t-28 90 t8 104.5q2 27 12 57q20 70 66.5 156t115 173t158.5 169t196.5 145.5t229.5 101.5t256 38q86 0 137 -29t75.5 -76t28 -105.5t-9.5 -119.5q-4 -16 -7 -29.5t-7 -29.5q-31 -111 -76 -196t-91 -143.5t-89 -88t-68 -29.5v12q2 4 3 10.5t6 14.5q2 2 3 7t3 9l192 563q6 8 11.5 18.5 t7.5 20.5q6 31 -7.5 65t-68.5 34h-4q-23 0 -50.5 -13.5t-46.5 -38.5q-16 4 -24 4h-23q-82 0 -167 -29.5t-164.5 -79.5t-151.5 -114.5t-130 -135.5t-99 -142.5t-60 -134.5q-2 -4 -4 -9.5t-2 -9.5l-4 -14q-16 -84 21.5 -134.5t154.5 -50.5q51 0 106.5 22.5t113 57.5t111.5 79 t101 85q-10 -27 -15 -51.5t-9 -46.5q-18 -96 7 -148.5t107 -52.5q74 0 162 47t173 133t158 207t114 268q4 16 8 34l8 36q18 100 10 191.5t-57 161t-142.5 109.5t-242.5 40q-129 0 -260 -37t-256 -102.5t-238.5 -154.5t-207 -193.5t-161 -219t-100.5 -229.5q-4 -23 -10 -44.5 t-10 -43.5q-18 -96 -11 -179zM739 463l2 6q12 49 65.5 123t127.5 143.5t158 119.5t157 50q27 0 23 -18v-2q-6 -23 -37 -64t-76 -92t-99 -103.5t-107.5 -95.5t-102.5 -70.5t-82 -27.5q-23 0 -27 10.5t-2 20.5z" />
<glyph unicode="A" horiz-adv-x="1222" d="M12 49q-2 -12 -2 -24q0 -27 12 -45q18 -28 80 -31h9q47 0 84.5 46t85.5 111l9 13.5l9 13.5l244 354l47 -2t113.5 -5t135 -5t111.5 -2l4 -18q12 -51 19.5 -81t12.5 -51.5t8 -43t7 -54.5q6 -35 17.5 -82t25 -90t26.5 -73.5t24 -30.5h16q66 0 101.5 37t48.5 96q6 39 6 82v2 q-8 74 -26.5 177t-41.5 220q-16 86 -31.5 175t-28 176t-21.5 167t-11 148l-2 -2q1 9 1 19q-1 58 -23 98q-26 47 -72 47q-37 0 -79 -33t-89 -109v2l-764 -1069l2 2q-2 -2 -3 -6t-5 -8q-14 -23 -34 -54.5t-26 -66.5zM672 676l223 330q4 -70 12.5 -160t18.5 -156z" />
<glyph unicode="B" horiz-adv-x="1255" d="M126 -33q9 -33 52 -33q92 0 209 19.5t240 58.5t244.5 94.5t224 127t175 160t101.5 188.5l4 14q0 4 2 7t2 7q6 31 6 58q0 72 -44 126q-60 74 -197 91q115 63 170 132.5t80 151.5l2 15q3 16 3 30q0 60 -52 105q-66 55 -220 55q-141 0 -271 -25.5t-245 -54.5 q-16 -4 -28.5 -7t-28.5 -7q-35 -8 -77 -39t-54 -90q-4 -20 -2 -29l-248 -913v2q-14 -41 -26.5 -81t-20.5 -79q-5 -27 -5 -49q0 -19 4 -35zM393 166l131 467q111 25 204 39t173 14q39 0 84 -2t81 -11t58.5 -26.5t16.5 -46.5l-2 -6q-25 -86 -110 -157.5t-195.5 -127 t-229.5 -92.5t-211 -51zM586 850l57 205q94 49 202.5 74.5t225.5 25.5q27 0 51.5 -4t22.5 -14v-2q-14 -51 -72.5 -98.5t-139.5 -85.5t-173 -64.5t-174 -36.5z" />
<glyph unicode="C" horiz-adv-x="1175" d="M164 236q10 -95 50 -165.5t109.5 -111.5t170.5 -41q94 0 193 32t189.5 83t166 112.5t124.5 122.5v-2q20 23 28.5 40.5t12.5 33.5q8 37 -15.5 57.5t-64.5 20.5q-43 0 -99 -25.5t-103 -79.5q-20 -27 -60.5 -57.5t-89.5 -56t-100 -43t-94 -17.5q-61 0 -98.5 24.5t-54.5 67.5 t-18 99v8q0 52 11 108q4 16 7 33t9 33q33 123 96.5 242.5t144.5 214t176 153t192 58.5q59 0 88.5 -7.5t40.5 -21.5q16 -18 30.5 -33.5t24.5 -30.5q45 -55 61 -55q59 0 106.5 41t57.5 94q4 29 -2 55.5t-27 49.5q-68 76 -153.5 103.5t-190.5 27.5q-135 0 -273 -75t-258 -198.5 t-214 -283.5t-141 -330q-4 -18 -9.5 -36.5t-9.5 -39.5q-16 -77 -16 -147q-1 -29 2 -57z" />
<glyph unicode="D" horiz-adv-x="1241" d="M144 -10q12 -41 73 -41q57 0 156.5 21.5t219.5 67.5t250 119.5t246.5 177t211 241t143.5 311.5q4 12 7 26.5t5 26.5q11 55 11 107q0 32 -4 64q-11 83 -55 146.5t-122 101.5t-192 38q-143 0 -241.5 -24.5t-188.5 -53.5q-18 -6 -36 -11t-38 -12q-72 -23 -114 -74t-52 -108 q-2 -10 -4 -18.5t-2 -16.5l-242 -858q-2 -10 -5 -22.5t-5 -22.5q-6 -23 -11 -43t-10 -41q-6 -31 -6 -57q-1 -25 5 -45zM403 205l248 878q68 35 163 65t200 30q68 0 109.5 -21.5t64 -58.5t26.5 -84q1 -14 2 -27q0 -34 -8 -69l-4 -27q-45 -158 -139 -275.5t-209 -201.5 t-235 -135t-218 -74z" />
<glyph unicode="E" horiz-adv-x="1087" d="M135 82q-4 -21 -4 -38q1 -33 15 -56q22 -35 106 -35h18q10 0 21 2h-2l649 47q51 0 85 10.5t55.5 25.5t31.5 36t14 39l2 12q3 16 3 29q1 34 -19 50q-26 22 -96 23h-35l-582 -49l103 373l454 49q10 2 22.5 3t24.5 1q49 0 93.5 20.5t66.5 92.5l2 14q2 9 2 18q-1 25 -17 47 q-22 30 -108 31h-24q-12 0 -29 -2l-424 -53l86 305l500 33q10 0 22.5 1t22.5 1q43 2 76 4t56.5 13.5t39.5 34t29 63.5l4 14q2 13 2 25q0 40 -26 54q-34 20 -91 19q-18 0 -35.5 -1t-34.5 -3q-10 0 -18 -1t-18 -1q-184 -12 -289 -17t-164 -5h-139q-37 0 -67 -13.5t-50 -35 t-33.5 -46t-17.5 -45.5q0 -4 -1 -8t-1 -10q-4 -23 -12.5 -54.5t-16.5 -68.5q-20 -84 -48 -198.5t-69 -262.5l-94 -348q-4 -10 -7 -20.5t-7 -20.5q-8 -27 -15.5 -51.5t-11.5 -46.5z" />
<glyph unicode="F" horiz-adv-x="993" d="M119 61q-6 -27 -6 -47q0 -24 8 -38q14 -26 61 -25h19q8 0 18 2h-2q41 4 66.5 15.5t43 31.5t30 51t28.5 78l125 420l467 69h-2q61 4 96 13.5t55.5 24t28.5 35t19 46.5q0 4 2 6t2 7q4 6 4 8q0 4 2 8q2 11 2 20q0 38 -32 52q-40 18 -97 18q-37 0 -71 -3t-60 -7 q-16 -4 -21 -4l-334 -49l84 303l525 37q92 10 131 36.5t55 85.5l2 5v15q0 54 -26 74q-30 23 -101 23h-18q-4 0 -10.5 -1t-12.5 -1q-143 -12 -235.5 -20.5t-149.5 -14.5t-87 -10t-48 -6q-10 -2 -18 -2t-19 -2h2q-109 -10 -156 -34t-57 -83q-4 -16 -6 -35.5t2 -40.5 q-23 -78 -38 -135t-27.5 -100t-21.5 -76t-17 -63q-10 -33 -19.5 -69t-23.5 -83l-144 -463l-4 -14q-8 -31 -14 -58z" />
<glyph unicode="G" horiz-adv-x="1474" d="M162 234q8 -93 53 -162.5t131 -111.5t221 -42q125 0 245 34t229.5 92t205.5 138t174 173.5t133 195t84 201.5l4 12q2 12 2 22q0 33 -24 50q-31 24 -86 24q-33 0 -74 -14q-12 -4 -19 -6t-14.5 -4t-17.5 -4.5t-29 -8.5q-43 -12 -98 -29.5t-108.5 -33t-97.5 -26.5t-64 -15h2 q-43 -4 -78 -20.5t-59.5 -39t-40 -48t-19.5 -50.5q-6 -37 7.5 -61.5t49.5 -24.5h9q6 0 16 4l-2 -2q70 16 134.5 33.5t125.5 36.5q92 27 186 51q-49 -78 -120.5 -159t-162.5 -147.5t-200.5 -109.5t-232.5 -43q-72 0 -117 27t-69.5 72t-28.5 103q-1 15 -1 29q0 44 9 91 q2 10 4 21.5t6 21.5q33 121 123 241.5t208 217t249 157t247 60.5h27q51 -4 82 -11.5t47.5 -18.5t21.5 -22.5t9 -23.5q8 -25 21.5 -43.5t66.5 -18.5h20t23 2q43 4 68.5 32t33.5 69q2 12 2 29q0 16 -4 32q-14 82 -97 139.5t-232 57.5q-100 0 -213 -28.5t-229 -83 t-227.5 -132.5t-206.5 -177t-168 -219t-109 -255q-4 -20 -10.5 -41t-10.5 -41q-12 -69 -12 -135q0 -29 2 -57z" />
<glyph unicode="H" horiz-adv-x="1259" d="M117 74q-4 -22 -4 -39q0 -30 11 -47q17 -27 79 -39q2 0 5 -1t5 -1h8q41 0 80 36.5t55 114.5l136 482l602 18l-115 -424v2q-4 -8 -5 -16t-5 -19q-3 -16 -3 -31q0 -36 18 -65q24 -41 83 -41h10q37 2 62.5 18.5t43 39t27 50t15.5 54.5q4 16 6 30.5t6 26.5l291 1047l-2 -2 q6 16 11 33.5t9 33.5q3 15 3 28q0 25 -10 43q-15 28 -75 28q-49 0 -79.5 -11.5t-50 -31t-30 -45t-20.5 -52.5l-127 -471l-606 -24l108 387l-2 -2q4 8 7.5 20.5t7.5 26.5q3 17 3 33q-1 24 -7 47q-12 39 -68 47h-16q-31 0 -56.5 -13.5t-44 -33t-32 -44t-21.5 -46.5 q-6 -20 -13 -47t-18 -62q-16 -59 -37.5 -133t-43 -151.5t-43 -154.5t-39.5 -145l-109 -407q-4 -12 -6 -24.5t-4 -22.5z" />
<glyph unicode="I" horiz-adv-x="454" d="M127 68q-3 -15 -3 -28q0 -29 12 -51q18 -32 77 -40q2 0 4 -1t6 -1h10q33 0 53.5 11t36 29.5t25.5 44t21 54.5q4 8 8 25l2 2l295 1050v-2q4 6 5 13.5t5 13.5q6 16 12 33.5t11 38.5q3 15 3 29q0 23 -8 41q-14 28 -67 28t-86 -10.5t-52.5 -32t-30.5 -52t-20 -73.5 l-303 -1069l2 2q-12 -29 -18 -55z" />
<glyph unicode="J" horiz-adv-x="1069" d="M60 84q12 -57 54 -103.5t115.5 -74t188.5 -27.5t219 38t188 102.5t144.5 149.5t89.5 179l231 821l2 7q4 20 9.5 38.5t9.5 34.5q4 21 4 38q0 25 -9 42q-14 29 -75 29q-47 0 -78 -19.5t-50.5 -47t-29.5 -59.5t-18 -58l-234 -822q-12 -43 -46 -92t-85 -91t-115.5 -69.5 t-136.5 -27.5q-41 0 -65.5 4t-37.5 13t-19.5 25.5t-8.5 39.5q2 10 5 23t7 28q4 16 8.5 31.5t8.5 31.5q4 20 4 38q0 26 -8 48q-15 37 -80 37h-31q-16 0 -36.5 -7t-42 -25.5t-40 -49t-32.5 -78.5v2q-4 -8 -5.5 -16t-3.5 -18q-6 -30 -6 -60q0 -28 5 -55z" />
<glyph unicode="K" horiz-adv-x="1128" d="M137 84q-7 -38 -7 -65q0 -31 10 -45q18 -28 73 -29q49 0 97 31.5t67 127.5l2 15l133 471l377 -574q46 -79 91 -79h1q14 0 23 4l-3 -2q115 33 127 102q2 8 2 17q0 35 -26 85v2l-402 598l517 367l-2 -2q63 31 92.5 64.5t33.5 64.5q3 11 3 21q0 28 -20 48q-28 28 -73 27 q-29 0 -58.5 -11t-57.5 -38l4 2l-543 -391l92 303l4 21q6 33 9.5 60.5t-4 47t-29 29.5t-62.5 10q-55 -2 -96 -49t-63 -115l-306 -1081z" />
<glyph unicode="L" horiz-adv-x="909" d="M123 12q0 -25 7 -44t22.5 -31.5t40.5 -12.5h6q2 0 4 1t6 1l582 76q74 14 117.5 46t49.5 65q0 4 1.5 9t-1.5 11v6q3 13 3 24q1 29 -19 43q-26 20 -80 21q-37 0 -74 -6h3l-398 -53l291 1030q4 14 6 27.5t6 23.5q4 24 4 42q0 28 -9 45q-15 28 -73 28q-47 0 -74.5 -12.5 t-46 -34t-28.5 -52t-20 -67.5l-306 -1083v4q-4 -10 -8 -24.5t-8 -33.5q-4 -25 -4 -49zM956 127v2l2 4v-8q0 2 -2 2z" />
<glyph unicode="M" horiz-adv-x="1589" d="M143 113q-8 -40 -8 -69q1 -36 13 -54q22 -33 73 -41h10q27 0 51.5 17.5t44 44t33 54t19.5 50.5l182 649q8 -35 16.5 -72t18.5 -71q16 -70 32.5 -138.5t30.5 -136.5q8 -37 12.5 -58.5t7.5 -33.5t4 -20.5t5 -18.5l2 2l10 -37q4 -23 35 -46t78 -23q33 0 70 15t71 56 q33 35 46.5 53.5t29.5 43.5q10 16 24.5 34.5t39.5 53.5q20 27 60 71.5t90 102t107.5 121t112.5 126.5l13 17l-201 -701v2l-8 -24t-8 -25q-3 -14 -3 -27q0 -28 12 -48q17 -30 72 -33h13q68 0 106.5 45t48.5 104l4 17l308 1089q7 40 7 67v7q-1 29 -12.5 46t-33 25.5 t-51.5 12.5h-7q-16 0 -39.5 -15.5t-53 -40t-60.5 -57t-58 -67.5h3q-162 -199 -270.5 -327t-178.5 -210v2q-61 -74 -98 -117q-23 -29 -39.5 -52t-28.5 -40q-4 -6 -8 -11t-6 -9q-4 12 -6 45q-14 74 -32 161t-34 158q-12 55 -21.5 94t-7.5 50q-10 59 -26.5 113.5t-32.5 95.5 t-29.5 67.5t-19.5 30.5l39 6q-8 66 -40 97.5t-71 31.5t-73.5 -32.5t-57.5 -98.5z" />
<glyph unicode="N" horiz-adv-x="1337" d="M123 63q-4 -19 -4 -35q0 -81 96 -81h2h14q57 4 91 41t45 82q2 10 2 18v16l213 756q10 -18 21 -38.5t22 -41.5q45 -84 86 -169t67 -154q14 -39 40 -97.5t56.5 -121t59.5 -120t49 -95.5l-2 2l2 -2q2 0 4 -3q6 -12 13.5 -23t20.5 -21.5t34.5 -16.5t56.5 -6q31 0 53.5 15.5 t39 38t27.5 47t17 44.5l314 1119q4 12 7 24t5 23q5 25 5 44q0 31 -12 47q-20 25 -85 25q-41 0 -66.5 -14t-42 -35.5t-26 -47.5t-15.5 -50l-233 -840q-16 29 -32.5 58.5t-20.5 44.5q-27 47 -49.5 90t-42 85t-39 87t-42.5 98q-20 47 -44.5 103.5t-53.5 121.5q-10 20 -14 27 q-4 4 -6 10t-6.5 16.5t-9.5 30t-13 49.5q-6 20 -16.5 45t-25.5 46.5t-34.5 37t-46.5 15.5q-29 0 -51.5 -6t-41.5 -23.5t-35.5 -50.5t-35.5 -86l-303 -1077q-6 -14 -8 -26.5t-6 -25.5z" />
<glyph unicode="O" horiz-adv-x="1304" d="M178 444q-16 -85 -16 -157q0 -139 59 -231q90 -140 307 -140q143 0 290 64.5t275 176t226 260t145 318.5q16 57 25 113q19 104 19 199v10q-1 100 -37.5 177t-113.5 123t-206 46q-106 0 -210.5 -42t-204 -111.5t-186.5 -160t-157.5 -186.5t-121 -191.5t-70.5 -174.5v-5 q-6 -23 -12.5 -45t-10.5 -43zM414 455q4 18 9 35.5t9 37.5l2 7q16 59 53 129.5t88.5 142.5t113 139.5t129 119.5t137 84t137.5 32t108 -28q38 -28 56 -75q17 -44 17 -102v-7q-1 -62 -13 -126q-4 -25 -11.5 -51.5t-15.5 -53.5q-33 -121 -100.5 -230.5t-154.5 -192.5 t-188.5 -131t-201.5 -48q-121 0 -162 86q-24 50 -24 121q0 51 12 111z" />
<glyph unicode="P" horiz-adv-x="1132" d="M129 66q-3 -18 -3 -34q0 -25 7 -46q12 -35 72 -35h8q35 2 63.5 15.5t50 33.5t35 44t17.5 46q2 18 0 31l115 405q80 12 174 40t189 67t186.5 88t167 107.5t130 126t74.5 139.5l4 18q0 4 2 8t2 8q7 35 7 63.5t-7 51.5q-14 45 -48 71.5t-82 37t-99 10.5q-217 0 -362.5 -20.5 t-237.5 -36.5q-68 -12 -106.5 -59.5t-55.5 -102.5q-4 -23 -11 -45.5t-15 -44.5q-18 -61 -35 -122t-27 -102l-194 -696v2q-6 -16 -11.5 -33.5t-9.5 -35.5zM559 754l84 342q47 12 103.5 20t117 13.5t118.5 8.5t112 3q31 0 61.5 -4t26.5 -33l-2 -6q-16 -51 -81 -104.5 t-156 -99.5t-193.5 -83t-190.5 -57z" />
<glyph unicode="Q" horiz-adv-x="1347" d="M148 198q6 -87 43.5 -148.5t110.5 -96.5t185 -35q123 0 246 41t242 117q23 -31 57 -60l-2 2q23 -27 46.5 -54t37.5 -60q35 -20 64.5 -28.5t52.5 -8.5q86 0 137 106l-20 -4l26 19q-16 29 -34.5 49t-41.5 43q-6 4 -10 9t-10 9l2 -2q-10 10 -17.5 18.5t-13.5 18.5 q-18 23 -35.5 43.5t-39.5 54.5q123 121 216 268.5t144 321.5q10 37 16 72q13 71 13 136q0 32 -3 63q-10 94 -50 162.5t-109.5 108.5t-167.5 40q-104 0 -215 -41t-218.5 -109.5t-206.5 -161t-180 -194.5t-140.5 -208.5t-88.5 -207.5l-12 -46t-10 -46q-15 -80 -15 -150 q0 -21 1 -41zM387 297q0 49 10 104q4 18 9.5 37t9.5 39q20 72 63 153t102.5 158.5t130 148.5t148.5 124t158 85t156 32q51 0 84.5 -24t50 -63.5t17.5 -92.5v-9q0 -50 -11 -106q-4 -14 -7.5 -28l-7.5 -30q-35 -123 -96 -230.5t-145 -195.5q-29 29 -47.5 53.5t-34.5 47.5 l-25 30q-27 23 -57 23q-41 0 -80 -34t-47 -79q-2 -10 -2 -21q0 -31 22 -63q18 -8 38 -38.5t46 -71.5q-78 -51 -159.5 -79t-165.5 -28q-57 0 -92 20.5t-51.5 55.5t-16.5 82z" />
<glyph unicode="R" horiz-adv-x="1150" d="M133 72q-5 -29 -5 -50q0 -26 8 -43q14 -30 67 -30h4q43 0 71.5 13t47 37t30 52.5t21.5 59.5l108 385l416 -486q27 -33 60.5 -48t68.5 -15q51 0 95 30.5t61 90.5l-12 2q-2 33 -22.5 58t-49.5 48l2 -2l-391 434q102 27 206.5 70t193.5 101.5t155.5 133t93.5 164.5v-2 q8 23 10 41q6 31 6 58q0 186 -268 186q-180 0 -298 -7t-200 -20q-74 -12 -117.5 -67.5t-60.5 -130.5v2q-20 -80 -40.5 -165t-37.5 -161v2l-211 -690q-8 -27 -12 -51zM563 768l96 350q49 12 123 19.5t148 7.5q66 0 121 -6q72 -11 72 -44q0 -5 -1 -10v-4q-14 -51 -74.5 -100 t-142.5 -92t-174 -75t-168 -46z" />
<glyph unicode="S" horiz-adv-x="1292" d="M119 227q-5 -26 -5 -52q0 -29 6 -57q11 -54 49 -99.5t103.5 -73t163.5 -27.5q82 0 176.5 17.5t192.5 54.5t192.5 92t176 130t143 170t94.5 212v-2q8 23 10 39q6 34 6 64q0 44 -14 76q-24 54 -68.5 85t-96.5 41t-89 10q-117 0 -226.5 -28.5t-195.5 -55.5 q-49 -16 -88 -26.5t-67 -10.5q-23 0 -40.5 13.5t-11.5 42.5l2 8q12 41 55.5 97.5t112 106.5t157.5 86t192 36q47 0 65.5 -9.5t28.5 -17.5q8 -4 8 -6q10 -8 18.5 -15.5t18.5 -19.5q20 -20 37.5 -29.5t74.5 -9.5q25 0 47.5 12.5t39 29.5t27.5 35.5t16 33.5l2 10q2 12 2 23 q0 32 -16 60q-22 38 -67.5 66.5t-109 45t-133.5 16.5q-127 0 -260 -48t-249 -129t-202 -186.5t-118 -222.5q0 -4 -2.5 -9t-2.5 -9l-4 -15q-6 -33 -6 -61q0 -32 8 -57q16 -46 51 -72.5t81.5 -36.5t93.5 -10q59 0 128.5 16.5t145.5 38.5q84 23 167 44.5t155 21.5q36 0 58 -16 q15 -12 16 -38q0 -11 -3 -24l-4 -19q-31 -115 -113.5 -194.5t-179 -128.5t-189.5 -71.5t-147 -22.5q-47 0 -74.5 9t-43 22.5t-22.5 29.5t-11 31q0 6 -4 14q-12 43 -28.5 77t-61.5 34q-72 0 -110 -36t-54 -85z" />
<glyph unicode="T" horiz-adv-x="1021" d="M322 1120q-2 -10 -2 -20q0 -28 18 -48q24 -26 94 -26h23q10 0 24 2q4 0 6 1t7 1l221 43l-271 -964q0 -6 -2 -13.5t-4 -13.5q-8 -18 -10 -39q-3 -14 -3 -27q0 -20 8 -38q13 -28 79 -29q39 0 64.5 8t43 26.5t29.5 47t27 71.5l284 1014l283 51q53 14 88 26.5t56.5 26 t34 30.5t18.5 40l4 15q3 15 3 27q-1 30 -17 48q-24 26 -70 27q-10 0 -17.5 -1t-15.5 -3h-6q-59 -10 -110.5 -19.5t-101.5 -18.5t-101.5 -18.5t-112.5 -21.5q-72 -14 -155 -29.5t-201 -38.5q-4 -2 -14.5 -4t-14.5 -4v2q-29 -8 -58.5 -16t-54 -21.5t-44 -33t-27.5 -47.5z" />
<glyph unicode="U" d="M168 86q12 -52 54 -89.5t114 -59t176 -21.5q133 0 255 38t220 98.5t164.5 138t89.5 157.5l238 842q4 10 11 25.5t11 33.5q2 12 2 23q0 26 -10 51q-14 35 -80 35q-45 0 -73.5 -14.5t-47 -38t-28 -53t-15.5 -62.5l-254 -846q-10 -35 -50 -70.5t-101.5 -65.5t-141 -49.5 t-167.5 -19.5q-55 -1 -95 21q-32 18 -32 48q0 7 2 15l2 6l282 1004q2 14 3 35.5t-6 42t-27.5 34t-57.5 13.5t-61.5 -10.5t-41 -27.5t-26.5 -38.5t-18 -44.5q0 -6 -4 -10l-279 -994v3q-4 -8 -5 -17.5t-3 -19.5q-6 -30 -6 -58.5t6 -54.5z" />
<glyph unicode="V" horiz-adv-x="1064" d="M297 236q0 -55 2 -102.5t8 -85.5t19 -62q12 -23 29.5 -36t39.5 -13q33 0 70 29.5t84 94.5q23 37 63.5 95.5t91 127t102.5 140.5t95 131q29 39 51.5 69.5t36.5 53.5l10 12l-2 -2q18 27 32.5 47.5t37.5 47t59.5 67.5t102.5 113q33 35 52 56t30 34v-2q16 18 21 24t22 23 l61 98l2 16q3 16 3 29q0 32 -16 50q-24 26 -65 26q-33 0 -70.5 -17.5t-74.5 -56.5q-33 -33 -60.5 -66.5t-76.5 -97.5h2q-41 -51 -63.5 -78.5t-34 -41t-15.5 -18.5t-6 -9q-2 -6 -10 -19.5t-31 -48.5q-16 -23 -45 -58.5t-63.5 -79.5t-73.5 -91t-74 -90q-27 -33 -47.5 -58.5 t-36.5 -46.5q0 35 1 84t1 94t1 78t1 35q4 72 5 100.5t5 49.5q0 12 1 24.5t2.5 32.5t2.5 51t1 78q0 16 1 37.5t3 46.5q2 18 3 35.5t3 32.5v7q0 54 -31 82q-33 30 -76 29q-43 0 -84 -25.5t-53 -78.5q-4 -10 -5 -19.5t-5 -19.5q-6 -37 -14 -84q-7 -38 -7 -60v-10v2 q-2 -35 -3 -69.5t-1 -67.5q-4 -100 -5 -179t-1 -126v-45v-31q-4 -27 -4 -75q0 -47 -2 -99q-2 -59 -2 -114z" />
<glyph unicode="W" horiz-adv-x="1560" d="M217 104q-2 -28 -2 -50q1 -52 11 -74q14 -30 59 -31h8q2 0 5 1t7 1q25 2 42.5 5t35.5 17.5t44 45t67 90.5l-2 -3q4 6 27.5 39t59 84.5t79.5 116t91.5 134t92.5 139t82 129.5q0 -96 4 -206t9 -207t11 -170t13 -95q12 -47 22 -74t21.5 -41t21.5 -17.5t23 -3.5h22 q39 0 81 29t91 119q23 39 67 111.5t103 171.5q68 111 144.5 239.5t148.5 253.5t131 233.5t90 178.5l-2 14v-6l2 6q0 2 4 10q2 16 1 35t-11 34t-30.5 24.5t-55.5 9.5q-29 0 -52.5 -13.5t-44 -36t-39 -51t-36.5 -57.5q-12 -18 -60.5 -96t-116 -190.5t-148.5 -251t-160 -277.5 v117t-1 140.5t-2 143t-2.5 129t-1.5 95.5v45l3 -2q-2 8 -3 28v58t-4 60.5t-14 47t-29 19.5q-33 0 -54 -3.5t-42.5 -22.5t-50.5 -62t-76 -121q-10 -14 -38.5 -60.5t-69.5 -111.5q-33 -51 -70 -109.5t-75 -120t-75.5 -121t-70.5 -112.5q6 86 12 177t13.5 177t14.5 164t13 141 q4 16 4 27v-2q0 23 2 51.5t8 60.5q-14 66 -38.5 82.5t-67.5 16.5q-76 0 -107.5 -34t-44.5 -97q-35 -186 -47 -366.5t-18 -315.5q-4 -35 -4 -68t-4 -59q-2 -49 -6.5 -106.5t-8.5 -106.5q-2 -35 -4 -60.5t-2 -38.5z" />
<glyph unicode="X" horiz-adv-x="983" d="M10 31q-6 -23 4 -23q10 -33 36 -48t59 -15q35 0 71.5 17.5t67.5 47.5q43 49 71.5 81t62.5 74t84 104.5t138 170.5q8 -31 20.5 -82t27 -106t29.5 -107.5t30 -87.5q4 -39 35.5 -68.5t80.5 -29.5q29 0 64 15.5t80 56.5l-13 65l3 4q0 2 1 4t1 5q4 20 -0.5 31.5t-10.5 21.5 q-2 4 -4 7t-2 7q-25 49 -38 83t-25.5 81t-25.5 127t-38 221l21 24q22 23 59 62t83 86t93 96.5t92 93.5t78 74q27 29 52.5 71t33.5 77q6 33 -5 56.5t-48 33.5q-8 2 -14.5 3t-16.5 1q-41 0 -73.5 -23.5t-67.5 -54.5l-12 -10q-16 -18 -44 -49t-63 -66q-41 -43 -83 -91 t-75.5 -87t-54.5 -65l-22 -25h-2l-6 21q-7 20 -15 54t-19.5 77t-21.5 88q-10 41 -21.5 80.5t-21.5 72.5q-2 6 -2 15q-10 35 -23.5 59t-64.5 24q-59 0 -96 -28.5t-51 -71.5l-2 -10q-2 -13 -2 -28q0 -22 5 -48q9 -43 13 -57q2 -20 18.5 -84t35 -137.5t35.5 -142t26 -97.5 q-109 -137 -170.5 -214t-99.5 -123t-65.5 -75.5t-68.5 -74.5q2 2 -3 -3.5t-9 -11.5l2 2q-12 -14 -30.5 -33.5t-35 -41t-31 -41t-16.5 -31.5v-4z" />
<glyph unicode="Y" d="M354 1251q-4 -25 2 -54.5t31 -61.5l289 -502l-137 -500q-8 -23 -13 -49q-5 -27 -5 -49q0 -25 7 -45q11 -37 62 -37h10q43 4 71.5 18.5t47 37t30 50t19.5 58.5l143 512l621 506q41 41 59.5 68.5t22.5 47.5q6 31 -10.5 48.5t-38.5 31.5h-2q-18 12 -39 12q-29 0 -55.5 -14 t-55.5 -33q-12 -8 -23.5 -16t-31.5 -18l-488 -402l-241 354v-4q-31 68 -58.5 113t-60.5 45h-10q-47 -10 -91 -37.5t-55 -79.5z" />
<glyph unicode="Z" horiz-adv-x="1163" d="M47 49q-3 -12 -3 -23q0 -32 22 -54q28 -30 81 -29h11q80 4 192.5 7t226 4t216 2t161.5 1h64q53 0 93 46t56 106l-2 -5q8 16 9 23q2 9 2 16q0 29 -24 39q-30 14 -85 13q-51 0 -115 -7q-27 -2 -54.5 -4t-55.5 -4q-66 0 -119 -1t-104.5 -2t-102.5 -4t-110 -7l1069 1048 q37 37 43 74q2 11 2 20q0 26 -16 48q-22 28 -62 28h-10l-660 -38q-96 -2 -151.5 -9.5t-86 -23t-45 -43t-24.5 -70.5l-2 -6q-2 -10 -2 -18q-1 -28 21 -44q28 -20 83 -20q33 0 70 5t84 16h-2l430 32l-1041 -1015v2q-49 -49 -59 -103z" />
<glyph unicode="[" horiz-adv-x="827" d="M55 -164q-10 -61 5.5 -86.5t70.5 -25.5q37 0 102 12h-2l322 33q59 6 82.5 34.5t38.5 73.5v-2q4 14 8 35q10 51 -4 68.5t-53 17.5q-14 0 -32 -2l-36 -4q-6 0 -12 -1t-13 -1l-204 -21l397 1405l211 55q31 10 49.5 14.5t34.5 8.5q25 6 40 11t25.5 14.5t17.5 25t13 41.5l2 10 q10 53 -25.5 76t-101.5 23h-35q-16 0 -32 -4l-207 -48q-84 -20 -147.5 -67t-86.5 -117l-415 -1530q-4 -12 -6.5 -25.5t-6.5 -23.5z" />
<glyph unicode="\" horiz-adv-x="919" d="M446 1274q-2 -47 0.5 -134t7.5 -196.5t13 -230.5t20.5 -236t28.5 -214t37 -165q0 -20 4 -45.5t11 -51.5t18.5 -47.5t27.5 -31.5q18 -14 39 -20t39 -6q37 0 63.5 24.5t37.5 77.5q4 29 4 65q-1 40 -9 91q-16 100 -30.5 210.5t-24.5 219t-18 210t-13.5 182.5t-8.5 138t-3 78 q-2 16 -2 27v24q-2 37 -5 70t-12 57.5t-26.5 38.5t-48.5 14q-29 0 -68 -16q-41 -16 -57 -36.5t-20 -47.5q-4 -10 -5 -18v-17v-14z" />
<glyph unicode="]" horiz-adv-x="827" d="M96 -201q-10 -53 13.5 -73.5t68.5 -20.5q27 0 55.5 5t57.5 11q6 2 11 3.5t11 3.5h-2l160 22q10 2 20.5 3t20.5 3q39 6 68.5 13.5t51 19.5t37 33.5t27.5 58.5l475 1643l3 12q0 4 2 6t2 6q8 39 -8.5 69t-86.5 30q-20 0 -41.5 -3.5t-48.5 -7.5q-16 -6 -68.5 -13t-105.5 -13 q-41 -6 -74.5 -11.5t-50.5 -13.5l11 8q-78 -8 -113 -33.5t-51 -70.5l-2 -19q-12 -59 12 -79.5t84 -20.5q12 0 24.5 1t26.5 3h6l199 27l-399 -1411l-199 -45q-10 -2 -19.5 -3t-17.5 -3q-29 -4 -52.5 -10.5t-44 -18.5t-35.5 -34.5t-26 -61.5z" />
<glyph unicode="^" horiz-adv-x="819" d="M664 1087q-4 -23 10 -38t57 -29v2q10 -4 14 -4h9q23 0 47 14.5t65 54.5l213 181l88 -174q14 -47 44 -61.5t49 -14.5q12 0 20 4q45 16 62.5 32.5t27.5 47.5v8q6 25 -8 66l-129 254l-2 -5q-4 35 -26.5 59.5t-57.5 24.5q-41 0 -59.5 -16t-36.5 -39l4 4l-312 -264l-6 -6 q-27 -20 -43 -35.5t-26 -44.5z" />
<glyph unicode="_" horiz-adv-x="962" d="M-106 -190q-6 -35 8 -60.5t57 -25.5h938q43 0 72.5 31.5t36.5 68.5q8 35 -5.5 61.5t-54.5 26.5h-938q-45 0 -75.5 -33t-38.5 -69z" />
<glyph unicode="`" horiz-adv-x="1079" d="M610 1354l2 4v-6q6 -37 15.5 -63.5t24 -48t36 -42t49.5 -47.5q35 -29 58.5 -50.5t33.5 -37.5q27 -41 49.5 -51.5t28.5 -10.5h2q43 16 64.5 27.5t25.5 38.5q6 25 -10 72q-12 37 -30.5 79t-42 81.5t-50 73.5t-53.5 54q-33 23 -62.5 36.5t-52.5 13.5q-70 0 -84 -76 q-2 -10 -3 -22.5t-1 -24.5z" />
<glyph unicode="a" horiz-adv-x="978" d="M-10 59q-4 -16 -4 -30q0 -23 11 -41q17 -28 83 -33h8q47 0 88 47t86 115l162 235q16 2 30.5 3t28.5 3q68 6 110 9.5t69.5 4.5t45 2t35.5 1l9 -33q6 -25 10 -42t7 -32.5t4 -33t5 -41.5q6 -29 17.5 -70t25 -78t27.5 -63.5t26 -26.5h15q66 0 101.5 36t45.5 95q7 29 7 54 q0 10 -1 20q-6 49 -17 117.5t-28 146.5v-2q-2 16 -6 33.5t-8 33.5h-2q-23 131 -43 267.5t-27 247.5q2 15 2 29q1 47 -21 81q-28 44 -75 43q-35 0 -73.5 -26.5t-79.5 -88.5l-617 -868q-2 -2 -10 -16v2q-10 -18 -26.5 -45t-20.5 -56zM586 588l114 166q2 -41 6.5 -82t8.5 -78z " />
<glyph unicode="b" horiz-adv-x="1003" d="M82 61q-5 -25 -5 -46q0 -23 6 -39q11 -32 58 -33q76 0 171.5 16t196.5 48t201.5 78t185.5 106.5t145.5 134t84.5 157.5v4q4 8 4 13l3 10q5 25 5 49q0 55 -27 97q-38 60 -128 83q68 49 105.5 102.5t56.5 112.5l2 13q3 14 3 28q0 55 -45 97q-56 53 -192 53 q-115 0 -220 -20.5t-195 -43.5q-14 -4 -27.5 -6t-26.5 -6q-35 -10 -74.5 -40t-52.5 -89q-2 -8 -2 -25l-196 -725q-10 -33 -20.5 -65.5t-16.5 -63.5zM350 182l92 326q82 16 152 26.5t127 10.5q29 0 59.5 -1t56 -6.5t41 -14.5t13.5 -23v-2q-18 -59 -77.5 -110.5t-138.5 -92.5 t-165 -69.5t-160 -43.5zM504 729l33 119q147 72 317 72q12 0 24.5 2t16.5 6q-10 -35 -50 -66t-95.5 -57.5t-120 -46t-125.5 -29.5z" />
<glyph unicode="c" horiz-adv-x="940" d="M113 199q8 -80 41.5 -140.5t93 -94.5t145.5 -34q70 0 141.5 20.5t139 54.5t128 78t107.5 89v-8q10 14 20.5 27.5t18.5 23.5q4 2 5 4t3 4h-2q37 45 43 68q2 10 2 19q1 32 -21 48q-28 22 -69 21q-41 0 -90 -21.5t-92 -70.5q-16 -20 -46 -43t-64.5 -42.5t-72.5 -32.5 t-69 -13q-43 0 -68.5 18.5t-37 49t-11.5 71.5t9 86q4 10 6 22.5t6 24.5q27 94 74 186.5t108.5 164t132 116.5t142.5 45q78 0 90 -18q8 -10 15 -17.5t13 -15.5l21 -25q37 -43 57 -43q59 0 105.5 41t56.5 92q2 12 2 23q0 43 -31 78q-57 66 -129.5 89t-158.5 23 q-115 0 -230 -61.5t-215 -163.5t-178 -233t-117 -273q-4 -16 -7 -32.5t-7 -32.5q-12 -64 -12 -122q0 -25 2 -50z" />
<glyph unicode="d" horiz-adv-x="993" d="M94 94q-6 -28 -6 -51q0 -27 8 -48q14 -40 78 -40q47 0 129 17.5t180.5 55.5t206 98t203.5 146t173 199t118 256q4 10 6 20.5t4 24.5q9 46 9 90q0 28 -4 56q-9 70 -47 125t-104.5 87.5t-164.5 32.5q-117 0 -199 -21.5t-154 -43.5q-4 -2 -12 -4t-18 -4l-27 -9 q-68 -23 -105.5 -69.5t-48.5 -98.5q-6 -23 -6 -34l-192 -678q-2 -4 -4 -11.5t-2 -11.5l-4 -16q-4 -16 -8.5 -32.5t-8.5 -35.5zM362 217l183 653q53 27 121.5 47.5t142.5 20.5q47 0 76.5 -15.5t45 -41t18.5 -59.5q1 -11 1 -22q0 -23 -4 -46l-4 -19q-33 -115 -99.5 -202 t-148.5 -150.5t-170 -104t-162 -61.5z" />
<glyph unicode="e" horiz-adv-x="870" d="M88 84q-3 -20 -3 -37q1 -33 13 -56q20 -34 103 -34h12q4 0 7 1t7 1l527 39q49 0 80.5 10t50 26.5t28 36.5t13.5 40l4 12q3 15 3 28q-1 35 -21 53q-28 24 -95 23h-26l-437 -37l68 248l342 37q10 2 18.5 3t18.5 1q47 0 92 21.5t63 91.5l5 14q1 8 1 16q0 28 -16 53 q-22 32 -104 32h-23q-10 0 -22 -2l-310 -39l54 192l381 27h14q4 0 9 1t9 1q41 0 71 3t52.5 14t39 32.5t28.5 62.5l2 15q3 16 3 30q0 38 -26 52q-34 20 -94 20q-6 0 -13 -1t-13 -1h-25q-4 0 -8 -1t-8 -1h-15q-147 -10 -229 -14t-129 -4h-111q-37 0 -65.5 -13.5t-50 -34 t-34 -45t-16.5 -45.5q-4 -6 0 -10q-8 -18 -10 -39q-2 -10 -4 -19t-6 -20q-2 -12 -5 -25.5t-7 -27.5l-36 -148.5t-50 -187.5l-74 -280l-6 -19q0 -6 -9 -22q-4 -12 -9 -32t-9 -42z" />
<glyph unicode="f" horiz-adv-x="794" d="M74 72q-5 -25 -5 -45q0 -26 9 -42q16 -28 65 -28h21q10 0 18 2v2q37 4 60.5 14.5t39 29t28 45t26.5 67.5l94 321l358 54q55 4 86 12t48.5 21.5t25.5 33t19 47.5v6q0 2 2 4t2 5v6q4 4 4 8q6 29 -2 47t-25.5 29.5t-42 15.5t-51.5 4q-35 0 -62.5 -3t-50.5 -7q-4 -2 -8 -2h-6 l-233 -35l53 188l399 29q84 6 121 36t53 85l2 8q1 8 1 16q0 53 -25 74q-27 23 -92 23h-17q-4 0 -11 -1t-11 -1q-90 -8 -156 -13.5t-112 -10.5t-74.5 -8t-46.5 -5q-8 -2 -17 -2q-4 0 -10 -1t-10 -1q-10 0 -19 -2q-98 -10 -142 -36t-54 -85q-4 -16 -7.5 -32.5t-1.5 -33.5 q-10 -43 -20 -77.5t-18 -63.5q-10 -43 -18.5 -73.5t-18.5 -59.5q0 -4 -2 -9t-2 -10q-10 -27 -17.5 -53t-17.5 -65l-115 -371l-2 -8q-4 -14 -7 -26.5t-5 -22.5z" />
<glyph unicode="g" horiz-adv-x="1179" d="M108 196q7 -77 46 -136.5t111.5 -94.5t187.5 -35q156 0 301 60.5t264 159t202.5 221t118.5 247.5l2 15q2 13 2 24q0 35 -23 53q-30 23 -83 23q-27 0 -68 -14l-65 -21q-33 -10 -75 -22t-83 -23.5t-75.5 -20.5t-53.5 -11q-82 -10 -128 -57.5t-54 -94.5q-3 -13 -3 -25 q0 -22 10 -40q15 -29 58 -29h9q8 0 14 2q49 12 96 24.5t94 26.5q14 4 29.5 9t30.5 9q23 8 53 15q-41 -55 -94 -109.5t-117.5 -97.5t-141.5 -70.5t-163 -27.5q-49 0 -82 19.5t-49.5 51t-20.5 73.5q-1 11 -1 23q0 31 8 64q0 8 6 27q27 94 95.5 188t158.5 169t190 122t191 47 h18q37 -2 58.5 -8t31.5 -13.5t14.5 -15.5t6.5 -14q10 -25 23 -42.5t65 -17.5h18t21 2q41 2 69.5 31t38.5 74q4 14 4 29q0 16 -4 32q-16 70 -87 120t-198 50q-123 0 -270 -52t-283.5 -149.5t-244 -233.5t-152.5 -304l-2 -2q-4 -16 -8 -31.5t-8 -34.5q-11 -60 -11 -116 q0 -24 2 -48z" />
<glyph unicode="h" horiz-adv-x="1007" d="M74 80q-5 -24 -5 -43q0 -27 10 -42q17 -26 79 -40q2 0 5 -1t7 -1h8q43 0 80 35.5t55 107.5l103 363l430 12l-84 -309q-6 -18 -6 -29q-4 -19 -4 -36q0 -33 16 -59q24 -38 84 -38h10q37 2 62.5 16.5t42 37t27 49t16.5 51.5l8 43l231 837l2 4q4 12 7.5 24.5t5.5 27.5 q4 18 4 34q0 24 -10 40q-16 28 -78 28q-49 0 -79 -10.5t-47.5 -27.5t-27.5 -40.5t-18 -50.5l-99 -363l-432 -16l78 283h-2q4 8 7 18t5 21q3 15 3 30q0 24 -8 48q-13 38 -71 46h-16q-63 0 -98 -41.5t-51 -87.5q-2 -6 -4.5 -14t-4.5 -16v2q-4 -14 -9 -30.5t-9 -37.5 q-14 -47 -30.5 -104.5t-33 -118.5t-34 -122.5t-31.5 -113.5l-84 -319q-6 -20 -10 -47z" />
<glyph unicode="i" horiz-adv-x="364" d="M82 76q-4 -16 -4 -31q0 -27 12 -49q18 -33 78 -41h20q33 0 55.5 14.5t40 40t32 61t30.5 79.5l-6 -7l227 805q2 4 3 11.5t3 11.5q4 8 5 14q4 10 7 22.5t7 22.5q3 16 3 30q-1 24 -9 42q-14 28 -70 28q-49 0 -81 -9t-51 -29.5t-29.5 -50t-18.5 -68.5l2 2l-242 -848 q-6 -18 -14 -51z" />
<glyph unicode="j" horiz-adv-x="856" d="M28 78q9 -49 45 -89t98 -64.5t161 -24.5q98 0 186 31.5t159 87t121.5 127t75.5 151.5l187 657v7q4 16 8 29.5t8 29.5q4 20 4 37q0 26 -9 43q-15 30 -79 30q-43 0 -71.5 -15t-47 -38.5t-28.5 -51.5t-19 -52q0 -2 -1 -4t-1 -4l-2 -4l-186 -656q-10 -31 -34.5 -65.5 t-60.5 -65.5t-83 -51.5t-99 -20.5q-53 0 -67 9.5t-19 38.5q2 8 3.5 16t5.5 16q8 20 14 54q4 20 4 38q0 25 -8 46q-14 38 -82 38h-25q-16 0 -37.5 -7t-43 -23.5t-40 -45t-28.5 -73.5q-6 -16 -8 -31q-5 -27 -5 -53q0 -24 4 -47z" />
<glyph unicode="k" horiz-adv-x="903" d="M90 90q-7 -38 -7 -65q-1 -31 9 -45q18 -28 76 -29q25 0 49.5 6t47 23.5t38.5 46t27 73.5l2 13l90 317l270 -412q23 -39 43.5 -56t48.5 -17q6 0 12.5 1t16.5 5q106 39 119 100q4 20 -2 43t-17 49v7l-313 462l381 271q59 31 88 62.5t35 64.5q2 10 2 19q0 33 -22 55 q-28 28 -72 28q-29 0 -57.5 -11t-55.5 -36l4 2l-381 -274l58 184l4 22q6 31 8 56.5t-6 44t-29.5 29t-60.5 10.5q-55 -2 -98.5 -46t-59.5 -108l-244 -866z" />
<glyph unicode="l" horiz-adv-x="727" d="M78 20q0 -23 8 -42t23.5 -31.5t42.5 -12.5h6q2 0 5 1.5t5 1.5l467 61q72 12 111.5 45t46.5 68q2 4 2 16v2q3 14 3 27q0 32 -18 48q-26 24 -80 23q-39 0 -69 -6v-2l-281 -37l225 795q4 10 5.5 20.5t5.5 22.5q5 24 5 43q1 29 -11 46q-18 28 -76 28q-86 0 -118 -43t-48 -113 l-242 -858q-4 -10 -7 -20.5t-7 -32.5q-4 -25 -4 -50z" />
<glyph unicode="m" horiz-adv-x="1271" d="M94 113q-6 -35 -6 -61q0 -40 14 -58q24 -31 72 -39h12q29 0 52.5 16.5t42 41t31 51t18.5 47.5l119 421l2 -4v2q4 -16 8 -34.5t8 -34.5q10 -45 20.5 -88t18.5 -86v2q2 -14 4 -17v2q4 -27 7 -42t6 -29.5t10.5 -33.5t21.5 -54l2 12q14 -16 39 -28.5t55 -12.5q31 0 66 14.5 t67 51.5q27 31 39.5 46t24.5 35q4 4 4 5q0 2 2 6l12 16q13 16 33 41q14 18 39 47t55.5 63.5t66.5 75.5t73 84l-134 -465v-2q-4 -8 -6 -16t-4 -18q-4 -18 -4 -33q1 -26 11 -46q16 -32 75 -36h10q66 0 105 44t49 99l2 13l248 870q7 40 7 66v7q-1 28 -12.5 44t-32 24t-50.5 13 h-6q-14 0 -40 -15.5t-56.5 -42t-62.5 -59.5t-61 -70h3q-72 -86 -127.5 -154.5t-102.5 -121.5v2q-20 -23 -36.5 -44.5t-33.5 -39.5q-18 -23 -34.5 -40.5t-28.5 -33.5q-16 -20 -28.5 -35.5t-16.5 -21.5q-4 -4 -7 -8.5t-7 -8.5q-6 -8 -12.5 -14t-12.5 -12q-6 35 -14 74.5 t-17 78.5l-8 40t-8 38q-2 8 -2 17q0 8 -4 18q-14 59 -33.5 138t-42.5 149.5t-49.5 120t-54.5 49.5q-41 0 -79 -31t-55 -96z" />
<glyph unicode="n" horiz-adv-x="1069" d="M78 70q-4 -20 -4 -37q0 -80 100 -80h14q53 6 89 42t45 83q4 10 3 16t-1 12l149 537l4 -6q2 -4 3 -7t5 -7q6 -10 11.5 -22.5t11.5 -22.5q27 -53 52.5 -104.5t41.5 -100.5q10 -31 30.5 -77t45 -95t48.5 -96.5t40 -79.5l4 -7q6 -20 26.5 -39.5t92.5 -19.5q31 0 53.5 14.5 t38.5 34t28.5 43t18.5 41.5v4l250 895q2 6 4 13.5t4 13.5l2 16q5 25 5 44q0 29 -11 45q-18 26 -88 26q-39 0 -63.5 -12.5t-40 -31t-24.5 -41t-15 -42.5q0 -2 -2 -5t-2 -5v-2l-170 -607q-4 6 -7.5 12.5t-5.5 12.5q-41 86 -71.5 153.5t-55.5 118.5q-41 90 -64.5 140.5 t-35.5 80t-18.5 49t-12.5 50.5q-6 14 -14 33.5t-21.5 37t-33 28.5t-45.5 11q-29 0 -51.5 -5t-41 -21.5t-35 -47t-30.5 -79.5l-244 -864l-2 -2q-4 -10 -6 -19.5t-4 -21.5z" />
<glyph unicode="o" horiz-adv-x="1044" d="M123 375q-14 -73 -14 -134q0 -117 51 -195q78 -118 262 -118q119 0 240.5 53.5t228 145.5t188.5 216t121 263q4 23 10.5 46.5t10.5 45.5q17 87 17 168v10q-1 86 -32.5 150t-98.5 102.5t-177 38.5q-133 0 -262 -74.5t-237.5 -184t-185.5 -232.5t-104 -221q-4 -20 -9 -41 t-9 -39zM360 385q2 12 6.5 28.5t8.5 32.5q20 68 71.5 154t121 162t149.5 128t155 52q47 0 74 -20.5t39 -55.5q11 -32 11 -73v-7q-1 -45 -9 -94q-4 -20 -9 -39t-11 -39q-27 -92 -78 -175t-116.5 -146.5t-141.5 -100t-152 -36.5q-85 0 -113 62q-16 35 -15 84q-1 38 9 83z" />
<glyph unicode="p" horiz-adv-x="905" d="M84 74q-4 -20 -4 -37q0 -24 7 -44q13 -36 75 -36h10q68 4 109 47t51 88q0 8 -2 14l88 314q100 18 219 61t226.5 104.5t189 139.5t108.5 168l4 29q6 32 6 58t-6 46q-12 41 -40.5 65.5t-70.5 34t-89 9.5q-147 0 -248 -10.5t-170 -22.5l2 2q-4 -2 -8 -2t-11 -2q-6 0 -12 -2 t-12 -2q-4 -2 -9 -3t-9.5 -3.5t-8.5 -2.5v-4q-66 -27 -102.5 -65.5t-50.5 -79.5q-4 -16 -9.5 -31.5t-9.5 -32.5l-18 -67q-10 -35 -19.5 -66.5t-15.5 -54.5l-156 -557q-4 -12 -7 -25.5t-7 -29.5zM483 655l54 222q74 16 166.5 24t170.5 8q16 0 34 -1t18 -5v-2 q-12 -35 -57.5 -71.5t-109 -69.5t-136 -60.5t-140.5 -44.5z" />
<glyph unicode="q" horiz-adv-x="1077" d="M98 170q6 -74 38 -127t94.5 -83t158.5 -30q98 0 192.5 31t190.5 86q6 -6 13.5 -12t13.5 -12q2 -4 4 -5.5t4 -3.5l8 -10q16 -16 30.5 -34.5t28.5 -45.5q70 -35 111 -35q78 0 139 111l11 2q-2 2 -2 4t-3 4l2 1q1 1 1 3h-5q-16 35 -31.5 52.5t-31.5 33.5q-8 6 -18 17l-23 28 q-10 10 -21.5 23.5t-29.5 36.5q98 98 169.5 217t112.5 254q4 14 7.5 27.5t7.5 29.5q12 60 12 116q0 27 -3 54q-9 80 -44 138.5t-95.5 92t-144.5 33.5q-86 0 -178 -33.5t-181 -90t-171 -132t-149.5 -159.5t-116.5 -173.5t-72 -170.5q-6 -18 -9 -38t-7 -36q-14 -69 -14 -128 q0 -19 1 -36zM346 342q4 14 7 27.5t7 29.5q25 84 85.5 178.5t141.5 174t173 133t178 53.5q70 0 90 -62q12 -35 12 -76q0 -35 -8 -75q-4 -10 -5 -20.5t-5 -20.5q-25 -88 -68 -166t-100 -143q-16 16 -27.5 31.5t-21.5 29.5l-8 13q-4 4 -5 7t-6 7q-14 14 -29.5 19t-31.5 5 q-41 0 -82 -34.5t-49 -79.5q-4 -20 1 -42t21 -44q20 -14 54 -66q-53 -31 -109.5 -48t-114.5 -17q-78 0 -96 54q-10 30 -10 68q0 30 6 64z" />
<glyph unicode="r" horiz-adv-x="921" d="M86 80q-7 -32 -7 -55q0 -25 8 -41q15 -30 75 -29h4q43 0 70.5 12.5t45 34t27.5 49t21 55.5l71 256l304 -350q23 -29 56.5 -44t63.5 -15q51 0 94.5 37t63.5 102l-16 2q-6 25 -21.5 45.5t-38.5 36.5l-286 318q80 25 159.5 60.5t146 82.5t116 105.5t71.5 129.5h2q4 8 5 19.5 t5 23.5q6 29 6 55q0 162 -237 163q-147 0 -241.5 -5.5t-159.5 -15.5q-72 -12 -112 -63.5t-56 -120.5q-2 -8 -4.5 -15.5l-4.5 -13.5l-4 -20q-12 -51 -24.5 -105.5t-22.5 -101.5v2l-172 -553q0 -6 -2 -12.5t-4 -10.5zM487 666l64 229q39 8 90 13t102 5q43 0 91 -6 q45 -6 45 -16l-2 -2q-10 -35 -50.5 -69t-96.5 -64.5t-120.5 -54t-122.5 -35.5z" />
<glyph unicode="s" horiz-adv-x="1034" d="M74 106q10 -48 43 -87t90 -64t141 -25q100 0 224 34t240 102.5t210 175t135 252.5v4q4 12 6 16l2 12q6 30 6 56q0 39 -13 68q-21 48 -60 75t-84 36t-78 9q-92 0 -179 -21.5t-157 -43.5q-2 0 -7 -1.5t-7 -1.5q-37 -10 -67 -19t-46 -9q-23 0 -20 20v4q8 31 40.5 72t84 78 t117 62.5t143.5 25.5q31 0 46 -7t23 -14h4q8 -6 14.5 -11t12.5 -13l4 -6q16 -16 33.5 -24.5t64.5 -8.5q25 0 48.5 12.5t41 29.5t28.5 36.5t16 34.5v8q2 12 2 23q0 28 -14 52q-20 34 -58.5 61.5t-93 41.5t-115.5 14q-106 0 -217 -40t-206 -107.5t-168 -156.5t-101 -185 l-4 -27q-6 -32 -6 -58q0 -27 7 -49q13 -42 42.5 -66.5t70.5 -34t84 -9.5q53 0 104.5 11.5t106.5 27.5q4 2 9.5 4t9.5 4l-2 -2q68 18 133 34.5t116 16.5q18 0 31 -7t8 -27q-4 -8 -4 -11l-2 -4q-23 -86 -85 -145.5t-135 -97t-142.5 -54t-108.5 -16.5q-63 0 -80.5 20.5 t-23.5 38.5q0 6 -2 11q-10 41 -27.5 72.5t-64.5 31.5q-70 0 -109 -36t-51 -85l-4 -16q-5 -24 -5 -48.5t5 -48.5z" />
<glyph unicode="t" horiz-adv-x="817" d="M238 915q-3 -13 -3 -24q1 -29 19 -47q26 -26 92 -27h27q16 0 28 2l140 29l-207 -737q0 -4 -2 -8.5t-2 -8.5l-2 -12q-2 -6 -6 -14l-3 -15q-3 -13 -3 -25q0 -24 10 -44q16 -30 82 -29q39 0 64.5 7t41.5 24.5t28.5 45t24.5 68.5l221 791l207 39q49 12 82 23.5t53.5 24.5 t32 30.5t17.5 42.5l2 12q3 15 3 28q1 31 -17 51q-24 26 -74 27h-19q-8 0 -16 -2q-57 -10 -104.5 -18t-93.5 -17.5t-97 -18.5t-117 -21q-10 -2 -16 -3.5t-15 -3.5l-198 -38l-2 -3v3q-29 -8 -55.5 -16.5t-51 -21t-43 -32t-26.5 -47.5z" />
<glyph unicode="u" horiz-adv-x="1001" d="M113 79q10 -46 46 -80t97 -52.5t152 -18.5q111 0 214 32t186 84t138.5 118.5t73.5 134.5l190 672q4 10 9.5 23.5t9.5 27.5q4 20 3 39.5t-10.5 35t-30 25.5t-52.5 10q-45 0 -73 -13t-45 -34.5t-25.5 -50t-14.5 -57.5l-207 -676q-8 -25 -36.5 -50.5t-74 -46t-103.5 -33.5 t-124 -13q-35 0 -59.5 10t-20.5 33v2l228 803q2 16 3 37.5t-7.5 42t-28 33.5t-57.5 13q-37 0 -61.5 -10t-40 -25.5t-26 -37t-18.5 -41.5q0 -6 -4 -10v-2l-223 -795q-2 -4 -3 -8t-3 -8l-2 -13q-5 -28 -5 -53t5 -48z" />
<glyph unicode="v" horiz-adv-x="851" d="M217 100q2 -64 23 -106q16 -23 32.5 -36t42.5 -13q35 0 71 27.5t77 86.5q10 18 32.5 52t52.5 75t63.5 86t66.5 90q16 20 29.5 40t27.5 38q10 16 20.5 29.5t20.5 28t13.5 17.5t17.5 26h2q23 31 36 47t25.5 31.5t27.5 32t40 46.5l4 4q0 2 4 9q10 12 27.5 30.5t32.5 34.5 q37 39 51 55.5t22 26.5l8 8q4 4 7.5 8.5t9.5 10.5l55 88l4 18q3 15 3 28q0 31 -16 52q-24 29 -69 29q-31 0 -67.5 -17.5t-71.5 -52.5q-25 -23 -45 -47.5t-45 -58.5h2l-9 -13.5t-11 -13.5q-35 -43 -55.5 -69.5t-35.5 -47.5v2q-4 -4 -4 -6l-4 -4q4 4 -7 -12.5t-26 -38.5 q-10 -14 -28.5 -40t-43 -56.5t-52 -64.5t-54.5 -64q-12 -16 -24.5 -30.5t-22.5 -27.5q0 29 1 58.5t1 54.5t1 41t1 18q2 53 3 76t3 39v4q4 18 5 39q0 20 2 61v-2q0 10 1 23.5t-1 28.5v28t4 39q0 16 2 25q0 20 2 26v7q0 54 -31 81q-33 29 -76 29t-85 -26.5t-52 -79.5v4 q-4 -12 -8 -37q-6 -31 -13.5 -69t-5.5 -56q0 -8 -1 -14.5t-1 -14.5q-2 -29 -1 -55.5t-1 -52.5q-2 -12 -2 -27v-24q-2 -53 -2 -97v-69q-2 -16 0 -29l-2 -31v-16v-19q0 -8 -2 -18v-31v-28q0 -12 -2 -25v-16q-4 -16 0 -25l2 2v-18l-2 2q-1 -40 -1 -76t1 -68z" />
<glyph unicode="w" horiz-adv-x="1249" d="M154 102q-2 -25 -2 -46q0 -52 11 -72q15 -30 62 -29h8q4 0 5.5 1t5.5 1q25 2 42 5t34.5 16.5t40 40t59.5 75.5q4 6 32.5 48t71.5 105.5t94.5 139.5t98.5 148q0 -74 4 -150t8 -141.5t9 -113.5t10 -64q20 -82 40.5 -102.5t49.5 -20.5h18q35 0 76 26.5t86 108.5 q10 18 26.5 45l38.5 63q16 29 35 59.5t41 65.5q53 90 115.5 194.5t121 206t106.5 188.5t73 144l-4 9q2 0 2 4q4 16 2 35.5t-12.5 35t-32 25.5t-55.5 10q-55 0 -92 -44t-70 -97q-10 -14 -43 -67.5t-79 -131.5t-103.5 -175t-114.5 -199q-2 33 -2 67v72q0 51 -1 101t-1 93 t-1 73t-1 42l-41 -14q16 -53 28 -54q4 0 9 19q4 12 4 29q0 18 2 36l-2 -2v9v24v-2q0 23 -2 49.5t-7.5 48t-17.5 36t-33 14.5q-35 0 -55.5 -3.5t-39.5 -19.5t-43 -54t-64 -106q-8 -12 -37 -57t-70 -111q-10 -16 -20.5 -32.5t-20.5 -34.5q-29 -47 -60.5 -96.5t-62.5 -96.5 q10 121 19.5 238t19.5 203l2 6v14q0 35 10 92q-16 63 -39.5 80.5t-66.5 17.5q-76 0 -106.5 -34.5t-43.5 -96.5q-31 -156 -41 -302t-14 -255v-32t-2 -35q0 -6 -1 -13.5t-1 -11.5q0 -18 -1 -35.5t-3 -33.5q-4 -16 -3 -33t-3 -33q0 -14 -2 -26.5t-2 -24.5q-6 -25 4 -62h-6z" />
<glyph unicode="x" horiz-adv-x="786" d="M-14 35q23 -84 98 -84q31 0 67.5 15.5t67.5 47.5q31 37 53.5 61.5t47 54.5t59.5 72t92 113q14 -61 23.5 -97t16.5 -61.5t15.5 -47t22.5 -52.5q6 -39 35.5 -66.5t77.5 -27.5q29 0 67.5 16.5t79.5 57.5l-12 63v2q0 2 1 3.5t1 3.5q4 23 0 35t-11 22l-1 1t-1 3 q-20 41 -31.5 68.5t-20.5 65.5t-20.5 98.5t-29.5 168.5q84 88 132 137.5t80 81t56.5 55t63.5 58.5q23 25 46 61.5t30 71.5q8 35 -4.5 60.5t-51.5 38.5q-6 2 -14 2h-16q-43 0 -72 -20.5t-64 -53.5l-10 -8q-25 -25 -41 -42.5t-38.5 -44t-61.5 -68.5t-105 -114q-2 2 -2 7 l-37 147q-8 33 -16 66.5t-16 58.5h-2q-2 2 0 8q-10 33 -23.5 57.5t-64.5 24.5q-59 0 -95 -29.5t-51 -72.5l-2 -13q-6 -29 0 -61.5t10 -48.5q0 -6 2 -18.5t10.5 -48.5t26 -105.5t47.5 -188.5q-84 -109 -131 -169t-76.5 -96t-50 -58.5t-49.5 -55.5l-10 -10 q-12 -12 -27.5 -29.5t-30 -37t-25.5 -37t-13 -29.5z" />
<glyph unicode="y" horiz-adv-x="1001" d="M262 1022q-2 -9 -2 -19q0 -37 31 -90l225 -393l-104 -383q-4 -10 -6.5 -22.5t-6.5 -26.5q-4 -25 -4 -47q0 -26 7 -46q12 -36 67 -36h12q41 2 69 16.5t46 35t28.5 46t16.5 54.5l113 401l489 399q39 35 56.5 62.5t21.5 48.5q6 35 -5 50t-30 26l2 -2q-4 2 -10 8 q-16 6 -28.5 10t-22.5 4q-27 0 -50.5 -12t-52.5 -29q-25 -16 -47 -28l-366 -304l-201 291q-23 45 -43.5 74t-48.5 29h-15q-45 -10 -88 -37t-53 -80zM1278 1104q2 -2 6 -2l-2 1t-4 1z" />
<glyph unicode="z" horiz-adv-x="929" d="M16 59q-3 -13 -3 -25q1 -32 21 -54q28 -30 81 -29h10q63 2 153.5 4t181.5 4t173 2h129h51q53 0 92 43t58 98l-5 -4q9 17 9 23q3 11 3 20q0 27 -22 41q-30 18 -86 19q-14 0 -28.5 -1t-30.5 -3q-12 -2 -23 -2h-20l-80 -7h2q-90 0 -154.5 -1t-138.5 -5l813 795q33 39 41 74 q2 10 2 20q1 29 -17 51q-24 30 -69 31h-8l-528 -31q-84 -4 -133.5 -12t-77 -23.5t-40 -41t-22.5 -64.5v-4q-3 -13 -3 -23q1 -30 21 -46q28 -22 85 -23q55 0 133 16l274 23l-786 -768q-49 -49 -58 -97z" />
<glyph unicode="{" horiz-adv-x="1015" d="M256 715q-8 -41 11.5 -72t76.5 -31q94 0 119.5 -26.5t13.5 -89.5q-4 -12 -7 -25.5t-7 -30.5l-2 -12q-20 -68 -42 -131.5t-42 -122.5q-16 -45 -29.5 -84t-23.5 -67l-2 -9q-4 -16 -8.5 -30.5t-6.5 -30.5q-23 -117 15 -179.5t155 -62.5q35 0 75 6.5t87 16.5l7 2t11 4v-2 q20 6 44 12t45.5 19.5t40 34t28.5 53.5l4 12q6 37 -10 67.5t-57 30.5q-23 0 -50 -12q-59 -27 -94 -27q-31 0 -43 19.5t-6 52.5l2 10q0 4 2 5t2 5q8 27 18.5 55.5t20.5 63.5q18 55 42 124t48 161q4 16 7.5 32.5t7.5 32.5q14 66 6 120.5t-45 107.5q57 37 97 84t69.5 107.5 t54 133t49.5 160.5q12 41 28.5 87t40 85t54.5 64.5t72 25.5h39q35 0 65.5 15.5t50.5 81.5l4 18q10 59 -12 75.5t-65 16.5q-96 0 -178.5 -40t-148 -106.5t-112.5 -149.5t-71 -169l-17 -61q-18 -70 -35.5 -123t-44 -89t-67.5 -54.5t-107 -18.5q-35 0 -65.5 -13t-55 -33.5 t-40 -47.5t-19.5 -51z" />
<glyph unicode="|" horiz-adv-x="456" d="M41 -201q-6 -35 2 -57.5t25.5 -35.5t40 -18t41.5 -5q45 0 88 53t71 160h-2l414 1415q4 12 9 30.5t11 38.5q8 27 16.5 56.5t14.5 58.5q10 53 1 91t-60 38h-6q-2 0 -5.5 -1t-7.5 -1q-49 -10 -78.5 -26.5t-48 -42t-31 -65.5t-28.5 -99q-4 -10 -7 -22.5t-7 -27.5l-439 -1499 v4q-4 -12 -8 -23t-6 -22z" />
<glyph unicode="}" horiz-adv-x="1015" d="M84 -176q-12 -66 20.5 -88.5t73.5 -22.5q74 0 148.5 36t140 95.5t115 134t71.5 154.5l56 203q6 25 22.5 64.5t44 77.5t69.5 65.5t101 27.5q72 0 117 40t55 83q8 37 -14.5 65.5t-81.5 28.5h2l-47 7q-13 6 -25 10t-22 9t-16.5 17.5t-6.5 34.5q0 25 8 68q16 92 51 199.5 t83 218.5v-2q16 37 22 75q10 49 4 96.5t-30.5 84t-67.5 58.5t-109 22q-57 0 -99 -3.5t-95 -15.5q-47 -10 -77 -44t-38 -73t11.5 -69.5t78.5 -30.5l23 2q24 2 39 4q33 6 61 6q10 0 31 -4q23 -4 28 -16t0 -27q0 -8 -8 -29q-51 -123 -89 -244.5t-60 -221.5q-31 -156 33 -232 q-94 -55 -148.5 -145t-85.5 -203l-55 -203q-6 -23 -16.5 -50.5t-26 -52t-38 -42t-52.5 -19.5q-82 -8 -132.5 -48t-64.5 -87z" />
<glyph unicode="~" horiz-adv-x="1007" d="M414 1112q-8 -37 17.5 -65.5t72.5 -28.5q33 0 61.5 20.5t57.5 48.5h-2q25 23 48 40.5t42 17.5q14 0 34 -39q20 -35 55.5 -68.5t112.5 -33.5q63 0 116.5 12t96.5 44t77 86t57 136v6q6 31 -22 56.5t-69 25.5q-29 0 -57.5 -14.5t-50.5 -48.5l-17 -33q-10 -25 -24 -52.5 t-41 -27.5q-23 0 -36 18.5t-23 40.5q-10 18 -20.5 36t-27 32t-39 23.5t-55.5 9.5q-43 0 -101.5 -20.5t-113.5 -53.5t-97 -75t-52 -85v-8z" />
<glyph unicode="&#xa1;" horiz-adv-x="454" d="M8 -322q0 -29 8.5 -50t26.5 -33.5t51 -12.5q43 0 73 15.5t50.5 40t30.5 54t16 56.5q2 4 1 9t1 10l2 14l205 725v-2q20 47 30.5 94t-5 75.5t-66.5 28.5q-78 0 -121.5 -52t-66.5 -134l-211 -711q-4 -16 -9.5 -32.5t-9.5 -34.5q-6 -31 -6 -60zM324 860q-10 -53 12 -85 t88 -32q35 0 68.5 14.5t62.5 40t50.5 59.5t33.5 75l4 16q8 43 -11.5 80t-80.5 37q-84 0 -136 -36.5t-87 -147.5z" />
<glyph unicode="&#xa2;" horiz-adv-x="985" d="M197 373.5q14 -64.5 51 -107.5t91 -65.5t120 -22.5h4l-27 -119v4q-8 -20 -12 -37.5t-8 -31.5q-10 -59 11.5 -70.5t72.5 -11.5h6q35 0 56.5 7t33.5 22.5t19.5 36t15.5 49.5q2 18 12 43l43 155q51 14 104.5 40t102.5 54.5t92 57.5t74 51q41 35 67.5 76t32.5 76q6 33 -5 53 t-44 20h4q-8 2 -12 2h-21q-29 0 -79 -14t-107 -63q-14 -18 -52 -50t-85 -57l131 471q16 6 24.5 7t30.5 1q14 0 39 -6t49 -12q16 -4 28.5 -8t24.5 -4q10 -2 21 -2h20q61 0 89 26.5t42 67.5l3 30l2 9q6 37 -3.5 60.5t-31 36.5t-54 18t-69.5 5q-61 0 -95 -1t-55 -3l17 66 q2 4 2 10t4 14q4 10 8 24.5t8 31.5q6 39 -5 69.5t-64 30.5q-41 0 -65.5 -8t-40 -22.5t-24 -37t-16.5 -49.5q-4 -10 -10 -32l-6 -21l-37 -139q-197 -68 -327 -201t-189 -338q-4 -10 -6 -20t-4 -23q-16 -84 -2 -148.5zM442 559l2 10q0 2 5 11q29 98 76.5 160.5t125.5 107.5 l-125 -447q-47 0 -71.5 45t-12.5 113z" />
<glyph unicode="&#xa3;" horiz-adv-x="1185" d="M127 549q-10 -47 9.5 -84t74.5 -37q12 0 32.5 5t49.5 18h113q-12 -29 -25.5 -59t-24.5 -58q-20 -43 -37.5 -87t-35.5 -89q-8 -23 -15.5 -45.5t-11.5 -44.5q-8 -47 7.5 -76t74.5 -29h10q51 4 83 30.5t52 65.5q29 -16 66 -33.5t78 -33t84 -26.5t82 -15q14 -2 26 -2h27 q100 0 174 34.5t124 87t77.5 114t38.5 112.5q10 57 0.5 93t-33.5 36h-4q-29 -2 -51.5 -8t-41 -22.5t-32 -45t-25.5 -76.5q-8 -37 -31.5 -58t-58.5 -32.5t-77 -13.5t-85 -2q-57 0 -109.5 21.5t-99.5 46.5q-16 8 -33.5 16t-33.5 16q14 29 25.5 55.5t23.5 55.5q6 18 12 35.5 t17 36.5h274q18 -8 28.5 -10.5t18.5 -2.5h6q35 0 64.5 13.5t52.5 35t38 47t21 52.5q8 45 -14.5 79.5t-83.5 34.5q-33 0 -43 -2t-27 -16h-249q12 39 22 81t21 93h254q16 -10 30.5 -12t30.5 -2q66 0 102.5 32.5t55.5 92.5l2 16q10 47 -8.5 86t-71.5 39q-33 0 -43 -3t-37 -18 h-281l2 11q4 35 8.5 70.5t8.5 76.5l2 6q14 70 -6.5 110t-71.5 40h-10q-35 0 -57.5 -12.5t-39 -34t-28.5 -51t-27 -66.5l-2 -10q4 -39 3 -73t-3 -67h-102q-16 12 -35.5 14.5t-28.5 2.5q-66 0 -107.5 -46t-51.5 -100q-10 -47 9 -84.5t73 -37.5q20 0 40.5 5t36.5 15h138 q-10 -45 -21.5 -88t-23.5 -86h-142q-14 10 -31.5 12t-33.5 2q-33 0 -59.5 -13t-46 -33.5t-33 -47.5t-19.5 -53z" />
<glyph unicode="&#xa4;" horiz-adv-x="1226" d="M68 471q-10 -47 8 -84t74 -37q23 0 67 17q-10 -96 5.5 -178.5t56 -141.5t107.5 -94t159 -35q94 0 193.5 32t189.5 83t165.5 112.5t125.5 122.5v-2q20 23 28 40.5t13 33.5q8 37 -15.5 57.5t-64.5 20.5q-43 0 -99.5 -25.5t-103.5 -79.5q-20 -27 -60 -57.5t-89.5 -56 t-100.5 -43t-94 -17.5q-104 0 -141 67.5t-31 166.5h375q18 -8 28 -10.5t19 -2.5h6q35 0 64.5 13.5t53 35t39 47t19.5 52.5q10 45 -12.5 80t-83.5 35q-33 0 -43.5 -2.5t-28.5 -16.5h-381q16 45 35.5 88t44.5 86h350q16 -10 30.5 -12t31.5 -2q66 0 102.5 32.5t52.5 92.5l4 16 q10 47 -8 86t-72 39q-33 0 -43 -3t-36 -17h-240q78 78 161 124t169 46q59 0 89 -7.5t40 -21.5q16 -18 30.5 -33.5t24.5 -30.5q45 -55 61 -55q59 0 106.5 41t57.5 94q4 29 -2 55.5t-26 49.5q-68 76 -154 103.5t-190 27.5q-84 0 -169 -30t-166 -82t-157 -123.5t-143 -157.5 h-97q-18 12 -37.5 14t-27.5 2q-33 0 -60.5 -13.5t-47 -34t-33 -46t-17.5 -51.5q-10 -47 9.5 -85t72.5 -38q20 0 41 5t37 15h12q-47 -88 -73 -168q-12 6 -26.5 7t-27.5 1q-33 0 -59.5 -13t-46 -33.5t-32.5 -47t-19 -53.5z" />
<glyph unicode="&#xa5;" d="M207 246q-10 -47 9.5 -84t74.5 -37q12 0 32.5 5t49.5 17h168l-2 -14q-8 -23 -13 -49q-10 -57 1.5 -94t62.5 -37h10q43 4 71.5 18.5t47 37t30 50t19.5 58.5l8 30h201q18 -8 28.5 -10t18.5 -2h6q35 0 64.5 13.5t52 35t38 47t21.5 52.5q8 45 -13.5 79.5t-82.5 34.5 q-33 0 -43 -2t-29 -16h-196l47 174h196q16 -10 30.5 -12t31.5 -2q66 0 103.5 32.5t54.5 92.5l4 16q10 47 -9.5 86t-72.5 39q-33 0 -43 -3t-37 -18h-47l432 351q41 41 59.5 68.5t22.5 47.5q6 31 -10.5 48.5t-38.5 31.5h-2q-18 12 -39 12q-29 0 -55.5 -14t-55.5 -33 q-12 -8 -23.5 -16t-31.5 -18l-488 -402l-241 354v-4q-31 68 -58.5 113t-60.5 45h-10q-47 -10 -91 -37.5t-55 -79.5q-4 -25 2 -54.5t31 -61.5l201 -351h-45q-16 12 -36 14.5t-28 2.5q-66 0 -107.5 -46t-52.5 -100q-10 -47 10.5 -85t73.5 -38q20 0 40 5.5t36 15.5h174 l-47 -174h-176q-14 10 -31.5 12t-33.5 2q-33 0 -59.5 -13t-46 -33.5t-33 -47.5t-19.5 -53z" />
<glyph unicode="&#xa6;" horiz-adv-x="456" d="M37 -240q-6 -35 3 -57t25.5 -35.5t39 -18.5t40.5 -5q45 0 88 53t72 160h-2l111 374q4 12 9 31t11 39q8 27 16.5 56.5t12.5 58.5q10 53 2 91t-59 38h-7q-2 0 -5 -1t-7 -1q-49 -10 -78.5 -26.5t-48 -42t-32 -65.5t-29.5 -100q-6 -23 -13 -49l-135 -459l2 4q-6 -12 -9 -23 t-7 -22zM346 840q-6 -35 2 -57.5t25.5 -36t40 -18.5t41.5 -5q45 0 88 53t71 160l-2 -2l109 377q4 12 9 30.5t11 38.5q8 27 16.5 56.5t14.5 58.5q10 53 1 91t-60 38h-6q-2 0 -5.5 -1t-7.5 -1q-49 -10 -78.5 -26.5t-48 -42t-31 -65.5t-28.5 -99q-4 -10 -7 -22.5t-7 -27.5 l-134 -458v4q-10 -23 -14 -45z" />
<glyph unicode="&#xa7;" horiz-adv-x="856" d="M203 856q-4 -18 2 -39.5t17 -39t25.5 -29t28.5 -11.5h21q29 8 64.5 17.5t71.5 16.5t69 13.5t55 10.5l-2 -15q-4 -14 -6 -27.5t-6 -25.5l-6 -35q-18 -94 3 -135t87 -41q29 0 53.5 11.5t43.5 26.5t30.5 33.5t15.5 35.5q-4 35 -3 52t5 40q2 12 7 34.5t12 47.5h141 q20 0 39.5 11t35 28.5t24.5 37t13 35.5q6 37 -5 57.5t-35.5 31t-57.5 13.5t-67 3l-11 4q25 59 61 139t75 154l26 45q-6 12 -17.5 29.5t-24.5 35t-30.5 29.5t-35.5 12q-33 -14 -97.5 -56t-142.5 -100.5t-161 -126t-151.5 -131t-115.5 -114.5t-51 -78zM483 961 q74 68 122 105.5t83 61.5q8 4 13.5 9.5t11.5 9.5h2q-26 -59 -51 -143q-47 -4 -91.5 -16.5t-89.5 -26.5z" />
<glyph unicode="&#xa8;" horiz-adv-x="917" d="M399 1171q-4 -25 1.5 -52t20.5 -49.5t37.5 -37t53.5 -14.5q39 0 71.5 16.5t56.5 40t40 52t22 53.5l3 14q4 8 6 14q4 20 4 43q0 25 -9.5 44.5t-29 31.5t-53.5 12q-39 0 -76 -15t-66.5 -38.5t-50 -51.5t-29.5 -54zM791 1122.5q6 -26.5 21 -48t36.5 -35t50.5 -13.5 q39 0 72 15.5t57.5 40t40 53t23.5 53.5q4 6 5 15t3 20q4 23 4 45q0 23 -9.5 40t-28.5 28.5t-54 11.5q-39 0 -76 -15.5t-66.5 -39t-50 -52.5t-26.5 -55l-2 -10q-6 -27 0 -53.5z" />
<glyph unicode="&#xa9;" horiz-adv-x="1499" d="M186 449q-55 -285 48.5 -447t349.5 -162q166 0 333.5 75t313 203t258.5 298.5t168 365.5q10 33 17 65t16 66q25 125 21.5 240t-44.5 203t-130 140t-237 52q-121 0 -241.5 -48t-233 -128t-213 -183.5t-181.5 -214t-138 -219t-82 -200.5q-10 -29 -15.5 -53.5t-9.5 -52.5z M391 438q4 23 9.5 44.5t11.5 45.5l2 7q23 76 70.5 168t114.5 185t147.5 181t169 156.5t179.5 109.5t179 41t139 -35.5t74.5 -96t22.5 -139.5t-17 -163q-12 -67 -35 -143q-43 -158 -131 -300.5t-201.5 -250t-245.5 -171t-264 -63.5q-160 0 -212 116t-13 308zM489 409.5 q5 -53.5 30.5 -95.5t72.5 -66.5t121 -24.5q96 0 172 19.5t132 49.5t94 61.5t63 56.5l-3 -2l80 73q51 63 62 113q8 35 -11.5 54.5t-68.5 19.5q-33 0 -56.5 -9.5t-40 -22.5t-26.5 -27.5t-16 -24.5q-2 -2 -2 -4l-5 -5q-16 -23 -47.5 -50t-74.5 -50.5t-92.5 -40t-98.5 -16.5 q-47 0 -61.5 38t-3.5 79l2 10q18 74 60 142.5t93 120.5t107.5 84t103.5 32q51 0 86 -9.5t45 -29.5q16 -12 36 -16.5t38 -4.5q45 0 79 23.5t42 62.5q10 51 -43 101q-47 47 -102.5 57t-133.5 10q-94 0 -192.5 -47t-184.5 -127t-151.5 -183.5t-93.5 -213.5l-6 -27 q-10 -57 -5 -110.5z" />
<glyph unicode="&#xaa;" horiz-adv-x="759" d="M100 514q-6 -31 23 -57.5t92 -26.5q4 0 21 -4q10 -2 22 -3t27 -1q29 0 47 10l268 2l141 2q55 0 91 23.5t42 52.5q4 31 -27.5 56.5t-109.5 25.5q-8 0 -13 1t-13 1q-10 2 -23 2h-20q-23 0 -47 -6h-279q-6 2 -27 2q-12 0 -28.5 -1t-28.5 -3q-10 -2 -16 -2h-9 q-61 0 -95 -22.5t-38 -51.5zM219 872q-6 -31 1 -66.5t25.5 -66t46 -50t62.5 -19.5q88 0 177.5 30.5t152.5 55.5q4 2 16 6l-2 -14q-6 -29 6.5 -44.5t63.5 -15.5q53 0 82 28.5t39 88.5l115 428l4 16q10 51 0.5 84t-28.5 51.5t-48 25.5t-60 7q-88 0 -193.5 -21.5t-199.5 -76.5 l2 2l-12 -6q-20 -10 -44 -23.5t-36 -54.5l-2 -10q-6 -35 8.5 -46.5t40.5 -11.5q33 0 71 15.5t48 19.5l-2 -2q25 6 46.5 13.5t43.5 13.5q41 14 81 24.5t77 10.5q8 0 19 -1t11 -12l-18 -63q-111 -6 -207 -25.5t-172 -55.5t-130 -88t-79 -124q0 -4 -2 -8t-2 -6zM383 841.5 q-4 8.5 2 43.5v4q8 27 46 51.5t94.5 45t123 34.5t129.5 24l-12 -92q-4 -4 -40 -24.5t-85 -44t-103.5 -42t-97.5 -18.5q-14 0 -22 2h2q-33 8 -37 16.5z" />
<glyph unicode="&#xab;" horiz-adv-x="940" d="M188 700q-8 -41 5.5 -56t33.5 -30l-2 4l213 -260l4 -6q16 -23 29.5 -36t40.5 -17h20q23 0 42.5 16.5t41.5 63.5h-2q8 16 9 22q4 23 -5.5 45.5t-44.5 55.5v-2l-147 180l197 121q51 23 72.5 55.5t25.5 50.5q4 10 -2 21q-8 41 -21.5 55t-42.5 18h-8q-31 0 -72 -22l-286 -178 h2q-37 -12 -65.5 -39t-37.5 -62zM565 666q-8 -41 5.5 -56.5t33.5 -29.5l-4 4l215 -260l4 -7q16 -23 29.5 -36t40.5 -17h20q23 0 42.5 16.5t41.5 63.5h-2q4 10 5 14t3 9q4 23 -6 45t-45 55l-147 178l198 121q51 23 73 55.5t26 50.5q0 4 1 9.5t-3 11.5q-8 41 -21.5 55.5 t-42.5 18.5h-8q-31 0 -72 -23l-286 -178q-37 -14 -65 -40t-36 -60z" />
<glyph unicode="&#xac;" horiz-adv-x="1943" d="M27 88q-4 -25 1 -43t21 -37q2 -4 5 -6t12 -12q10 -10 20 -17.5t20 -17.5q10 -8 23.5 -15.5t36.5 -7.5q10 0 22.5 2.5t30.5 8.5l-4 -2q63 12 133 25.5t135 25.5q14 4 23.5 6t15.5 6q4 -10 10.5 -15t14.5 -12q4 -2 10 -8l27 -14q8 -4 16 -7t14 -7q23 -8 35 -9q29 0 51 35 q4 8 10.5 15.5t10.5 15.5q16 23 31.5 46.5t35.5 51.5q53 14 117 22.5t125 16.5h8q-2 -10 -3 -18t-1 -19q0 -47 -6 -84q2 -35 12.5 -48t38.5 -23l-2 2q27 -10 49.5 -12.5t51.5 -2.5q37 0 51 11.5t18 42.5q4 20 5 39.5t5 42.5q2 -6 6.5 -12.5t8.5 -16.5q4 -6 10 -12 q23 -25 43.5 -40.5t52.5 -29.5l-2 2q16 -12 30.5 -18.5t33.5 -6.5q14 0 28.5 3.5t34.5 7.5q37 8 80 22.5t87 32.5t85 40.5t72 47.5q35 27 59.5 54.5t32.5 66.5q2 10 2 16v17v-2q2 33 -12.5 63.5t-38.5 52.5q20 12 39.5 24.5t36.5 24.5q43 31 76.5 68t41.5 82q2 8 3 18.5 t-3 22.5l2 -2q-4 47 -22.5 83t-46.5 66q-49 45 -154 50q8 0 12 2q37 6 68 12q53 12 59 43q4 12 -2 26v-2q-6 45 -14 72q-12 23 -25.5 33t-39.5 10h-21q-41 -4 -77 -7t-72 -7q4 8 7 15t7 11q8 27 16 41q45 10 95.5 17.5t97.5 15.5q10 2 17 3t18 3q29 6 44 14.5t19 28.5v11 q0 8 -4 16v-2q-6 41 -16 76q-8 23 -23.5 30t-42.5 7h-12h-47q-20 0 -41 -5q6 16 14 27q12 29 24.5 52.5t24.5 45.5q41 4 78 8.5t76 8.5q18 2 35.5 4t33.5 4q29 4 43.5 12t18.5 31q2 4 2 22v-2q0 23 -3 38.5t-9 37.5l-2 -2q-14 47 -74 47q-111 -4 -219.5 -21.5t-188.5 -35.5 l-18 -16l-225 -592l2 2q-8 -16 -9 -23q-8 -45 19 -78q12 -14 21.5 -22t19.5 -17l10 -10l8 -8q14 -10 31 -16q-74 -18 -127 -43q-23 -86 -51.5 -174.5t-59.5 -174.5q-20 -55 -38.5 -108t-34.5 -100q16 106 32.5 210.5t32.5 190.5q12 57 25 106q6 35 -2 54.5t-43 29.5l-2 -2 q-4 2 -8 2t-9 2q-35 10 -75.5 18.5t-100.5 12.5h-14q-41 0 -66.5 -15.5t-48.5 -39.5h2q-51 -61 -112.5 -145t-123 -172.5t-117.5 -174.5t-95 -151q-2 -2 -2 -6l-2 12q-4 10 -4 18t-17 39q-14 18 -25.5 25.5t-35.5 7.5h-15q-41 -4 -75.5 -7t-73.5 -7l4 4q27 61 56.5 125.5 t59 127t58.5 121t53 105.5q4 6 7.5 13.5t3.5 11.5q8 29 -31 55q-25 16 -55.5 28.5t-59.5 18.5l4 -2q-12 4 -20 5t-15 1q-35 0 -61 -43q-35 -63 -74 -148t-75.5 -173t-67.5 -170t-49 -138zM360 858q-8 -41 16.5 -58.5t59.5 -29.5q8 -2 16.5 -5t14.5 -5l-2 2q33 -12 51 -12 t32.5 8t22.5 33q27 70 60 148.5t66.5 158.5t69.5 158.5t69 150.5l50 4t48 4q14 2 24 2q13 0 23 2q33 2 45 13q-10 -27 -21.5 -54.5t-21.5 -56.5q-41 -117 -86 -234.5t-86 -205.5q-4 -8 -8 -25q-4 -25 5 -39t28 -26v2q18 -14 39.5 -21.5t42.5 -11.5h-3q4 -2 9 -2q4 0 8 -2 q4 0 7 -1t5 -1q4 -2 12 -2q41 0 54 41q10 20 18 42.5t19 47.5q10 29 22 60.5t31 72.5q16 2 33.5 3t33.5 5l52 6q-16 -45 -29.5 -84t-22.5 -72l2 5q-4 -10 -5 -15.5t-3 -9.5q-6 -35 16.5 -54.5t61.5 -31.5l-2 2q4 -2 9 -4t7 -4q14 -4 25.5 -7t34.5 -3q18 0 32.5 8t20.5 33 q31 82 70 174t77.5 181t76.5 171t67 145v2q6 12 6 23q4 16 -1 28.5t-28 28.5v-2q-53 37 -104 49q-6 0 -8 2h2q-6 2 -15 2h-12q-41 0 -61 -45q-23 -47 -47.5 -105t-51.5 -122l-41 -96q-27 -4 -52 -5t-54 -3q10 23 19.5 44t19.5 44v-2q23 47 40 88t27 57q0 4 2 7t2 5l3 6 q4 18 -3.5 33t-29.5 29q-25 16 -53.5 28.5t-53.5 20.5v-2q-23 8 -35 8q-43 0 -61 -49q-6 -16 -12 -34.5t-17 -37.5q2 4 1 9.5t-1 15.5q-10 43 -32 78q-12 16 -26.5 22t-47.5 6q-53 -2 -120 -7t-137.5 -11t-138 -14.5t-120.5 -16.5q-41 -6 -47 -39v-12v-10q4 -4 5 -11.5 t5 -15.5q6 -16 12 -33.5t23 -35.5q23 -29 51 -29h12q8 0 15 2h-3q2 0 4.5 1t4.5 1q16 4 39 6q4 0 9 1t9 1q-25 -57 -52.5 -124.5t-54 -135t-48 -129t-33.5 -106.5l4 4q-4 -10 -6.5 -15.5t-4.5 -9.5zM504 461q-6 -35 37 -45q12 -2 24.5 -3t28.5 -1q10 0 18 2q23 0 43 9.5 t43 25.5q31 29 73 82t71 98q0 8 4 16q6 12 6 21q2 10 -1 23t-13 30q-10 8 -20.5 18.5t-31.5 22.5l2 -2q-23 16 -40 16q-35 0 -54 -35q-23 -37 -61.5 -90t-73.5 -100q-12 -18 -22.5 -32.5t-20.5 -27.5q-4 -10 -8 -17t-4 -11zM944 319q6 8 12.5 16.5t12.5 16.5q63 88 123 166 q-10 -47 -17.5 -94t-11.5 -94q-31 -2 -60.5 -4t-58.5 -7zM1495 143q8 18 14.5 36t14.5 36v-2q4 8 7 18.5t7 20.5q51 14 94 14q41 0 51 -12v-2q-4 -25 -55 -55.5t-133 -53.5zM1630 453q16 33 30 62t26 52q80 31 129 31q12 0 19 -2t11 -4l-2 -12q-16 -25 -71.5 -62t-141.5 -65 z" />
<glyph unicode="&#xad;" horiz-adv-x="790" d="M172 571q-8 -45 16.5 -81.5t87.5 -36.5q2 0 23 -4q10 -2 21.5 -3.5t25.5 -1.5q29 0 47 11l269 2l143 2q57 0 95 34.5t46 77.5q10 43 -19.5 80t-107.5 37q-8 0 -14 1t-17 1h5q-10 2 -23 2h-20q-23 0 -48 -6h-278q-6 2 -27 2q-12 0 -28.5 -1t-28.5 -3q-10 -2 -16 -2h-9 q-61 0 -98 -35t-45 -76z" />
<glyph unicode="&#xae;" horiz-adv-x="1048" d="M225 881q-23 -111 2 -193t77 -135t123 -78.5t140 -25.5q84 0 192.5 33.5t211 106.5t185.5 187.5t114 274.5q18 94 7 163.5t-41 118.5t-74 82t-91 51.5t-93 25.5t-79 7q-113 0 -224.5 -54t-203.5 -142.5t-158.5 -199t-87.5 -222.5zM362 881q16 88 66.5 174t121.5 154.5 t154.5 110.5t167.5 42q31 0 82.5 -11.5t97.5 -45t72.5 -95t8.5 -159.5q-25 -123 -87.5 -211t-142.5 -144.5t-163 -83t-146 -26.5q-49 0 -97 17.5t-83 54t-51.5 92t-0.5 131.5zM473 707q-6 -31 11.5 -48.5t47.5 -17.5q35 0 70 21.5t43 62.5l10 57l80 -26l-2 2 q39 -20 71 -31.5t58 -11.5q41 0 71 28.5t58 94.5q-82 29 -130 44t-89 29q90 39 164 96.5t90 137.5q12 63 -15.5 104t-84.5 43q-8 2 -35 2q-31 0 -73 -6t-87 -20.5t-88 -40t-76 -62.5q-10 -53 -19 -93t-16 -68l-10 -54q-6 -27 -12 -51zM705 1028l10 62l22 8h-2q35 10 69 20 t56 10v-2q-4 -20 -47 -43.5t-92 -46.5h2l-7 -3t-11 -5z" />
<glyph unicode="&#xaf;" horiz-adv-x="790" d="M276 1163q-8 -45 16.5 -82t88.5 -37h500q57 0 95 35t48 78q8 43 -20.5 80t-106.5 37q-106 2 -182 2h-125q-78 0 -111 -1t-47 -1h-12q-61 0 -97 -35t-47 -76z" />
<glyph unicode="&#xb0;" horiz-adv-x="518" d="M283 1081q-14 -66 13.5 -117t119.5 -51q55 0 112.5 22.5t105.5 60.5t83 89.5t49 108.5l4 14q0 4 2 7.5t2 7.5q14 68 -15.5 120t-111.5 52q-70 0 -131 -29t-108.5 -74t-79 -97t-43.5 -101zM475 1090.5q-2 11.5 2 23.5q10 35 42 71t81 36q20 0 14 -29l-2 -10 q-12 -41 -47 -72t-76 -31q-12 0 -14 11.5z" />
<glyph unicode="&#xb1;" horiz-adv-x="854" d="M104 223q-6 -31 12.5 -55.5t65.5 -24.5q8 0 15 -2q8 -2 16 -3t20 -1q14 0 33 6h430q8 -6 29 -6q20 0 37 4q4 2 6 2h2q53 0 89 34t44 71q4 29 -11 51.5t-61 22.5l-79 -3h-449q-8 4 -16 5q-10 0 -19.5 -1t-19.5 -4q-8 -2 -12 -2q-53 0 -89 -29.5t-43 -64.5zM238 739 q-6 -31 12 -55.5t65 -24.5q10 0 17 -2q8 -2 17 -3t22 -1q14 0 22 4h119l-35 -131q-10 -12 -13 -26.5t-5 -28.5l-8 -35q-10 -49 10 -67.5t51 -18.5q35 0 69.5 21.5t45.5 60.5q2 6 6 22.5t8 32.5q6 18 13.5 43t4.5 19v-2l31 110h139q8 -4 25 -4q18 0 35 4q8 2 12 2q53 0 90 34 t45 71q4 29 -11 51.5t-60 22.5l-82 -2h-142l35 120q10 14 17 41q4 18 4 19l4 16q10 47 -10.5 69.5t-53.5 22.5q-35 0 -69.5 -24.5t-44.5 -69.5q-6 -10 -9 -22q-4 -10 -9 -23.5t-5 -11.5l-2 -15l-35 -122h-127q-8 4 -16 4q-10 0 -19.5 -1t-19.5 -3q-8 -2 -12 -2 q-53 0 -89 -30t-42 -65z" />
<glyph unicode="&#xb2;" horiz-adv-x="733" d="M145 608q-10 -41 8.5 -69.5t63.5 -28.5q33 4 40 5t22 5h-3q47 10 118 21.5t141 11.5q80 0 121.5 -3t60.5 -5h16q72 0 100.5 31.5t34.5 70.5q16 76 -37 102.5t-182 26.5q-18 0 -37.5 -1t-38.5 -3l170 162l-4 -2q111 98 167.5 189t64.5 134l2 5q16 80 -28 129t-132 49 q-43 0 -90 -10.5t-96 -32.5q-39 -18 -89.5 -47t-96.5 -64t-79.5 -70.5t-39.5 -66.5q-4 -20 4 -41t21 -36t30.5 -24.5t30.5 -9.5q33 4 68.5 26.5t90.5 65.5q20 16 44 33t48.5 30t46 21.5t35.5 8.5q-8 -16 -37.5 -51t-72.5 -80.5t-93.5 -95.5t-99.5 -97t-92 -86t-67 -59 q-80 -70 -106 -99.5t-28 -44.5z" />
<glyph unicode="&#xb3;" horiz-adv-x="763" d="M164 748q-8 -41 12.5 -79t61.5 -67t99 -45t126 -16q74 0 143.5 18.5t128 55t100.5 93t56 132.5q12 66 -2.5 113.5t-48.5 88.5q78 47 122 96t56 119q8 47 -4.5 86t-40 67t-66.5 43t-84 15q-51 0 -133 -27.5t-161.5 -69.5t-140 -91t-69.5 -92q-4 -20 2.5 -41t19.5 -36 t32.5 -25.5t42.5 -10.5q16 0 47 10q41 37 85 69t85 54.5t75.5 34.5t57.5 12q18 0 18 -4q-4 -25 -39.5 -51t-86 -51t-104.5 -44.5t-97 -27.5q-47 -4 -65.5 -23.5t-29.5 -66.5q-8 -47 8.5 -88t57.5 -41q10 0 21 4h14l2 2h-4q68 25 129 25q39 0 61.5 -10.5t18.5 -32.5 q-8 -39 -55.5 -70t-122.5 -31q-41 0 -70 6.5t-33 22.5q-4 20 -17.5 33.5t-27.5 22t-27.5 10.5t-19.5 2q-43 0 -83 -19.5t-50 -74.5z" />
<glyph unicode="&#xb4;" horiz-adv-x="1079" d="M549 1067q-4 -27 10 -38t49 -25l6 -3h7q16 0 34.5 8.5t63.5 53.5q16 16 48 37.5t77 50.5q39 27 68.5 47.5t52 42t42 48t40.5 63.5q0 2 2 3t2 3l-2 -4q14 27 16 47q14 76 -55 76q-23 0 -59 -13.5t-77 -36.5q-35 -20 -74.5 -54t-77.5 -73.5t-74 -81.5t-60 -79 q-33 -45 -39 -72z" />
<glyph unicode="&#xb5;" horiz-adv-x="1044" d="M41 -291q-8 -45 4 -73.5t74 -32.5h18q39 0 64.5 14t42 39t28 56.5t23.5 66.5l41 155q53 0 88 3.5t70.5 11.5t85 25.5t129.5 48.5q-4 -47 23.5 -61.5t66.5 -14.5q57 0 105 23.5t59 82.5q2 10 3 21.5t-1 25.5l182 691v-3q23 51 29 86q10 51 -8.5 72t-59.5 21h-16 q-63 -6 -104.5 -44t-76.5 -126l-139 -527q-29 -18 -66.5 -36.5t-77.5 -36t-81 -28.5t-76 -13h-6q-31 0 -48.5 24.5t-6.5 77.5l2 10l143 504v-2q6 12 8 25.5t6 25.5q10 49 -7 82t-68 35h-11q-35 0 -63.5 -12.5t-49 -33t-33.5 -44t-18 -47.5q-2 -8 -2 -21 q-51 -193 -82.5 -313.5t-50 -191t-25.5 -101.5t-9 -41l-3 -10l-86 -336q-6 -20 -11 -40.5t-9 -37.5z" />
<glyph unicode="&#xb6;" horiz-adv-x="1021" d="M195 586q-29 -147 25 -232.5t190 -85.5h43t43 4l-129 -491l-2 -17q-12 -59 8 -88.5t55 -29.5h10t17 4l-2 -2q72 16 111.5 72.5t74.5 189.5l313 1132q16 0 23 2q4 0 8 1.5t8 1.5q10 0 19.5 -6.5t15.5 -22.5l-342 -1219l-4 -18q-10 -59 10.5 -89t54.5 -30h9q6 0 16 4l-2 -2 q37 8 64.5 25.5t48 48.5t39 76t36.5 112l312 1204l2 7q8 39 -16.5 62.5t-61.5 36.5t-80 18.5t-72 5.5q-115 0 -244.5 -42t-247.5 -122t-211 -196t-132 -265q-4 -12 -6 -25.5t-4 -23.5z" />
<glyph unicode="&#xb7;" horiz-adv-x="434" d="M197 623q-6 -31 1 -62t24.5 -55.5t43 -39.5t58.5 -15q45 0 81.5 18t64.5 46t45 60.5t26 61.5v-2q4 8 5 17.5t5 19.5q4 25 4 51q0 27 -9 47.5t-31.5 33.5t-61.5 13q-45 0 -87 -17.5t-76 -44t-58.5 -58t-32.5 -62.5z" />
<glyph unicode="&#xb8;" horiz-adv-x="1024" d="M354 -217q-6 -37 1 -68.5t53 -40.5q2 0 5 -1t5 -1h6q25 0 50.5 14.5t50 39t46 58.5t33.5 71v-2l62 124q2 8 4 17.5t4 19.5q4 10 6 21.5t4 21.5q8 41 -4 72t-74 31q-39 0 -68.5 -16.5t-52 -42t-38 -60.5t-27.5 -72l-35 -104q-16 -29 -20.5 -40t-10.5 -42z" />
<glyph unicode="&#xb9;" horiz-adv-x="380" d="M215 578q0 -16 12.5 -31t32.5 -23q14 -12 24.5 -15t22.5 -3h10q31 0 49.5 6t30 18.5t17.5 28.5t10 37l29 149q25 113 47 197t41.5 147.5t35 107.5t27.5 75q4 14 9 28.5t10 24.5l4 21q2 31 -12.5 50t-34 29.5t-36 13.5t-18.5 3q-29 0 -66.5 -17.5t-71.5 -40t-58.5 -42 t-24.5 -25.5q-6 -35 5.5 -61.5t49.5 -38.5q-16 -66 -22 -88.5t-10 -34.5l-74 -269q-4 -20 -10 -56t-12.5 -73t-10.5 -70.5t-6 -47.5z" />
<glyph unicode="&#xba;" horiz-adv-x="817" d="M113 514q-6 -31 22.5 -57.5t91.5 -26.5q4 0 21 -4q10 -2 22.5 -3t26.5 -1q29 0 47 10l268 2l142 2q55 0 91 23.5t42 52.5q4 31 -28 56.5t-109 25.5q-8 0 -13.5 1t-13.5 1q-10 2 -23 2h-20q-23 0 -47 -6h-279q-6 2 -26 2q-12 0 -28.5 -1t-29.5 -3q-10 -2 -16 -2h-8 q-61 0 -95 -22.5t-38 -51.5zM305 812q4 -44 25.5 -79t63.5 -56.5t110 -21.5q86 0 172 34t159.5 92.5t127.5 135t77 162.5l4 17q0 4 2.5 7t2.5 7q10 51 5 99t-26.5 85t-62.5 58.5t-105 21.5q-104 0 -195.5 -43t-163 -109.5t-120.5 -146.5t-68 -153l-2 -19q-10 -47 -6 -91z M487 907l2 13q12 45 40 95t69 91t94 68.5t119 27.5q47 0 56 -30.5t1 -71.5l-2 -17q-14 -51 -46 -99t-75 -85t-95 -59.5t-103 -22.5q-45 0 -55.5 28.5t-4.5 61.5z" />
<glyph unicode="&#xbb;" horiz-adv-x="940" d="M125 344q4 -47 16.5 -63.5t34.5 -16.5h21q29 4 47 17.5t43 35.5l8 7l309 256q27 14 45.5 29.5t26.5 56.5q8 35 -11.5 60.5t-48.5 39.5l-219 178q-35 23 -61 23h-8q-33 -4 -52.5 -18.5t-42.5 -55.5q-8 -10 -8 -21q-4 -18 5.5 -51t50.5 -55l149 -121l-215 -178 q-47 -33 -65.5 -55.5t-22.5 -44.5q-2 -8 0 -23h-2zM514 379q4 -47 16.5 -63.5t34.5 -16.5h21q29 4 48 17.5t42 35.5l8 6l315 260l-6 -4q27 14 45.5 29.5t26.5 56.5q8 35 -12.5 61.5t-51.5 39.5h5l-220 178q-35 23 -61 22h-8q-31 -4 -51.5 -18t-42.5 -55q-4 -6 -5.5 -11.5 t-3.5 -9.5q-4 -18 5.5 -51t50.5 -55l151 -121l-219 -180l4 2q-47 -33 -66.5 -55.5t-23.5 -45.5q0 -4 -1 -8t1 -14h-2z" />
<glyph unicode="&#xbc;" horiz-adv-x="1323" d="M143 76q-8 -43 12.5 -63.5t73.5 -20.5q25 0 46.5 12t41 30.5t35 40t27.5 40.5q2 6 10 17t16.5 24.5t15.5 25t11 15.5q29 45 75 108.5t102.5 137t119 152.5t123.5 157q98 123 180 228t133 183l2 8l-2 -6q12 23 26.5 51.5t18.5 51.5q8 37 -7 61.5t-60 24.5q-74 0 -108 -30 t-50 -62q-37 -45 -99.5 -126t-137 -179.5t-155.5 -207t-153.5 -210t-132 -186.5t-92.5 -136q-61 -90 -72 -141zM174 530q0 -16 12.5 -30.5t32.5 -22.5q16 -12 26.5 -15t22.5 -3h11q59 0 77.5 24.5t26.5 65.5l29 149q27 113 49 197t40.5 147.5t34 107.5t27.5 75 q6 14 10.5 28.5t8.5 24.5l4 20q2 31 -12.5 50.5t-34 30t-36 13.5t-18.5 3q-29 0 -66.5 -17.5t-71.5 -40t-57.5 -42t-23.5 -25.5q-8 -35 4.5 -61.5t51.5 -39.5q-16 -66 -23.5 -88t-11.5 -34l-72 -269q-4 -20 -10 -56t-12.5 -73t-11.5 -70.5t-7 -48.5zM573 317 q-4 -18 2.5 -39.5t17.5 -39t25.5 -28.5t28.5 -11h21q29 8 64.5 17t71.5 16.5t68.5 13.5t55.5 10l-2 -14q-4 -14 -7.5 -27.5t-5.5 -26.5l-6 -34q-18 -94 3.5 -135.5t86.5 -41.5q29 0 53.5 11.5t44 27t31 34t15.5 34.5q-4 35 -3 52.5t5 39.5q2 12 6 34.5t10 47.5h141 q20 0 40 11.5t35.5 28.5t25.5 36.5t14 36.5q6 37 -5 57.5t-35.5 30.5t-57.5 13t-68 3l-12 4q27 59 62.5 139t74.5 154l27 45q-6 12 -17.5 29.5t-26 35t-30.5 30t-35 12.5q-33 -14 -97.5 -56.5t-142 -100.5t-160.5 -126t-151.5 -131.5t-114.5 -114.5t-53 -78zM854 422 q74 68 122 105.5t83 62.5q8 4 13 9t11 9h2q-26 -59 -51 -143q-47 -4 -91 -16.5t-89 -26.5z" />
<glyph unicode="&#xbd;" horiz-adv-x="1323" d="M143 76q-8 -43 12.5 -63.5t73.5 -20.5q25 0 46.5 12t41 30.5t35 40t27.5 40.5q2 6 10 17t16.5 24.5t15.5 25t11 15.5q29 45 75 108.5t102.5 137t119 152.5t123.5 157q98 123 180 228t133 183l2 8l-2 -6q12 23 26.5 51.5t18.5 51.5q8 37 -7 61.5t-60 24.5q-74 0 -108 -30 t-50 -62q-37 -45 -99.5 -126t-137 -179.5t-155.5 -207t-153.5 -210t-132 -186.5t-92.5 -136q-61 -90 -72 -141zM174 530q0 -16 12.5 -30.5t32.5 -22.5q16 -12 26.5 -15t22.5 -3h11q59 0 77.5 24.5t26.5 65.5l29 149q27 113 49 197t40.5 147.5t34 107.5t27.5 75 q6 14 10.5 28.5t8.5 24.5l4 20q2 31 -12.5 50.5t-34 30t-36 13.5t-18.5 3q-29 0 -66.5 -17.5t-71.5 -40t-57.5 -42t-23.5 -25.5q-8 -35 4.5 -61.5t51.5 -39.5q-16 -66 -23.5 -88t-11.5 -34l-72 -269q-4 -20 -10 -56t-12.5 -73t-11.5 -70.5t-7 -48.5zM608 49 q-10 -41 8.5 -69.5t63.5 -28.5q33 4 40 5t21 5h-2q47 10 118 21.5t140 11.5q80 0 122 -3t61 -5h16q72 0 99.5 31.5t35.5 70.5q16 76 -37 102.5t-182 26.5q-18 0 -37.5 -1t-38.5 -3l170 162l-4 -2q111 98 167 189t65 134v4q16 80 -27 129.5t-131 49.5q-43 0 -90 -10.5 t-96 -32.5q-39 -18 -89.5 -47t-96.5 -64t-79.5 -71t-40.5 -66q-4 -20 4.5 -41t21.5 -36t30.5 -24.5t29.5 -9.5q33 4 69 26.5t91 65.5q20 16 44 32.5t48.5 30t46 22t35.5 8.5q-8 -16 -37.5 -51.5t-72.5 -80.5t-94.5 -95t-100.5 -97t-91 -86t-67 -59q-80 -70 -105.5 -100 t-27.5 -44z" />
<glyph unicode="&#xbe;" horiz-adv-x="1669" d="M164 713q-8 -41 12.5 -79t61.5 -66.5t99 -45t126 -16.5q74 0 143.5 18.5t128 55t99 93t55.5 132.5q14 66 -0.5 114t-48.5 89q78 47 121 96t57 119q8 47 -4.5 86t-40 66.5t-66.5 43t-84 15.5q-51 0 -133 -28t-161.5 -70t-141 -91t-70.5 -92q-6 -41 23 -77t76 -36 q16 0 47 11q41 37 85 68.5t85 54t75.5 35t57.5 12.5q20 0 16 -4q-4 -25 -39.5 -51.5t-85 -51t-103.5 -44t-97 -28.5q-47 -4 -66.5 -23.5t-30.5 -66.5q-8 -47 9.5 -88t58.5 -41q10 0 21 4h14l2 2h-4q33 12 66.5 18.5t62.5 6.5q39 0 61.5 -10t18.5 -33q-8 -39 -56.5 -69.5 t-124.5 -30.5q-41 0 -68.5 6t-31.5 22q-4 20 -17.5 33.5t-27.5 22t-27.5 10.5t-19.5 2q-43 0 -83 -19.5t-50 -74.5zM489 76q-8 -43 12.5 -63.5t73.5 -20.5q25 0 46.5 12t41 30.5t35 40t27.5 40.5q2 6 10 17t16.5 24.5t15.5 25t11 15.5q29 45 75 108.5t102.5 137t119 152.5 t123.5 157q98 123 180 228t133 183l2 8l-2 -6q12 23 26.5 51.5t18.5 51.5q8 37 -7 61.5t-60 24.5q-74 0 -107.5 -30t-50.5 -62q-37 -45 -99.5 -126t-137 -179.5t-155.5 -207t-153.5 -210t-132 -186.5t-92.5 -136q-61 -90 -72 -141zM920 317q-4 -18 2 -39.5t18 -39 t28.5 -28.5t30.5 -11q33 8 71 17t76 16.5t70.5 13.5t57.5 10l-2 -14q-4 -14 -7 -27.5t-5 -26.5l-7 -34q-18 -94 3.5 -135.5t86.5 -41.5q59 0 84 35t31 66q-4 35 -3 52t5 40q4 12 8.5 35.5t10.5 50.5l168 2q20 0 39.5 11.5t35 28.5t25.5 36.5t14 36.5q6 37 -5 57.5 t-35.5 30.5t-57.5 13t-68 3l-45 -2q29 72 54.5 114t52.5 81q16 25 33.5 50t31.5 54h-2l27 45q-6 12 -17.5 29.5t-25.5 35t-30.5 30t-35.5 12.5q-33 -14 -97 -56.5t-142 -100.5t-161 -126t-151.5 -131.5t-115.5 -114.5t-51 -78zM1208 428q70 63 126.5 109.5t99.5 78.5 q-6 -12 -11.5 -21t-9.5 -17q-16 -27 -32.5 -56.5t-26.5 -60.5q-45 -4 -78 -12.5t-68 -20.5z" />
<glyph unicode="&#xbf;" horiz-adv-x="1087" d="M78 -154q-10 -55 7 -103t55 -84t91.5 -55.5t114.5 -19.5q68 0 136.5 20.5t136 52.5t131 72t118.5 76q51 35 94.5 81t57.5 94l4 18q10 57 -11.5 85t-64.5 28t-101.5 -31t-123.5 -96l4 2q-86 -70 -168 -120t-149 -50q-41 0 -69 12t-24 35l2 6q10 37 84 89t170 114 q68 43 137.5 91t130 97t103.5 101.5t60 105.5q6 20 11 40.5t9 39.5q12 63 -13.5 99t-115.5 36q-35 0 -56.5 -29.5t-50.5 -79.5q-20 -35 -46.5 -79.5t-69.5 -93t-105.5 -97.5t-150.5 -92q-53 -25 -105.5 -60.5t-97.5 -79.5t-79 -94.5t-48 -105.5v-2l-6 -12zM762 866l6 4 q-8 -51 11.5 -82.5t78.5 -31.5q80 0 143.5 36.5t92.5 139.5l4 18q6 35 -2.5 59.5t-25.5 40t-43 22.5t-52 7q-135 0 -195 -155v2q-6 -13 -6 -21q-4 -10 -7 -19t-5 -20z" />
<glyph unicode="&#xc0;" horiz-adv-x="1222" d="M12 49q-8 -41 10.5 -68.5t79.5 -31.5h9q47 0 84.5 46t85.5 111l9 13.5l9 13.5l244 354l47 -2t113.5 -5t135 -5t111.5 -2l4 -18q12 -51 19.5 -81t12.5 -51.5t8 -43t7 -54.5q6 -35 17.5 -82t25 -90t26.5 -73.5t24 -30.5h16q66 0 101.5 37t48.5 96q6 39 6 82v2 q-8 74 -26.5 177t-41.5 220q-16 86 -31.5 175t-28 176t-21.5 167t-11 148l-2 -2q4 70 -21.5 117t-72.5 47q-37 0 -79 -33t-89 -109v2l-764 -1069l2 2q-2 -2 -3 -6t-5 -8q-14 -23 -34 -54.5t-26 -66.5zM672 676l223 330q4 -70 12.5 -160t18.5 -156zM821 1763l2 4v-6 q6 -37 15.5 -63.5t24 -48t36 -42t49.5 -46.5q35 -29 58.5 -50.5t33.5 -37.5q27 -41 49.5 -51.5t28.5 -10.5h2q43 16 64.5 27.5t25.5 38.5q6 25 -10 71q-12 37 -30.5 79t-42 82t-50 74t-53.5 54q-33 23 -62.5 36t-52.5 13q-70 0 -84 -76q-4 -10 -4 -22v-25z" />
<glyph unicode="&#xc1;" horiz-adv-x="1222" d="M12 49q-8 -41 10.5 -68.5t79.5 -31.5h9q47 0 84.5 46t85.5 111l9 13.5l9 13.5l244 354l47 -2t113.5 -5t135 -5t111.5 -2l4 -18q12 -51 19.5 -81t12.5 -51.5t8 -43t7 -54.5q6 -35 17.5 -82t25 -90t26.5 -73.5t24 -30.5h16q66 0 101.5 37t48.5 96q6 39 6 82v2 q-8 74 -26.5 177t-41.5 220q-16 86 -31.5 175t-28 176t-21.5 167t-11 148l-2 -2q4 70 -21.5 117t-72.5 47q-37 0 -79 -33t-89 -109v2l-764 -1069l2 2q-2 -2 -3 -6t-5 -8q-14 -23 -34 -54.5t-26 -66.5zM672 676l223 330q4 -70 12.5 -160t18.5 -156zM842 1477q-4 -27 10 -38.5 t49 -25.5l6 -2h6q16 0 35 8t64 54q16 16 47 37.5t78 50.5q39 27 68.5 47t52 41.5t42 48t39.5 63.5q0 2 2 3t2 3l-2 -4q6 12 9.5 24.5t7.5 22.5q14 76 -55 76q-23 0 -59 -13t-77 -36q-35 -20 -74.5 -54t-77.5 -74t-74 -82t-60 -79q-33 -45 -39 -71z" />
<glyph unicode="&#xc2;" horiz-adv-x="1222" d="M12 49q-8 -41 10.5 -68.5t79.5 -31.5h9q47 0 84.5 46t85.5 111l9 13.5l9 13.5l244 354l47 -2t113.5 -5t135 -5t111.5 -2l4 -18q12 -51 19.5 -81t12.5 -51.5t8 -43t7 -54.5q6 -35 17.5 -82t25 -90t26.5 -73.5t24 -30.5h16q66 0 101.5 37t48.5 96q6 39 6 82v2 q-8 74 -26.5 177t-41.5 220q-16 86 -31.5 175t-28 176t-21.5 167t-11 148l-2 -2q4 70 -21.5 117t-72.5 47q-37 0 -79 -33t-89 -109v2l-764 -1069l2 2q-2 -2 -3 -6t-5 -8q-14 -23 -34 -54.5t-26 -66.5zM645 1497q-4 -23 9.5 -38t58.5 -29v2q10 -4 20 -5q23 0 48.5 14.5 t66.5 55.5l-2 -2l215 182l88 -174q14 -47 43 -61.5t47 -14.5q12 0 23 5q45 16 62.5 32t25.5 47l2 9q6 27 -11 65l-127 254l-2 -4q-6 35 -27.5 59.5t-56.5 24.5q-41 0 -59 -16.5t-37 -38.5l4 4l-311 -264l-6 -7q-27 -20 -43.5 -35.5t-26.5 -43.5zM672 676l223 330 q4 -70 12.5 -160t18.5 -156z" />
<glyph unicode="&#xc3;" horiz-adv-x="1222" d="M12 49q-8 -41 10.5 -68.5t79.5 -31.5h9q47 0 84.5 46t85.5 111l9 13.5l9 13.5l244 354l47 -2t113.5 -5t135 -5t111.5 -2l4 -18q12 -51 19.5 -81t12.5 -51.5t8 -43t7 -54.5q6 -35 17.5 -82t25 -90t26.5 -73.5t24 -30.5h16q66 0 101.5 37t48.5 96q6 39 6 82v2 q-8 74 -26.5 177t-41.5 220q-16 86 -31.5 175t-28 176t-21.5 167t-11 148l-2 -2q4 70 -21.5 117t-72.5 47q-37 0 -79 -33t-89 -109v2l-764 -1069l2 2q-2 -2 -3 -6t-5 -8q-14 -23 -34 -54.5t-26 -66.5zM672 676l223 330q4 -70 12.5 -160t18.5 -156zM719 1526 q-6 -33 13.5 -54.5t60.5 -21.5q25 0 46 15.5t46 37.5q16 16 33.5 29.5t29.5 13.5q4 0 10.5 -9t14.5 -19l-2 2q16 -27 43.5 -53.5t89.5 -26.5q98 0 164.5 44t101.5 171v4q6 27 -16.5 47t-55.5 20q-23 0 -47 -12t-41 -41l-12 -24q-6 -18 -16.5 -37t-28.5 -19q-14 0 -22.5 13.5 t-18.5 29.5q-12 29 -33.5 53.5t-74.5 24.5q-35 0 -80 -15.5t-88 -42t-76 -59t-41 -65.5v-6z" />
<glyph unicode="&#xc4;" horiz-adv-x="1222" d="M12 49q-8 -41 10.5 -68.5t79.5 -31.5h9q47 0 84.5 46t85.5 111l9 13.5l9 13.5l244 354l47 -2t113.5 -5t135 -5t111.5 -2l4 -18q12 -51 19.5 -81t12.5 -51.5t8 -43t7 -54.5q6 -35 17.5 -82t25 -90t26.5 -73.5t24 -30.5h16q66 0 101.5 37t48.5 96q6 39 6 82v2 q-8 74 -26.5 177t-41.5 220q-16 86 -31.5 175t-28 176t-21.5 167t-11 148l-2 -2q4 70 -21.5 117t-72.5 47q-37 0 -79 -33t-89 -109v2l-764 -1069l2 2q-2 -2 -3 -6t-5 -8q-14 -23 -34 -54.5t-26 -66.5zM672 676l223 330q4 -70 12.5 -160t18.5 -156zM698 1581 q-4 -25 1.5 -52.5t19.5 -50t36.5 -37t53.5 -14.5q39 0 71.5 16.5t57.5 40t41 52t22 53.5l3 15q4 8 6 14q4 20 4 43q0 25 -9.5 44t-29 31.5t-53.5 12.5q-39 0 -76 -15.5t-66.5 -39t-51 -51t-28.5 -54.5zM1087 1585q-4 -27 2.5 -53.5t21.5 -48t36.5 -34.5t50.5 -13q39 0 72 15 t57.5 40t40 53t23.5 53q2 6 4 15.5t4 19.5q4 23 4 45q0 23 -9.5 40.5t-28.5 28.5t-54 11q-39 0 -76 -15.5t-66.5 -39t-51 -52t-27.5 -55.5z" />
<glyph unicode="&#xc5;" horiz-adv-x="1222" d="M12 49q-8 -41 10.5 -68.5t79.5 -31.5h9q47 0 84.5 46t85.5 111l9 13.5l9 13.5l244 354l47 -2t113.5 -5t135 -5t111.5 -2l4 -18q12 -51 19.5 -81t12.5 -51.5t8 -43t7 -54.5q6 -35 17.5 -82t25 -90t26.5 -73.5t24 -30.5h16q66 0 101.5 37t48.5 96q6 39 6 82v2 q-8 74 -26.5 177t-41.5 220q-16 86 -31.5 175t-28 176t-21.5 167t-11 148l-2 -2q4 70 -21.5 117t-72.5 47q-37 0 -79 -33t-89 -109v2l-764 -1069l2 2q-2 -2 -3 -6t-5 -8q-14 -23 -34 -54.5t-26 -66.5zM672 676l223 330q4 -70 12.5 -160t18.5 -156zM853 1507.5 q3 -30.5 17.5 -53t43 -37t75.5 -14.5q55 0 112.5 22.5t105.5 60.5t84 89t50 108l2 15l3.5 7l3.5 7q12 68 -16.5 120t-110.5 52q-70 0 -131.5 -28.5t-108.5 -73.5t-80 -97.5t-45 -101.5l-2 -12q-6 -33 -3 -63.5zM1051 1580q-2 11 0 24q10 35 41.5 70.5t81.5 35.5q20 0 16 -29 l-2 -8q-10 -41 -46 -72.5t-77 -31.5q-12 0 -14 11z" />
<glyph unicode="&#xc6;" horiz-adv-x="2013" d="M-43 -47q-6 -27 8.5 -43t61.5 -21h8q45 0 104.5 46.5t139.5 117.5l16 15l424 360l50 3t121 7t146.5 7.5t124.5 5.5l-65 -240q-4 -10 -7.5 -20.5t-7.5 -20.5q-8 -27 -15 -51.5t-11 -46.5q-12 -59 10 -94t106 -35h19q10 0 20 2h-2l650 47q51 0 84.5 10t55 26.5t32 36 t14.5 37.5l2 13q10 57 -16.5 79.5t-96.5 22.5h-35l-581 -49l102 373l455 49q10 2 22.5 3t24.5 1q49 0 93 20.5t67 92.5l2 14q8 35 -14.5 65.5t-108.5 30.5h-25q-12 0 -28 -2l-424 -53q23 78 38 130t26.5 87t18.5 54.5t11 33.5l491 33q10 0 22.5 1t23.5 1q43 2 75.5 4t56 13 t40 34t28.5 64l4 14q10 59 -23.5 78.5t-90.5 19.5q-18 0 -36 -1t-34 -3q-10 0 -18.5 -1t-18.5 -1q-184 -12 -288.5 -17.5t-163.5 -5.5h-140q-41 0 -89 -18t-70 -41l2 2l-1248 -1116l-16 -14q-16 -14 -36.5 -34t-40 -41.5t-34 -44t-16.5 -40.5zM936 623l350 342 q-4 -16 -6 -33t-4 -33v-4q-4 -16 -8 -34.5t-8 -35.5q-8 -37 -17.5 -74.5t-25.5 -82.5z" />
<glyph unicode="&#xc7;" horiz-adv-x="1175" d="M164 263q4 -83 29.5 -149.5t73.5 -112.5t118 -67l-39 -110q-16 -29 -20 -40t-9 -42q-8 -37 -0.5 -68.5t52.5 -40.5q2 0 5 -1t5 -1h6q25 0 50.5 14.5t50 39t46 58.5t33.5 71v-2q23 43 34 68.5t15 37.5v-2q4 6 4 10q0 2 5 6q82 18 160.5 53t149.5 81.5t131 98.5t103 103v-2 q20 23 28.5 40.5t12.5 33.5q8 37 -15.5 57.5t-64.5 20.5q-43 0 -99 -25.5t-103 -79.5q-20 -27 -60.5 -57.5t-89.5 -56t-100 -43t-94 -17.5q-61 0 -98.5 24.5t-54.5 67.5t-18 98.5t11 116.5q4 16 7 33t9 33q33 123 96.5 242.5t144.5 214t176 153t192 58.5q59 0 88.5 -7.5 t40.5 -21.5q16 -18 30.5 -33.5t24.5 -30.5q45 -55 61 -55q59 0 106.5 41t57.5 94q4 29 -2 55.5t-27 49.5q-68 76 -153.5 103.5t-190.5 27.5q-135 0 -273 -75t-258 -198.5t-214 -283.5t-141 -330q-4 -18 -9.5 -37.5t-9.5 -40.5q-18 -92 -14 -175z" />
<glyph unicode="&#xc8;" horiz-adv-x="1087" d="M135 82q-12 -59 10.5 -94t106.5 -35h18q10 0 21 2h-2l649 47q51 0 85 10.5t55.5 25.5t31.5 36t14 39l2 12q10 57 -16.5 79.5t-95.5 22.5h-35l-582 -49l103 373l454 49q10 2 22.5 3t24.5 1q49 0 93.5 20.5t66.5 92.5l2 14q8 35 -14.5 65.5t-108.5 30.5h-24q-12 0 -29 -2 l-424 -53l86 305l500 33q10 0 22.5 1t22.5 1q43 2 76 4t56.5 13.5t39.5 34t29 63.5l4 14q10 59 -24 78.5t-91 19.5q-18 0 -35.5 -1t-34.5 -3q-10 0 -18 -1t-18 -1q-184 -12 -289 -17t-164 -5h-139q-37 0 -67 -13.5t-50 -35t-33.5 -46t-17.5 -45.5q0 -4 -1 -8t-1 -10 q-4 -23 -12.5 -54.5t-16.5 -68.5q-20 -84 -48 -198.5t-69 -262.5l-94 -348q-4 -10 -7 -20.5t-7 -20.5q-8 -27 -15.5 -51.5t-11.5 -46.5zM772 1763l2 4v-6q6 -37 15.5 -63.5t23.5 -48t35.5 -42t50.5 -46.5q35 -29 58.5 -50.5t33.5 -37.5q27 -41 49.5 -51.5t28.5 -10.5h2 q43 16 64.5 27.5t25.5 38.5q6 25 -10 71q-12 37 -30.5 79t-42 82t-50.5 74t-53 54q-33 23 -62.5 36t-52.5 13q-70 0 -84 -76q-4 -10 -4 -22v-25z" />
<glyph unicode="&#xc9;" horiz-adv-x="1087" d="M135 82q-12 -59 10.5 -94t106.5 -35h18q10 0 21 2h-2l649 47q51 0 85 10.5t55.5 25.5t31.5 36t14 39l2 12q10 57 -16.5 79.5t-95.5 22.5h-35l-582 -49l103 373l454 49q10 2 22.5 3t24.5 1q49 0 93.5 20.5t66.5 92.5l2 14q8 35 -14.5 65.5t-108.5 30.5h-24q-12 0 -29 -2 l-424 -53l86 305l500 33q10 0 22.5 1t22.5 1q43 2 76 4t56.5 13.5t39.5 34t29 63.5l4 14q10 59 -24 78.5t-91 19.5q-18 0 -35.5 -1t-36.5 -3q-10 0 -18 -1t-16 -1q-184 -12 -289 -17t-164 -5h-139q-37 0 -67 -13.5t-50 -35t-33.5 -46t-17.5 -45.5q0 -4 -1 -8t-1 -10 q-4 -23 -12.5 -54.5t-16.5 -68.5q-20 -84 -48 -198.5t-69 -262.5l-94 -348q-4 -10 -7 -20.5t-7 -20.5q-8 -27 -15.5 -51.5t-11.5 -46.5zM823 1477q-4 -27 10.5 -38.5t49.5 -25.5l6 -2h6q16 0 34.5 8t63.5 54q16 16 47 37.5t78 50.5q39 27 69 47t52.5 41.5t41.5 48t40 63.5 q0 2 2 3t2 3l-2 -4q6 12 9 24.5t7 22.5q14 76 -55 76q-23 0 -58.5 -13t-76.5 -36q-35 -20 -75 -54t-78 -74t-73.5 -82t-60.5 -79q-33 -45 -39 -71z" />
<glyph unicode="&#xca;" horiz-adv-x="1087" d="M135 82q-12 -59 10.5 -94t106.5 -35h18q10 0 21 2h-2l649 47q51 0 85 10.5t55.5 25.5t31.5 36t14 39l2 12q10 57 -16.5 79.5t-95.5 22.5h-35l-582 -49l103 373l454 49q10 2 22.5 3t24.5 1q49 0 93.5 20.5t66.5 92.5l2 14q8 35 -14.5 65.5t-108.5 30.5h-24q-12 0 -29 -2 l-424 -53l86 305l500 33q10 0 22.5 1t22.5 1q43 2 76 4t56.5 13.5t39.5 34t29 63.5l4 14q10 59 -24 78.5t-91 19.5q-18 0 -35.5 -1t-36.5 -3q-10 0 -18 -1t-16 -1q-184 -12 -289 -17t-164 -5h-139q-37 0 -67 -13.5t-50 -35t-33.5 -46t-17.5 -45.5q0 -4 -1 -8t-1 -10 q-4 -23 -12.5 -54.5t-16.5 -68.5q-20 -84 -48 -198.5t-69 -262.5l-94 -348q-4 -10 -7 -20.5t-7 -20.5q-8 -27 -15.5 -51.5t-11.5 -46.5zM639 1497q-4 -23 9.5 -38t58.5 -29v2q10 -4 20 -5q23 0 48.5 14.5t66.5 55.5l-2 -2l215 182l88 -174q14 -47 42.5 -61.5t47.5 -14.5 q12 0 22 5q45 16 62.5 32t25.5 47l3 9q6 27 -11 65l-127 254q-8 33 -29.5 56.5t-56.5 23.5q-41 0 -59.5 -16.5t-36.5 -38.5l4 4l-311 -264l-6 -7q-27 -20 -43.5 -35.5t-26.5 -43.5z" />
<glyph unicode="&#xcb;" horiz-adv-x="1087" d="M135 82q-12 -59 10.5 -94t106.5 -35h18q10 0 21 2h-2l649 47q51 0 85 10.5t55.5 25.5t31.5 36t14 39l2 12q10 57 -16.5 79.5t-95.5 22.5h-35l-582 -49l103 373l454 49q10 2 22.5 3t24.5 1q49 0 93.5 20.5t66.5 92.5l2 14q8 35 -14.5 65.5t-108.5 30.5h-24q-12 0 -29 -2 l-424 -53l86 305l500 33q10 0 22.5 1t22.5 1q43 2 76 4t56.5 13.5t39.5 34t29 63.5l4 14q10 59 -24 78.5t-91 19.5q-18 0 -35.5 -1t-36.5 -3q-10 0 -18 -1t-16 -1q-184 -12 -289 -17t-164 -5h-139q-37 0 -67 -13.5t-50 -35t-33.5 -46t-17.5 -45.5q0 -4 -1 -8t-1 -10 q-4 -23 -12.5 -54.5t-16.5 -68.5q-20 -84 -48 -198.5t-69 -262.5l-94 -348q-4 -10 -7 -20.5t-7 -20.5q-8 -27 -15.5 -51.5t-11.5 -46.5zM694 1581q-4 -25 1 -52.5t19.5 -50t37 -37t53.5 -14.5q39 0 71.5 16.5t57 40t41 52t22.5 53.5l2 15l7 14q4 20 4 43q0 25 -9.5 44 t-29 31.5t-53.5 12.5q-39 0 -76 -15.5t-67 -39t-51.5 -51t-27.5 -54.5zM1083 1585q-4 -27 2.5 -53.5t21.5 -48t36.5 -34.5t50.5 -13q39 0 71.5 15t57.5 40t40 53t23 53q2 6 4.5 15.5t4.5 19.5q4 23 4 45q0 23 -9.5 40.5t-29 28.5t-53.5 11q-39 0 -76 -15.5t-66.5 -39 t-51 -52t-28.5 -55.5z" />
<glyph unicode="&#xcc;" horiz-adv-x="454" d="M127 68q-8 -47 9.5 -79t76.5 -40q2 0 4 -1t6 -1h10q33 0 53.5 11t36 29.5t25.5 44t21 54.5q4 8 8 25l2 2l295 1050v-2q4 6 5 13.5t5 13.5q6 16 12 33.5t11 38.5q8 41 -5.5 69.5t-66.5 28.5t-86 -10.5t-52.5 -32t-30.5 -52t-20 -73.5l-303 -1069l2 2q-12 -29 -18 -55z M467 1763l2 4v-6q6 -37 15.5 -63.5t23.5 -48t35.5 -42t50.5 -46.5q35 -29 58.5 -50.5t33.5 -37.5q27 -41 49.5 -51.5t28.5 -10.5h2q43 16 64.5 27.5t25.5 38.5q6 25 -10 71q-12 37 -30.5 79t-42 82t-50.5 74t-53 54q-33 23 -62.5 36t-52.5 13q-70 0 -84 -76q-4 -10 -4 -22 v-25z" />
<glyph unicode="&#xcd;" horiz-adv-x="454" d="M127 68q-8 -47 9.5 -79t76.5 -40q2 0 4 -1t6 -1h10q33 0 53.5 11t36 29.5t25.5 44t21 54.5q4 8 8 25l2 2l295 1050v-2q4 6 5 13.5t5 13.5q6 16 12 33.5t11 38.5q8 41 -5.5 69.5t-66.5 28.5t-86 -10.5t-52.5 -32t-30.5 -52t-20 -73.5l-303 -1069l2 2q-12 -29 -18 -55z M440 1477q-4 -27 10.5 -38.5t49.5 -25.5l6 -2h6q16 0 34.5 8t63.5 54q16 16 47 37.5t78 50.5q39 27 69 47t52.5 41.5t42 48t39.5 63.5q0 2 2 3t2 3l-2 -4q6 12 9 24.5t7 22.5q14 76 -55 76q-23 0 -58.5 -13t-76.5 -36q-35 -20 -75 -54t-78 -74t-73.5 -82t-60.5 -79 q-33 -45 -39 -71z" />
<glyph unicode="&#xce;" horiz-adv-x="454" d="M127 68q-8 -47 9.5 -79t76.5 -40q2 0 4 -1t6 -1h10q33 0 53.5 11t36 29.5t25.5 44t21 54.5q4 8 8 25l2 2l295 1050v-2q4 6 5 13.5t5 13.5q6 16 12 33.5t11 38.5q8 41 -5.5 69.5t-66.5 28.5t-86 -10.5t-52.5 -32t-30.5 -52t-20 -73.5l-303 -1069l2 2q-12 -29 -18 -55z M291 1497q-4 -23 9 -38t58 -29v2q10 -4 21 -5q23 0 48.5 14.5t66.5 55.5l-2 -2l215 182l88 -174q14 -47 42.5 -61.5t47.5 -14.5q12 0 22 5q45 16 62.5 32t25.5 47l2 9q6 27 -10 65l-127 254l-2 -4q-6 35 -27.5 59.5t-56.5 24.5q-41 0 -59.5 -16.5t-36.5 -38.5l-307 -260 l-6 -7q-27 -20 -43.5 -35.5t-26.5 -43.5z" />
<glyph unicode="&#xcf;" horiz-adv-x="454" d="M127 68q-8 -47 9.5 -79t76.5 -40q2 0 4 -1t6 -1h10q33 0 53.5 11t36 29.5t25.5 44t21 54.5q4 8 8 25l2 2l295 1050v-2q4 6 5 13.5t5 13.5q6 16 12 33.5t11 38.5q8 41 -5.5 69.5t-66.5 28.5t-86 -10.5t-52.5 -32t-30.5 -52t-20 -73.5l-303 -1069l2 2q-12 -29 -18 -55z M324 1571q-4 -25 1 -52.5t20 -50t38 -37t53 -14.5q39 0 72 16.5t56.5 40t40 52t22.5 53.5l2 14q4 8 6 15q4 20 4 43q0 25 -9 44t-28.5 31.5t-54.5 12.5q-39 0 -76 -15.5t-66.5 -39t-51 -51t-27.5 -54.5zM713 1575q-4 -27 2 -53.5t21.5 -48t37 -35t49.5 -13.5q39 0 72 15.5 t57.5 40t40 53t23.5 53.5q2 6 4 15.5t4 19.5q4 23 4 45q0 23 -9 40t-28.5 28.5t-54.5 11.5q-39 0 -76 -15.5t-66.5 -39t-51 -52t-27.5 -55.5z" />
<glyph unicode="&#xd0;" horiz-adv-x="1241" d="M96 694q-10 -43 15.5 -81t89.5 -38h75l-100 -354q-2 -10 -5 -22.5t-5 -22.5q-6 -23 -11 -43t-10 -41q-12 -61 -0.5 -102t72.5 -41q57 0 156.5 21.5t219.5 67.5t250 119.5t246.5 177t211 241t143.5 311.5q4 12 7 26.5t5 26.5q18 88 7 171t-55 146.5t-122 101.5t-192 38 q-143 0 -241.5 -24.5t-188.5 -53.5q-18 -6 -36 -11t-38 -12q-72 -23 -114 -74t-52 -108q-2 -10 -4 -18.5t-2 -16.5l-76 -270h-35q-25 0 -33 -1t-12 -1q-10 -4 -16 -4h-8q-61 0 -97.5 -34t-44.5 -75zM403 205l107 373l154 2q57 0 95 35.5t48 76.5q8 43 -20.5 79t-106.5 36 h-105l76 276q68 35 163 65t200 30q68 0 109.5 -21.5t64 -58.5t27 -84t-6.5 -96l-4 -27q-45 -158 -139 -275.5t-209 -201.5t-234.5 -135.5t-218.5 -73.5z" />
<glyph unicode="&#xd1;" horiz-adv-x="1337" d="M123 63q-23 -117 94 -116h14q57 4 91 41t45 82q2 10 2 18v16l213 756q10 -18 21 -38.5t22 -41.5q45 -84 86 -169t67 -154q14 -39 40 -97.5t56.5 -121t59.5 -120t49 -95.5l-2 2l2 -2q2 0 4 -3q6 -12 13.5 -23t20.5 -21.5t34.5 -16.5t56.5 -6q31 0 53.5 15.5t39 38t27.5 47 t17 44.5l314 1119q4 12 7 24t5 23q12 66 -7.5 91t-84.5 25q-41 0 -66.5 -14t-42 -35.5t-26 -47.5t-15.5 -50l-233 -840q-16 29 -32.5 58.5t-20.5 44.5q-27 47 -49.5 90t-42 85t-39 87t-42.5 98q-20 47 -44.5 103.5t-53.5 121.5q-10 20 -14 27q-4 4 -6 10t-6.5 16.5t-9.5 30 t-13 49.5q-6 20 -16.5 45t-25.5 46.5t-34.5 37t-46.5 15.5q-29 0 -51.5 -6t-41.5 -23.5t-35.5 -50.5t-35.5 -86l-303 -1077q-6 -14 -8 -26.5t-6 -25.5zM733 1518q-6 -33 13.5 -54.5t60.5 -21.5q25 0 46 15.5t46 37.5q16 16 33.5 29.5t30.5 13.5q4 0 11 -9t13 -20l-2 2 q16 -27 44 -53t89 -26q98 0 164.5 44t101.5 171l2 4q4 27 -18 47t-55 20q-23 0 -46.5 -12t-41.5 -41l-11 -25q-8 -18 -18 -36.5t-29 -18.5q-14 0 -22 13.5t-17 29.5q-14 29 -35.5 53.5t-74.5 24.5q-35 0 -80 -15.5t-87 -42t-75 -59.5t-41 -65z" />
<glyph unicode="&#xd2;" horiz-adv-x="1304" d="M178 444q-47 -248 43 -388t307 -140q143 0 290 64.5t275 176t226 260t145 318.5q16 57 25 113q20 109 19 209t-37.5 177t-113.5 123t-206 46q-106 0 -210.5 -42t-204 -111.5t-186.5 -160t-157.5 -186.5t-121 -191.5t-70.5 -174.5v-5q-6 -23 -12.5 -45t-10.5 -43zM414 455 q4 18 9 35.5t9 37.5l2 7q16 59 53 129.5t88.5 142.5t113 139.5t129 119.5t137 84t137.5 32t107.5 -28t57 -75t16.5 -108.5t-13 -126.5q-4 -25 -11.5 -51.5t-15.5 -53.5q-33 -121 -100.5 -230.5t-154.5 -192.5t-188.5 -131t-201.5 -48q-121 0 -162 86t-12 232zM909 1763l2 4 v-6q6 -37 15.5 -63.5t24 -48t36 -42t49.5 -46.5q35 -29 58.5 -50.5t33.5 -37.5q27 -41 49.5 -51.5t28.5 -10.5h2q43 16 64.5 27.5t25.5 38.5q6 25 -10 71q-12 37 -30.5 79t-42 82t-50 74t-53.5 54q-33 23 -62.5 36t-52.5 13q-70 0 -84 -76q-4 -10 -4 -22v-25z" />
<glyph unicode="&#xd3;" horiz-adv-x="1304" d="M178 444q-47 -248 43 -388t307 -140q143 0 290 64.5t275 176t226 260t145 318.5q16 57 25 113q20 109 19 209t-37.5 177t-113.5 123t-206 46q-106 0 -210.5 -42t-204 -111.5t-186.5 -160t-157.5 -186.5t-121 -191.5t-70.5 -174.5v-5q-6 -23 -12.5 -45t-10.5 -43zM414 455 q4 18 9 35.5t9 37.5l2 7q16 59 53 129.5t88.5 142.5t113 139.5t129 119.5t137 84t137.5 32t107.5 -28t57 -75t16.5 -108.5t-13 -126.5q-4 -25 -11.5 -51.5t-15.5 -53.5q-33 -121 -100.5 -230.5t-154.5 -192.5t-188.5 -131t-201.5 -48q-121 0 -162 86t-12 232zM1012 1477 q-4 -27 10 -38.5t49 -25.5l6 -2h6q16 0 35 8t64 54q16 16 47 37.5t78 50.5q39 27 68.5 47t52 41.5t42 48t39.5 63.5q0 2 2 3t2 3l-2 -4q6 12 9.5 24.5t7.5 22.5q14 76 -55 76q-23 0 -59 -13t-77 -36q-35 -20 -74.5 -54t-77.5 -74t-74 -82t-60 -79q-33 -45 -39 -71z" />
<glyph unicode="&#xd4;" horiz-adv-x="1304" d="M178 444q-47 -248 43 -388t307 -140q143 0 290 64.5t275 176t226 260t145 318.5q16 57 25 113q20 109 19 209t-37.5 177t-113.5 123t-206 46q-106 0 -210.5 -42t-204 -111.5t-186.5 -160t-157.5 -186.5t-121 -191.5t-70.5 -174.5v-5q-6 -23 -12.5 -45t-10.5 -43zM414 455 q4 18 9 35.5t9 37.5l2 7q16 59 53 129.5t88.5 142.5t113 139.5t129 119.5t137 84t137.5 32t107.5 -28t57 -75t16.5 -108.5t-13 -126.5q-4 -25 -11.5 -51.5t-15.5 -53.5q-33 -121 -100.5 -230.5t-154.5 -192.5t-188.5 -131t-201.5 -48q-121 0 -162 86t-12 232zM799 1497 q-4 -23 9 -38t58 -29v2q10 -4 21 -5q23 0 48.5 14.5t65.5 55.5l-2 -2l215 182l89 -174q14 -47 42.5 -61.5t47.5 -14.5q12 0 22 5q45 16 62.5 32t25.5 47l2 9q6 27 -10 65l-127 254l-2 -4q-6 35 -27.5 59.5t-56.5 24.5q-41 0 -59.5 -16.5t-36.5 -38.5l4 4l-311 -264l-7 -7 q-27 -20 -43 -35.5t-26 -43.5z" />
<glyph unicode="&#xd5;" horiz-adv-x="1304" d="M178 444q-47 -248 43 -388t307 -140q143 0 290 64.5t275 176t226 260t145 318.5q16 57 25 113q20 109 19 209t-37.5 177t-113.5 123t-206 46q-106 0 -210.5 -42t-204 -111.5t-186.5 -160t-157.5 -186.5t-121 -191.5t-70.5 -174.5v-5q-6 -23 -12.5 -45t-10.5 -43zM414 455 q4 18 9 35.5t9 37.5l2 7q16 59 53 129.5t88.5 142.5t113 139.5t129 119.5t137 84t137.5 32t107.5 -28t57 -75t16.5 -108.5t-13 -126.5q-4 -25 -11.5 -51.5t-15.5 -53.5q-33 -121 -100.5 -230.5t-154.5 -192.5t-188.5 -131t-201.5 -48q-121 0 -162 86t-12 232zM846 1526 q-6 -33 13.5 -54.5t60.5 -21.5q25 0 46 15.5t46 37.5q16 16 33.5 29.5t29.5 13.5q4 0 10.5 -9t14.5 -19l-2 2q16 -27 43.5 -53.5t89.5 -26.5q98 0 164.5 44t101.5 171v4q6 27 -16.5 47t-55.5 20q-23 0 -47 -12t-41 -41l-12 -24q-6 -18 -16.5 -37t-28.5 -19q-14 0 -22.5 13.5 t-18.5 29.5q-12 29 -33.5 53.5t-75.5 24.5q-35 0 -79.5 -15.5t-87.5 -42t-76 -59t-41 -65.5v-6z" />
<glyph unicode="&#xd6;" horiz-adv-x="1304" d="M178 444q-47 -248 43 -388t307 -140q143 0 290 64.5t275 176t226 260t145 318.5q16 57 25 113q20 109 19 209t-37.5 177t-113.5 123t-206 46q-106 0 -210.5 -42t-204 -111.5t-186.5 -160t-157.5 -186.5t-121 -191.5t-70.5 -174.5v-5q-6 -23 -12.5 -45t-10.5 -43zM414 455 q4 18 9 35.5t9 37.5l2 7q16 59 53 129.5t88.5 142.5t113 139.5t129 119.5t137 84t137.5 32t107.5 -28t57 -75t16.5 -108.5t-13 -126.5q-4 -25 -11.5 -51.5t-15.5 -53.5q-33 -121 -100.5 -230.5t-154.5 -192.5t-188.5 -131t-201.5 -48q-121 0 -162 86t-12 232zM786 1581 q-4 -25 1.5 -52.5t19.5 -50t36.5 -37t53.5 -14.5q39 0 71.5 16.5t57.5 40t41.5 52t22.5 53.5l2 15q4 8 6 14q4 20 4 43q0 25 -9.5 44t-29 31.5t-53.5 12.5q-39 0 -76 -15.5t-66.5 -39t-51 -51t-28.5 -54.5zM1176 1585q-4 -27 2 -53.5t21 -48t36.5 -34.5t50.5 -13q39 0 72 15 t57.5 40t40 53t23.5 53q2 6 4 15.5t4 19.5q4 23 4 45q0 23 -9 40.5t-28.5 28.5t-54.5 11q-39 0 -76 -15.5t-66.5 -39t-51 -52t-27.5 -55.5z" />
<glyph unicode="&#xd7;" horiz-adv-x="952" d="M109 215q-6 -45 18 -74l2 2q14 -18 37.5 -28.5t48.5 -10.5q41 0 76 25q6 4 18.5 12.5t26.5 18.5q25 18 54.5 39.5t43.5 33.5l146 103l114 -146q6 -20 20.5 -32.5t26.5 -20.5q4 -4 7.5 -7t5.5 -3q20 -25 46.5 -36t53.5 -11q47 0 89 28.5t50 71.5q4 18 -1 40t-21 42l-66 76 l-119 147l162 117q14 4 24.5 10t26.5 19q18 18 29 18q35 27 51.5 52.5t20.5 48.5q10 47 -20.5 77.5t-78.5 30.5q-23 0 -47 -8t-47 -25q-8 -6 -18 -12t-21 -12h2q-35 -16 -47 -33l-170 -121l-100 129q-2 16 -16.5 28.5t-26.5 24.5q-6 4 -10 8.5t-6 6.5q-41 49 -99 49 q-47 0 -86 -29.5t-47 -72.5q-6 -45 25 -86q2 -2 8 -19q10 -16 21.5 -34.5t31.5 -28.5l101 -123l-170 -123q-18 -6 -37 -19.5t-35 -27.5l-21 -19q-35 -23 -54 -48t-23 -48z" />
<glyph unicode="&#xd8;" horiz-adv-x="1304" d="M178 154.5q33 -119.5 129 -179.5q-45 -76 -53 -120.5t13.5 -66t80.5 -21.5q29 0 53.5 14t44 35.5t37 46t29.5 45.5q0 2 6 8h10q143 0 290 64.5t275 176t226 260t145 318.5v6q14 51 25 105q14 74 18 143.5t-5 132t-34.5 114.5t-68.5 89v2l4 10h2q16 31 33.5 66t21.5 63 q8 39 -4 64.5t-63 25.5q-43 0 -74 -10t-51.5 -25.5t-33.5 -34t-24 -34.5l-18 -31q-4 -4 -6 -10t-6 -10h-9q-6 0 -11 1t-9 1q-106 0 -210.5 -42t-204 -111.5t-186.5 -160t-157.5 -186.5t-121 -191.5t-70.5 -174.5l-2 -9q-6 -23 -11.5 -43t-9.5 -41q-33 -170 0 -289.5z M403 299.5q-6 65.5 11 153.5q4 20 9 39.5t11 42.5q25 82 86.5 187t146.5 200.5t183 166t194 87.5q-66 -111 -145.5 -242t-160.5 -263t-157.5 -256t-138.5 -222q-33 41 -39 106.5zM668 143q16 27 32.5 54.5t36.5 56.5q59 92 127 196.5t137.5 212t135 213t120.5 197.5 q16 -47 15.5 -107.5t-12.5 -123.5q-4 -25 -11.5 -50.5t-15.5 -52.5q-31 -111 -89.5 -211t-134 -180t-163.5 -133t-178 -72z" />
<glyph unicode="&#xd9;" d="M168 85.5q12 -52.5 54 -89.5t114 -58.5t176 -21.5q133 0 255 38t220 98.5t164.5 138t89.5 157.5l238 842q4 10 11 25.5t11 33.5q6 39 -8 74t-80 35q-45 0 -73.5 -14.5t-47 -38t-28 -53t-15.5 -62.5l-254 -846q-10 -35 -50 -70.5t-101.5 -65.5t-141 -49.5t-167.5 -19.5 q-55 0 -94.5 21.5t-30.5 62.5l2 6l282 1004q2 14 3 35.5t-6 42t-27.5 34t-57.5 13.5t-61.5 -10.5t-41 -27.5t-26.5 -38.5t-18 -44.5q0 -2 -2 -6t-2 -6v2l-279 -994v3q-4 -8 -5 -17.5t-3 -19.5q-12 -61 0 -113.5zM795 1763l2 4v-6q6 -37 15 -63.5t23.5 -48t36 -42t50.5 -46.5 q35 -29 58.5 -50.5t33.5 -37.5q27 -41 49 -51.5t29 -10.5h2q43 16 64.5 27.5t25.5 38.5q6 25 -10 71q-12 37 -31 79t-42.5 82t-50 74t-53.5 54q-33 23 -62.5 36t-51.5 13q-70 0 -84 -76q-4 -10 -4 -22v-25z" />
<glyph unicode="&#xda;" d="M168 85.5q12 -52.5 54 -89.5t114 -58.5t176 -21.5q133 0 255 38t220 98.5t164.5 138t89.5 157.5l238 842q4 10 11 25.5t11 33.5q6 39 -8 74t-80 35q-45 0 -73.5 -14.5t-47 -38t-28 -53t-15.5 -62.5l-254 -846q-10 -35 -50 -70.5t-101.5 -65.5t-141 -49.5t-167.5 -19.5 q-55 0 -94.5 21.5t-30.5 62.5l2 6l282 1004q2 14 3 35.5t-6 42t-27.5 34t-57.5 13.5t-61.5 -10.5t-41 -27.5t-26.5 -38.5t-18 -44.5q0 -2 -2 -6t-2 -6v2l-279 -994v3q-4 -8 -5 -17.5t-3 -19.5q-12 -61 0 -113.5zM936 1477q-4 -27 10.5 -38.5t48.5 -25.5l6 -2h7q16 0 34.5 8 t63.5 54q16 16 47 37.5t78 50.5q39 27 68.5 47t52 41.5t42 48t40.5 63.5q0 2 2 3t2 3l-2 -4q6 12 9 24.5t7 22.5q14 76 -55 76q-23 0 -58.5 -13t-76.5 -36q-35 -20 -75 -54t-78 -74t-74 -82t-60 -79q-33 -45 -39 -71z" />
<glyph unicode="&#xdb;" d="M168 85.5q12 -52.5 54 -89.5t114 -58.5t176 -21.5q133 0 255 38t220 98.5t164.5 138t89.5 157.5l238 842q4 10 11 25.5t11 33.5q6 39 -8 74t-80 35q-45 0 -73.5 -14.5t-47 -38t-28 -54t-15.5 -63.5v2l-254 -846q-10 -35 -50 -70.5t-101.5 -65.5t-141 -49.5t-167.5 -19.5 q-55 0 -94.5 21.5t-30.5 62.5l2 6l282 1004q2 14 3 35.5t-6 42t-27.5 34t-57.5 13.5t-61.5 -10.5t-41 -27.5t-26.5 -38.5t-18 -44.5q0 -6 -4 -10l-279 -994v3q-4 -8 -5 -17.5t-3 -19.5q-12 -61 0 -113.5zM737 1497q-4 -23 9.5 -38t58.5 -29v2q10 -4 20 -5q23 0 48.5 14.5 t66.5 55.5l213 180l88 -174q14 -47 43 -61.5t47 -14.5q12 0 23 5q45 16 62.5 32t25.5 47l2 9q6 27 -10 65l-127 254l-2 -4q-6 35 -28 59.5t-56 24.5q-41 0 -59.5 -16.5t-37.5 -38.5l4 4l-311 -264l-6 -7q-27 -20 -43 -35.5t-27 -43.5z" />
<glyph unicode="&#xdc;" d="M168 85.5q12 -52.5 54 -89.5t114 -58.5t176 -21.5q133 0 255 38t220 98.5t164.5 138t89.5 157.5l238 842q4 10 11 25.5t11 33.5q6 39 -8 74t-80 35q-45 0 -73.5 -14.5t-47 -38t-28 -53t-15.5 -62.5l-254 -846q-10 -35 -50 -70.5t-101.5 -65.5t-141 -49.5t-167.5 -19.5 q-55 0 -94.5 21.5t-30.5 62.5l2 6l282 1004q2 14 3 35.5t-6 42t-27.5 34t-57.5 13.5t-61.5 -10.5t-41 -27.5t-26.5 -38.5t-18 -44.5q0 -6 -4 -10l-279 -994v3q-4 -8 -5 -17.5t-3 -19.5q-12 -61 0 -113.5zM721 1581q-4 -25 1 -52.5t19.5 -50t37 -37t52.5 -14.5q39 0 72 16.5 t57.5 40t41 52t22.5 53.5l2 15q4 8 6 14q4 20 4 43q0 25 -9 44t-28.5 31.5t-54.5 12.5q-39 0 -76 -15.5t-66.5 -39t-51 -51t-27.5 -54.5zM1110 1585q-4 -27 2 -53.5t21.5 -48t37 -34.5t50.5 -13q39 0 71.5 15t57 40t40 53t23.5 53q2 6 4 15.5t4 19.5q4 23 4 45q0 23 -9 40.5 t-28.5 28.5t-54.5 11q-39 0 -75.5 -15.5t-66.5 -39t-51.5 -52t-27.5 -55.5z" />
<glyph unicode="&#xdd;" d="M354 1251q-4 -25 2 -54.5t31 -61.5l289 -502l-137 -500q-8 -23 -13 -49q-10 -57 1.5 -94t62.5 -37h10q43 4 71.5 18.5t47 37t30 50t19.5 58.5l143 512l621 506q41 41 59.5 68.5t22.5 47.5q6 31 -10.5 48.5t-38.5 31.5h-2q-18 12 -39 12q-29 0 -55.5 -14t-55.5 -33 q-12 -8 -23.5 -16t-31.5 -18l-488 -402l-241 354v-4q-31 68 -58.5 113t-60.5 45h-10q-47 -10 -91 -37.5t-55 -79.5zM930 1464q-4 -27 10 -38t49 -25l6 -2h6q16 0 35 8t64 53q16 16 47 38t78 50q39 27 68.5 47.5t52 42t42 48t39.5 63.5q0 2 5 6l-2 -4q6 12 9 24.5t7 22.5 q14 76 -55 76q-23 0 -59 -13.5t-77 -35.5q-35 -20 -74.5 -54t-77.5 -74t-74 -82t-60 -79q-33 -45 -39 -72z" />
<glyph unicode="&#xde;" horiz-adv-x="1073" d="M127 68q-8 -47 9.5 -79t76.5 -40h14q33 0 55.5 14t39 38t28.5 53.5t25 60.5q4 10 7 20t7 21v2l8 35q31 0 50.5 1t29.5 1h17q102 0 223 56t230.5 150.5t195.5 216t119 250.5q4 10 6 21.5t6 23.5q27 137 -25.5 216t-193.5 79q-92 0 -189.5 -19.5t-206.5 -74.5l15 49v-2 q4 6 5 13.5t5 13.5q6 16 12 33.5t11 38.5q8 41 -5.5 69.5t-66.5 28.5t-86 -10.5t-52.5 -32t-30.5 -53t-20 -74.5v2l-303 -1069l2 2q-12 -29 -18 -55zM469 428v2l37 139l78 279q18 18 57 38.5t90 38t112.5 29t127.5 11.5q75 0 59 -78l-2 -15q-23 -86 -82 -170t-134 -150.5 t-154.5 -107.5t-147.5 -41q-47 0 -41 25z" />
<glyph unicode="&#xdf;" horiz-adv-x="2015" d="M74 105.5q10 -48.5 43 -87t90 -63.5t141 -25q100 0 224 34t240 102.5t210 175t135 252.5v4q4 12 6 16l2 12q8 47 2 86q-4 -53 13.5 -88t46 -55t67.5 -27.5t78 -7.5q53 0 104.5 11.5t106.5 27.5q8 4 21 8l-5 -2q68 18 133.5 34.5t116.5 16.5q18 0 30.5 -7t8.5 -27 q0 -4 -2 -6.5t-2 -4.5v-4q-25 -86 -86 -145.5t-135 -97t-143.5 -54t-108.5 -16.5q-31 0 -50.5 6t-30.5 14.5t-15 18.5t-6 20q-2 4 -2 11q-10 41 -28.5 72.5t-66.5 31.5q-70 0 -108.5 -36t-50.5 -85l-4 -16q-10 -49 1 -97.5t43.5 -87t90 -63.5t141.5 -25q100 0 224 34 t240 102.5t209 175t134 252.5v4l4 8t2 8l2 12q14 76 -7.5 124t-60 75t-83.5 36t-78 9q-94 0 -182.5 -22.5t-159.5 -44.5l6 2q-2 0 -7 -1t-7 -1q-35 -10 -66 -19.5t-47 -9.5q-23 0 -21 20v4q8 31 41 72t84.5 78t117 62.5t142.5 25.5q31 0 46.5 -7t23.5 -13h4q8 -6 14.5 -11.5 t12.5 -13.5l4 -6q16 -16 33.5 -24.5t64.5 -8.5q25 0 48.5 12.5t41 29.5t28.5 36.5t15 34.5l2 8q8 41 -12 75.5t-59 61.5t-93.5 41t-115.5 14q-106 0 -217 -40t-206 -107.5t-168 -156.5t-101 -185l-4 -27q-6 -23 -7 -39q-8 49 -34.5 80t-61.5 48.5t-71.5 23.5t-63.5 6 q-94 0 -183 -22.5t-159 -45.5l6 3q-2 0 -7 -1.5t-7 -1.5q-37 -10 -67 -19t-46 -9q-23 0 -20 20v4q8 31 40.5 72t84 78t117 62.5t143.5 25.5q31 0 46 -7t23 -14h4q8 -6 14.5 -11t12.5 -13l4 -6q16 -16 33.5 -24.5t64.5 -8.5q25 0 48.5 12.5t41 29.5t28.5 36.5t16 34.5v8 q8 41 -11.5 75.5t-58.5 61.5t-93.5 41t-115.5 14q-106 0 -217 -40t-206 -107.5t-168 -156.5t-101 -185l-4 -27q-12 -66 1 -107.5t42.5 -66t70.5 -34t84 -9.5q53 0 104.5 11.5t106.5 27.5q4 2 9.5 4t9.5 4l-2 -2q68 18 133 34.5t116 16.5q18 0 31 -7t8 -27q-4 -8 -4 -11 l-2 -4q-23 -86 -85 -145.5t-135 -97t-142.5 -54t-108.5 -16.5q-63 0 -80.5 20.5t-23.5 38.5q0 6 -2 11q-10 41 -27.5 72.5t-64.5 31.5q-70 0 -109 -36t-51 -85l-4 -16q-10 -49 0 -97.5z" />
<glyph unicode="&#xe0;" horiz-adv-x="978" d="M-10 59q-10 -43 7 -71.5t83 -32.5h8q47 0 88 47t86 115l162 235q16 2 30.5 3t28.5 3q68 6 110 9.5t69.5 4.5t45 2t35.5 1l9 -33q6 -25 10 -42t7 -32.5t4 -33t5 -41.5q6 -29 17.5 -70t25 -78t27.5 -63.5t26 -26.5h15q66 0 101.5 36t45.5 95q10 41 6 74q-6 49 -17 117.5 t-28 146.5v-2q-2 16 -6 33.5t-8 33.5h-2q-23 131 -43 267.5t-27 247.5q4 37 -4 68.5t-24 51.5h10h6q45 16 67.5 29.5t28.5 48.5q6 31 -8 80h-2q-10 29 -25.5 62.5t-35 64.5t-42 57.5t-42.5 42.5q-29 20 -54.5 32.5t-48.5 12.5q-37 0 -62.5 -20.5t-35.5 -65.5q-2 -12 -3 -19 t1 -17q6 -37 14 -61.5t20.5 -44t31 -37t42.5 -40.5q4 -4 10.5 -10t8.5 -8q18 -16 31.5 -27.5t17.5 -19.5q10 -18 23 -29q-4 0 -9.5 1t-9.5 1q-35 0 -73.5 -26.5t-79.5 -88.5l-617 -868q-2 -2 -10 -16v2q-10 -18 -26.5 -45t-20.5 -56zM586 588l114 166q2 -41 6.5 -82t8.5 -78 z" />
<glyph unicode="&#xe1;" horiz-adv-x="978" d="M-10 59q-10 -43 7 -71.5t83 -32.5h8q47 0 88 47t86 115l162 235q16 2 30.5 3t28.5 3q68 6 110 9.5t69.5 4.5t45 2t35.5 1l9 -33q6 -25 10 -42t7 -32.5t4 -33t5 -41.5q6 -29 17.5 -70t25 -78t27.5 -63.5t26 -26.5h15q66 0 101.5 36t45.5 95q10 41 6 74q-6 49 -17 117.5 t-28 146.5v-2q-2 16 -6 33.5t-8 33.5h-2q-23 131 -43 267.5t-27 247.5q8 66 -19.5 109.5t-74.5 43.5q-10 0 -16 -2l28 29q29 20 97 65q33 20 56.5 38t42.5 36t35.5 39.5t35.5 54.5q18 39 18 51q10 45 -7 65.5t-54 20.5q-20 0 -53 -12t-70 -33q-31 -16 -65 -44.5t-66.5 -62.5 t-61 -69t-47.5 -63v2q-31 -41 -37 -70q-6 -35 11.5 -48.5t58.5 -29.5h8h4q-37 -31 -71 -82l-617 -868q-2 -2 -10 -16v2q-10 -18 -26.5 -45t-20.5 -56zM586 588l114 166q2 -41 6.5 -82t8.5 -78z" />
<glyph unicode="&#xe2;" horiz-adv-x="978" d="M-10 59q-10 -43 7 -71.5t83 -32.5h8q47 0 88 47t86 115l162 235q16 2 30.5 3t28.5 3q68 6 110 9.5t69.5 4.5t45 2t35.5 1l9 -33q6 -25 10 -42t7 -32.5t4 -33t5 -41.5q6 -29 17.5 -70t25 -78t27.5 -63.5t26 -26.5h15q66 0 101.5 36t45.5 95q10 41 6 74q-6 49 -17 117.5 t-28 146.5v-2q-2 16 -6 33.5t-8 33.5h-2q-23 131 -43 267.5t-27 247.5q8 66 -19.5 109.5t-74.5 43.5q-35 0 -73.5 -26.5t-79.5 -88.5l-617 -868q-2 -2 -10 -16v2q-10 -18 -26.5 -45t-20.5 -56zM496 1219q-6 -27 8 -45.5t57 -34.5q2 0 6 -1t8 -1h11q23 0 47 13t65 54l144 119 l59 -115q12 -45 42 -58t48 -13q2 0 4 1t4 1h7q53 20 72.5 37.5t29.5 50.5l2 10q4 16 0 32.5t-8 35.5l-105 198q-10 29 -30.5 53.5t-55.5 24.5q-41 0 -60.5 -15.5t-35.5 -37.5l-246 -207l-8 -8q-23 -16 -37 -31.5t-24 -40.5zM586 588l114 166q2 -41 6.5 -82t8.5 -78z" />
<glyph unicode="&#xe3;" horiz-adv-x="978" d="M-10 59q-10 -43 7 -71.5t83 -32.5h8q47 0 88 47t86 115l162 235q16 2 30.5 3t28.5 3q68 6 110 9.5t69.5 4.5t45 2t35.5 1l9 -33q6 -25 10 -42t7 -32.5t4 -33t5 -41.5q6 -29 17.5 -70t25 -78t27.5 -63.5t26 -26.5h15q66 0 101.5 36t45.5 95q10 41 6 74q-6 49 -17 117.5 t-28 146.5v-2q-2 16 -6 33.5t-8 33.5h-2q-23 131 -43 267.5t-27 247.5q6 51 -10 90t-49 55q8 -2 31 -2q88 0 149 39.5t92 154.5l2 7q6 29 -19.5 53t-59.5 24q-57 0 -95 -57l33 -16q-20 -29 -38.5 -46.5t-26.5 -17.5q-6 0 -5 8q2 4 4.5 10.5t6.5 14.5q-8 4 -13 20 q-14 27 -33.5 51.5t-66.5 24.5q-31 0 -72 -14t-79.5 -39t-68.5 -55.5t-38 -63.5v-6q-6 -33 14.5 -58.5t63.5 -25.5q27 0 48 14.5t44 36.5l25 21l14 -15q10 -16 23.5 -30.5t35.5 -24.5h-6q-35 0 -73.5 -26.5t-79.5 -88.5l-617 -868q-2 -2 -10 -16v2q-10 -18 -26.5 -45 t-20.5 -56zM586 588l114 166q2 -41 6.5 -82t8.5 -78zM926 1321q2 -2 6 -2v2l4 16q-4 -4 -5 -8t-5 -8z" />
<glyph unicode="&#xe4;" horiz-adv-x="978" d="M-10 59q-10 -43 7 -71.5t83 -32.5h8q47 0 88 47t86 115l162 235q16 2 30.5 3t28.5 3q68 6 110 9.5t69.5 4.5t45 2t35.5 1l9 -33q6 -25 10 -42t7 -32.5t4 -33t5 -41.5q6 -29 17.5 -70t25 -78t27.5 -63.5t26 -26.5h15q66 0 101.5 36t45.5 95q10 41 6 74q-6 49 -17 117.5 t-28 146.5v-2q-2 16 -6 33.5t-8 33.5h-2q-23 131 -43 267.5t-27 247.5q8 66 -19.5 109.5t-74.5 43.5q-35 0 -73.5 -26.5t-79.5 -88.5l-617 -868q-2 -2 -10 -16v2q-10 -18 -26.5 -45t-20.5 -56zM539 1284q-10 -51 19.5 -98t88.5 -47q39 0 70 14t53.5 36.5t36.5 49t20 51.5 l4 15q0 4 2.5 6t2.5 6q4 23 4 45q0 23 -9.5 41t-30 29.5t-55.5 11.5q-37 0 -71.5 -14.5t-62 -37t-46 -49t-24.5 -51.5zM586 588l114 166q2 -41 6.5 -82t8.5 -78zM850 1288q-4 -25 2 -50.5t21.5 -46t37 -33.5t47.5 -13q39 0 70 14.5t53.5 38t38 49.5t21.5 51l2 13l6 12 q4 23 3 45.5t-10 40.5t-29.5 29.5t-55.5 11.5t-70 -14.5t-62.5 -38t-47 -50t-25.5 -51.5z" />
<glyph unicode="&#xe5;" horiz-adv-x="978" d="M-10 59q-10 -43 7 -71.5t83 -32.5h8q47 0 88 47t86 115l162 235q16 2 30.5 3t28.5 3q68 6 110 9.5t69.5 4.5t45 2t35.5 1l9 -33q6 -25 10 -42t7 -32.5t4 -33t5 -41.5q6 -29 17.5 -70t25 -78t27.5 -63.5t26 -26.5h15q66 0 101.5 36t45.5 95q10 41 6 74q-6 49 -17 117.5 t-28 146.5v-2q-2 16 -6 33.5t-8 33.5h-2q-23 131 -43 267.5t-27 247.5q10 86 -37 129q78 27 143 91t85 142l2 12q0 2 4 11q12 66 -16.5 114.5t-106.5 48.5q-63 0 -116.5 -25.5t-95.5 -64.5t-69.5 -86t-37.5 -90l-2 -6q-10 -53 4 -96t69 -60q-39 -29 -73 -82l-617 -868 q-2 -2 -10 -16v2q-10 -18 -26.5 -45t-20.5 -56zM586 588l114 166q2 -41 6.5 -82t8.5 -78zM862 1300q4 0 6 2l2 1l-2 -3q6 18 22.5 38t39.5 24v-4q-10 -23 -27.5 -39t-40.5 -19z" />
<glyph unicode="&#xe6;" horiz-adv-x="1609" d="M-55 -16q-4 -31 10 -51.5t61 -24.5h11q41 0 91 38t115 93l21 18l340 289h10q20 0 56 1t77 2t85 2t79 3l-45 -164l-6 -18q0 -6 -8 -22q-4 -12 -9.5 -32t-9.5 -42q-10 -59 9.5 -93t103.5 -34h12q4 0 7 1t8 1l526 39q49 2 81 12t51 25.5t28.5 35t13.5 39.5l2 13 q10 57 -17.5 80.5t-95.5 23.5h-26l-436 -37l67 248l342 37q10 2 19.5 3t19.5 1q47 0 92 21.5t62 91.5l4 14q6 37 -15.5 68.5t-103.5 31.5h-23q-10 0 -22 -2l-309 -39q23 84 37 127t22 66l375 27h14q4 0 9.5 1t9.5 1q41 0 71.5 3t53 14t38 32.5t27.5 62.5l2 15 q12 63 -22.5 82.5t-94.5 19.5q-6 0 -13 -1t-13 -1h-25q-4 0 -8 -1t-8 -1h-15q-147 -10 -229 -14.5t-129 -4.5h-111q-39 0 -85 -17t-64 -40l2 2l-997 -891q-2 -2 -2 -4l-2 -2l-11 -8q-29 -25 -65.5 -65t-44.5 -76zM819 553l178 172l-6 -31q-10 -53 -30 -116z" />
<glyph unicode="&#xe7;" horiz-adv-x="940" d="M123 371q-29 -154 11 -266.5t147 -153.5l-23 -66q-14 -27 -17 -36t-10 -35q-8 -39 1.5 -71t58.5 -40q2 0 5 -1t5 -1h8q47 0 95.5 47t72.5 113h2q4 8 6 16t7 14v-2q4 14 12 27.5t14 28.5q55 12 109.5 35.5t104.5 53t95 63.5t82 71v-4q4 6 9.5 13t11.5 13l2 3l12 16t10 14 l-32 10l-13 -65q6 4 10.5 10t10.5 12q2 0 2 3q6 8 13 15t13 15h-4q39 51 43 68q8 45 -19.5 66.5t-68.5 21.5t-90 -21.5t-92 -70.5q-16 -20 -46 -43t-64.5 -42.5t-72.5 -32.5t-69 -13q-43 0 -68.5 18.5t-37 49t-11.5 71.5t9 86q4 10 6 22.5t6 24.5q27 94 74 186.5t108.5 164 t132 116.5t142.5 45q78 0 90 -18q8 -10 15 -17.5t13 -15.5l21 -25q37 -43 57 -43q59 0 105.5 41t56.5 92q10 57 -29 101q-57 66 -129.5 89t-158.5 23q-115 0 -230 -61.5t-215 -163.5t-178 -233t-117 -273q-4 -16 -7 -32.5t-7 -32.5z" />
<glyph unicode="&#xe8;" horiz-adv-x="870" d="M88 84q-10 -59 9.5 -93t103.5 -34h12q4 0 7 1t7 1l527 39q49 0 80.5 10t50 26.5t28 36.5t13.5 40l4 12q10 57 -17.5 80.5t-95.5 23.5h-26l-437 -37l68 248l342 37q10 2 18.5 3t18.5 1q47 0 92 21.5t63 91.5l5 14q6 37 -15.5 69t-103.5 32h-23q-10 0 -22 -2l-310 -39 l54 192l381 27h14q4 0 9 1t9 1q41 0 71 3t52.5 14t39 32.5t28.5 62.5l2 15q12 63 -22.5 82.5t-94.5 19.5q-6 0 -13 -1t-13 -1h-25q-4 0 -8 -1t-8 -1h-15q-147 -10 -229 -14t-129 -4h-111q-37 0 -65.5 -13.5t-50 -34t-34 -45t-16.5 -45.5q-4 -6 0 -10q-8 -18 -10 -39 q-2 -10 -4 -19t-6 -20q-2 -12 -5 -25.5t-7 -27.5l-36 -148.5t-50 -187.5l-74 -280l-6 -19q0 -6 -9 -22q-4 -12 -9 -32t-9 -42zM597 1449q-1 -7 1 -17q6 -37 13 -61.5t19.5 -44t31 -38t45.5 -39.5q51 -41 69 -69q25 -39 47.5 -47.5t30.5 -8.5h6q45 16 67.5 29.5t28.5 48.5 q4 16 3 32.5t-9 39.5q-10 27 -24.5 60.5t-35 66.5t-43 61.5t-46.5 46.5q-29 20 -54.5 32.5t-48.5 12.5q-37 0 -62.5 -20.5t-35.5 -65.5q-2 -12 -3 -19z" />
<glyph unicode="&#xe9;" horiz-adv-x="870" d="M88 84q-10 -59 9.5 -93t103.5 -34h12q4 0 7 1t7 1l527 39q49 0 80.5 10t50 26.5t28 36.5t13.5 40l4 12q10 57 -17.5 80.5t-95.5 23.5h-26l-437 -37l68 248l342 37q10 2 18.5 3t18.5 1q47 0 92 21.5t63 91.5l5 14q6 37 -15.5 69t-103.5 32h-23q-10 0 -22 -2l-310 -39 l54 192l381 27h14q4 0 9 1t9 1q41 0 71 3t52.5 14t39 32.5t28.5 62.5l2 15q12 63 -22.5 82.5t-94.5 19.5q-6 0 -13 -1t-13 -1h-25q-4 0 -8 -1t-8 -1h-15q-147 -10 -229 -14t-129 -4h-111q-37 0 -65.5 -13.5t-50 -34t-34 -45t-16.5 -45.5q-4 -6 0 -10q-8 -18 -10 -39 q-2 -10 -4 -19t-6 -20q-2 -12 -5 -25.5t-7 -27.5l-36 -148.5t-50 -187.5l-74 -280l-6 -19q0 -6 -9 -22q-4 -12 -9 -32t-9 -42zM639 1202q-6 -35 11.5 -48t58.5 -30h8q18 0 37.5 8.5t60.5 51.5q29 20 96 65q33 23 56.5 40.5t43 37t38 44t38.5 61.5q8 14 11 36 q10 45 -8.5 65.5t-53.5 20.5q-20 0 -52 -12t-69 -33v2q-31 -16 -64.5 -44.5t-66 -62.5t-61.5 -67.5t-49 -62.5q-16 -23 -23.5 -39t-11.5 -33z" />
<glyph unicode="&#xea;" horiz-adv-x="870" d="M88 84q-10 -59 9.5 -93t103.5 -34h12q4 0 7 1t7 1l527 39q49 0 80.5 10t50 26.5t28 36.5t13.5 40l4 12q10 57 -17.5 80.5t-95.5 23.5h-26l-437 -37l68 248l342 37q10 2 18.5 3t18.5 1q47 0 92 21.5t63 91.5l5 14q6 37 -15.5 69t-103.5 32h-23q-10 0 -22 -2l-310 -39 l54 192l381 27h14q4 0 9 1t9 1q41 0 71 3t52.5 14t39 32.5t28.5 62.5l2 15q12 63 -22.5 82.5t-94.5 19.5q-6 0 -13 -1t-13 -1h-25q-4 0 -8 -1t-8 -1h-15q-147 -10 -229 -14t-129 -4h-111q-37 0 -65.5 -13.5t-50 -34t-34 -45t-16.5 -45.5q-4 -6 0 -10q-8 -18 -10 -39 q-2 -10 -4 -19t-6 -20q-2 -12 -5 -25.5t-7 -27.5l-36 -148.5t-50 -187.5l-74 -280l-6 -19q0 -6 -9 -22q-4 -12 -9 -32t-9 -42zM492 1219q-6 -27 8 -45.5t57 -34.5q2 0 6 -1t8 -1h11q23 0 48 14t66 55l140 117l55 -109l2 -2q16 -45 46 -60t48 -15q2 0 4 1t4 1h6 q53 18 74 36.5t29 55.5v6q6 31 -8 66l-103 200q-10 29 -30.5 53.5t-55.5 24.5q-45 0 -63.5 -16.5t-38.5 -40.5l-240 -203l-6 -6q-27 -20 -41 -34.5t-24 -43.5z" />
<glyph unicode="&#xeb;" horiz-adv-x="870" d="M88 84q-10 -59 9.5 -93t103.5 -34h12q4 0 7 1t7 1l527 39q49 0 80.5 10t50 26.5t28 36.5t13.5 40l4 12q10 57 -17.5 80.5t-95.5 23.5h-26l-437 -37l68 248l342 37q10 2 18.5 3t18.5 1q47 0 92 21.5t63 91.5l5 14q6 37 -15.5 69t-103.5 32h-23q-10 0 -22 -2l-310 -39 l54 192l381 27h14q4 0 9 1t9 1q41 0 71 3t52.5 14t39 32.5t28.5 62.5l2 15q12 63 -22.5 82.5t-94.5 19.5q-6 0 -13 -1t-13 -1h-25q-4 0 -8 -1t-8 -1h-15q-147 -10 -229 -14t-129 -4h-111q-37 0 -65.5 -13.5t-50 -34t-34 -45t-16.5 -45.5q-4 -6 0 -10q-8 -18 -10 -39 q-2 -10 -4 -19t-6 -20q-2 -12 -5 -25.5t-7 -27.5l-36 -148.5t-50 -187.5l-74 -280l-6 -19q0 -6 -9 -22q-4 -12 -9 -32t-9 -42zM535 1233.5q6 -25.5 20 -47t36.5 -34.5t51.5 -13q39 0 69.5 14t53 36.5t38 49t21.5 51.5l6 23q4 23 5.5 46t-7 41.5t-29 31t-57.5 12.5 t-71.5 -14.5t-62 -36t-47 -48t-25.5 -51.5l-2 -8q-6 -27 0 -52.5zM846 1290q-4 -25 1 -51.5t20.5 -47t38 -33.5t50.5 -13q39 0 69 14.5t52.5 38t38 49.5t21.5 51l4 15q0 4 4 12q8 45 -6.5 85t-83.5 40q-37 0 -72 -14.5t-62.5 -37t-47 -49t-25.5 -51.5z" />
<glyph unicode="&#xec;" horiz-adv-x="364" d="M82 76q-10 -47 8.5 -80t77.5 -41h20q33 0 55.5 14.5t40 40t32 61t30.5 79.5l-6 -7l227 805q2 4 3 11.5t3 11.5q4 8 5 14q4 10 7 22.5t7 22.5q8 43 -5.5 71.5t-70.5 28.5q-49 0 -81 -9t-51 -29.5t-29.5 -50t-18.5 -68.5l2 2l-242 -848q-6 -18 -14 -51zM353 1449 q-1 -7 1 -17q6 -37 14.5 -61.5t20.5 -44t29.5 -37t42.5 -40.5q27 -23 44 -39t23 -26q25 -41 49.5 -50.5t32.5 -9.5h6q45 16 68 29.5t29 48.5q4 16 3 32.5t-9 39.5q-10 29 -25.5 62.5t-35 67.5t-43 62.5t-48.5 44.5v-2q-29 20 -54.5 32.5t-45.5 12.5q-35 0 -61.5 -20.5 t-37.5 -65.5q-2 -12 -3 -19z" />
<glyph unicode="&#xed;" horiz-adv-x="364" d="M82 76q-10 -47 8.5 -80t77.5 -41h20q33 0 55.5 14.5t40 40t32 61t30.5 79.5l-6 -7l227 805q2 4 3 11.5t3 11.5q4 8 5 14q4 10 7 22.5t7 22.5q8 43 -5.5 71.5t-70.5 28.5q-49 0 -79.5 -9t-50 -28.5t-30 -48t-18.5 -67.5l-242 -850q-6 -18 -14 -51zM332 1202.5 q-6 -28.5 9 -44t50 -30.5l12 -4h7q18 0 37.5 8.5t60.5 51.5q29 20 96 65q33 23 57.5 40.5t45 37t39 44t36.5 61.5q8 14 11 36q10 45 -7.5 65.5t-54.5 20.5q-25 0 -57.5 -12t-69.5 -33q-29 -16 -61.5 -44.5t-64.5 -62.5t-60.5 -68t-48.5 -62q-31 -41 -37 -69.5z" />
<glyph unicode="&#xee;" horiz-adv-x="364" d="M82 76q-10 -47 8.5 -80t77.5 -41h20q33 0 55.5 14.5t40 40t32 61t30.5 79.5l-6 -7l227 805q2 4 3 11.5t3 11.5q4 8 5 14q4 10 7 22.5t7 22.5q8 43 -5.5 71.5t-70.5 28.5q-49 0 -81 -9t-51 -29.5t-29.5 -50t-18.5 -68.5l2 2l-242 -848q-6 -18 -14 -51zM213 1219 q-6 -27 8.5 -45.5t57.5 -34.5q2 0 6 -1t8 -1h10q23 0 47.5 13t65.5 54l-2 -2l143 121l55 -109l2 -2l4 -4q16 -41 44 -56t47 -15q2 0 4 1t4 1h6q53 18 73.5 36.5t28.5 55.5v6q6 31 -8 66l-102 200q-10 29 -30.5 53.5t-55.5 24.5q-45 0 -63.5 -16.5t-39.5 -40.5l-239 -203 l-6 -6q-27 -20 -41.5 -34.5t-24.5 -43.5z" />
<glyph unicode="&#xef;" horiz-adv-x="364" d="M82 76q-10 -47 8.5 -80t77.5 -41h20q33 0 55.5 14.5t40 40t32 61t30.5 79.5l-6 -7l227 805q2 4 3 11.5t3 11.5q4 8 5 14q4 10 7 22.5t7 22.5q8 43 -5.5 71.5t-70.5 28.5q-49 0 -79.5 -9t-50 -28.5t-30 -48t-18.5 -67.5l-242 -850q-6 -18 -14 -51zM238 1278 q-4 -27 1 -52.5t19 -47t36.5 -35t51.5 -13.5q39 0 69.5 14.5t54.5 37t39 49t21 51.5l5 23q4 23 5 46t-7.5 41.5t-29 31t-57.5 12.5t-71.5 -14.5t-62 -36t-47 -48t-25.5 -51.5zM551 1282q-10 -51 19.5 -98t88.5 -47q39 0 69 14t52.5 37.5t38 50t21.5 51.5l4 15q0 4 2 6t2 6 q4 23 4 45q0 23 -9 40t-29.5 28.5t-55.5 11.5q-37 0 -72 -14.5t-62.5 -37t-47 -49t-25.5 -51.5v-8z" />
<glyph unicode="&#xf0;" horiz-adv-x="993" d="M57 575q-10 -45 13.5 -81.5t87.5 -36.5h35l-72 -256q-2 -4 -4 -11.5t-2 -11.5l-4 -16q-4 -16 -8.5 -32.5t-8.5 -35.5q-12 -59 1.5 -99t78.5 -40q47 0 129 17.5t180.5 55.5t206 98t203.5 146t173 199t118 256q4 10 6 20.5t4 24.5q14 76 5 146.5t-47 125t-104.5 87 t-164.5 32.5q-117 0 -199 -21.5t-154 -43.5q-4 -2 -12 -4t-18 -4l-27 -9q-68 -23 -105.5 -69.5t-48.5 -98.5q-6 -23 -6 -34l-53 -187h-14q-27 0 -37 -2h4q-2 0 -4 -1t-4 -1h-6q-63 0 -98 -35t-44 -78zM362 217l68 242h100q57 0 95.5 35.5t46.5 78.5q10 43 -16.5 80 t-102.5 37h-57l49 180q53 27 121.5 47.5t142.5 20.5q47 0 76.5 -15.5t45 -41t18.5 -59.5t-3 -68l-4 -19q-33 -115 -99.5 -202t-148.5 -150.5t-170 -104t-162 -61.5z" />
<glyph unicode="&#xf1;" horiz-adv-x="1069" d="M78 70q-25 -117 96 -117h14q53 6 89 42t45 83q4 10 3 16t-1 12l149 537l4 -6q2 -4 3 -7t5 -7q6 -10 11.5 -22.5t11.5 -22.5q27 -53 52.5 -104.5t41.5 -100.5q10 -31 30.5 -77t45 -95t48.5 -96.5t40 -79.5l4 -7q6 -20 26.5 -39.5t92.5 -19.5q31 0 53.5 14.5t38.5 34 t28.5 43t18.5 41.5v4l250 895q2 6 4 13.5t4 13.5l2 16q12 63 -6 89t-88 26q-39 0 -63.5 -12.5t-40 -31t-24.5 -41t-15 -42.5q0 -2 -2 -5t-2 -5v-2l-170 -607q-4 6 -6.5 10.5t-4.5 10.5q-25 43 -42 77t-32.5 63.5t-27.5 57t-25 56.5h4q-14 33 -38.5 88t-47.5 100h2l5 -4v2 l-2 2h2h-2q0 2 -3 2v6l-16 32l-10 20q-4 4 -8 20.5t-19 73.5q-6 14 -14 33.5t-21.5 37t-33 28.5t-45.5 11q-29 0 -51.5 -5t-41 -21.5t-35 -47t-30.5 -79.5l-244 -864l-2 -2q-4 -10 -6 -19.5t-4 -21.5zM565 1235q-6 -35 15.5 -60.5t64.5 -25.5q27 0 47.5 14.5t44.5 36.5 l18.5 18.5t12.5 8.5l6 -21q16 -23 39 -44t80 -21q88 0 149.5 39.5t94.5 154.5v6q6 29 -17.5 53.5t-58.5 24.5q-27 0 -52.5 -13t-45.5 -44l34 -16q-23 -29 -40 -46.5t-25 -17.5q-6 0 -6 8q2 8 12 25q-6 4 -10 20q-14 27 -32.5 50.5t-72.5 23.5q-31 0 -71.5 -14.5t-78.5 -38 t-68 -53t-38 -60.5zM895 285l16 8l-8 -12zM938 1315q2 -2 6 -2v2l2 16l-4 -8z" />
<glyph unicode="&#xf2;" horiz-adv-x="1044" d="M123 375q-41 -211 37 -329t262 -118q119 0 240.5 53.5t228 145.5t188.5 216t121 263q4 23 10.5 46.5t10.5 45.5q14 80 15 153t-18.5 133t-62.5 104.5t-117 64.5q23 16 29 49q6 31 -8 70v-2q-8 29 -23.5 63.5t-36 68.5t-43 62.5t-47.5 44.5q-29 20 -55.5 32.5t-46.5 12.5 q-37 0 -62.5 -20.5t-35.5 -65.5q-2 -14 -3 -27.5t1 -23.5q4 -31 12 -52.5t20.5 -39.5t30.5 -35.5t45 -40t44.5 -39t23.5 -26.5q6 -12 12 -19q-86 -8 -170 -46t-163 -95t-148.5 -130t-123.5 -149.5t-93 -151.5t-56 -138q-4 -20 -9 -41t-9 -39zM360 385q2 12 6.5 28.5 t8.5 32.5q20 68 71.5 154t121 162t149.5 128t155 52q47 0 74 -20.5t39 -55.5t11 -80t-9 -94q-4 -20 -9 -39t-11 -39q-27 -92 -78 -175t-116.5 -146.5t-141.5 -100t-152 -36.5q-84 0 -112.5 62.5t-6.5 166.5z" />
<glyph unicode="&#xf3;" horiz-adv-x="1044" d="M123 375q-41 -211 37 -329t262 -118q119 0 240.5 53.5t228 145.5t188.5 216t121 263q4 23 10.5 46.5t10.5 45.5q18 90 17 173t-30.5 147.5t-91 104.5t-166.5 44q10 10 15 17q8 8 26.5 19t40.5 28q-4 -4 8.5 5t20.5 13q33 23 57.5 40.5t45 37t39 44t36.5 61.5q8 14 10 36 q10 45 -7 65.5t-54 20.5q-25 0 -57.5 -12t-69.5 -33q-27 -16 -58.5 -42.5t-62.5 -58.5t-59.5 -64.5t-49.5 -61.5q-20 -27 -28 -45t-12 -35q-6 -37 14 -53q-117 -33 -226.5 -113t-198.5 -180t-152.5 -207.5t-86.5 -193.5q-4 -20 -9 -41t-9 -39zM360 385q2 12 6.5 28.5 t8.5 32.5q20 68 71.5 154t121 162t149.5 128t155 52q47 0 74 -20.5t39 -55.5t11 -80t-9 -94q-4 -20 -9 -39t-11 -39q-27 -92 -78 -175t-116.5 -146.5t-141.5 -100t-152 -36.5q-84 0 -112.5 62.5t-6.5 166.5z" />
<glyph unicode="&#xf4;" horiz-adv-x="1044" d="M123 375q-41 -211 37 -329t262 -118q119 0 240.5 53.5t228 145.5t188.5 216t121 263q4 23 10.5 46.5t10.5 45.5q18 92 17 177.5t-32.5 150t-98.5 103t-177 38.5q-133 0 -262 -74.5t-237.5 -184t-185.5 -232.5t-104 -221q-4 -20 -9 -41t-9 -39zM360 385q2 12 6.5 28.5 t8.5 32.5q20 68 71.5 154t121 162t149.5 128t155 52q47 0 74 -20.5t39 -55.5t11 -80t-9 -94q-4 -20 -9 -39t-11 -39q-27 -92 -78 -175t-116.5 -146.5t-141.5 -100t-152 -36.5q-84 0 -112.5 62.5t-6.5 166.5zM618 1219q-6 -27 8.5 -45.5t57.5 -34.5q2 0 6 -1t8 -1h11 q23 0 47 13t65 54l144 119l59 -115q12 -45 42 -58t48 -13q2 0 4 1t4 1h6q53 20 73 37.5t30 50.5l2 10q4 16 0 32.5t-8 35.5l-105 198q-10 29 -30.5 53.5t-55.5 24.5q-41 0 -60.5 -15.5t-35.5 -37.5l-246 -207l-8 -8q-23 -16 -37 -31.5t-24 -40.5z" />
<glyph unicode="&#xf5;" horiz-adv-x="1044" d="M123 375q-41 -211 37 -329t262 -118q119 0 240.5 53.5t228 145.5t188.5 216t121 263q4 23 10.5 46.5t10.5 45.5q14 78 16 151t-16.5 133t-60.5 104t-111 65q66 12 108.5 55t67.5 135l2 7q6 29 -18.5 53t-59.5 24q-27 0 -51.5 -13t-44.5 -44l32 -16q-20 -29 -38.5 -46.5 t-26.5 -17.5q-6 0 -4 8q2 4 4 10.5t6 14.5q-6 4 -10 18q-16 27 -35.5 52.5t-67.5 25.5q-31 0 -71.5 -14t-79.5 -39t-67.5 -54.5t-37.5 -60.5l-2 -8q-6 -33 15.5 -59.5t64.5 -26.5q27 0 47.5 14.5t42.5 36.5q10 10 19.5 18.5t13.5 8.5q-4 0 6 -21q8 -12 16.5 -24t24.5 -23 q-86 -4 -171 -41t-165 -95t-150.5 -131t-125.5 -150.5t-95 -153.5t-57 -139q-4 -20 -9 -41t-9 -39zM360 385q2 12 6.5 28.5t8.5 32.5q20 68 71.5 154t121 162t149.5 128t155 52q47 0 74 -20.5t39 -55.5t11 -80t-9 -94q-4 -20 -9 -39t-11 -39q-27 -92 -78 -175t-116.5 -146.5 t-141.5 -100t-152 -36.5q-84 0 -112.5 62.5t-6.5 166.5zM1026 1321q2 -2 6 -2v2l4 16q-4 -4 -5 -8t-5 -8z" />
<glyph unicode="&#xf6;" horiz-adv-x="1044" d="M123 375q-41 -211 37 -329t262 -118q119 0 240.5 53.5t228 145.5t188.5 216t121 263q4 23 10.5 46.5t10.5 45.5q14 76 16 148t-14.5 131t-55.5 103t-104 67q59 12 97 59t50 92l4 15q0 4 5 12q8 45 -6.5 85t-84.5 40q-37 0 -71.5 -14.5t-62 -37t-47 -49t-25.5 -51.5l-2 -8 q-6 -35 6 -68.5t41 -56.5q-10 2 -19 2h-18q-133 0 -262 -74.5t-237.5 -184t-185.5 -232.5t-104 -221q-4 -20 -9 -41t-9 -39zM360 385q2 12 6.5 28.5t8.5 32.5q20 68 71.5 154t121 162t149.5 128t155 52q47 0 74 -20.5t39 -55.5t11 -80t-9 -94q-4 -20 -9 -39t-11 -39 q-27 -92 -78 -175t-116.5 -146.5t-141.5 -100t-152 -36.5q-84 0 -112.5 62.5t-6.5 166.5zM608 1233.5q6 -25.5 20.5 -47t37 -34.5t51.5 -13q39 0 69.5 14t53 36.5t38 49t21.5 51.5l6 23q4 23 5 46t-7 41.5t-28.5 31t-57.5 12.5t-71.5 -14.5t-62.5 -36t-47.5 -48t-25.5 -51.5 l-2 -8q-6 -27 0 -52.5z" />
<glyph unicode="&#xf7;" horiz-adv-x="790" d="M145 449q-10 -45 14.5 -82t88.5 -37q2 0 22 -4q10 -2 22.5 -3t26.5 -1q29 0 46 10l270 2l141 2q57 0 95 35t49 78q8 43 -21 79.5t-106 36.5q-8 0 -15.5 1t-17.5 1h4q-10 2 -23 2h-20q-23 0 -47 -6h-279q-4 2 -24 2q-12 0 -29.5 -1t-30.5 -3q-10 -2 -16 -2h-8 q-61 0 -97 -35t-45 -75zM233 88q-6 -31 1.5 -61.5t24.5 -55t43 -40t58 -15.5q45 0 83 18.5t66 46t45 60.5t26 61v-2q2 8 4 17.5t4 19.5q4 25 4 51q0 27 -9.5 47.5t-32 34t-61.5 13.5q-45 0 -87 -17.5t-75.5 -44t-57 -58.5t-31.5 -63zM461 737.5q6 -30.5 23.5 -55.5t43 -40 t58.5 -15q45 0 83 18.5t65.5 46t45 60t25.5 61.5v-2q4 12 8 37q6 25 6 51q0 27 -10 47.5t-32.5 33.5t-61.5 13q-45 0 -87 -17.5t-76 -44t-57.5 -58t-31.5 -62.5l-2 -12q-6 -31 0 -61.5z" />
<glyph unicode="&#xf8;" horiz-adv-x="1044" d="M119.5 140.5q25.5 -97.5 97.5 -150.5q-29 -55 -35 -86q-10 -49 12.5 -71.5t84.5 -22.5q51 0 86.5 39.5t62.5 78.5q119 2 239.5 55.5t226 145.5t186.5 215t120 262q4 23 10.5 45.5t10.5 44.5q23 117 11.5 221.5t-79.5 169.5q14 25 27.5 53.5t17.5 53.5q10 41 -7 68.5 t-69 27.5q-80 0 -115.5 -32.5t-54.5 -65.5q-4 -6 -6 -11t-6 -10v3q-2 -2 -2 -9l-4 -4t-4 -6q0 8 8 10q-2 0 -4 1t-4 1q-133 0 -262 -74.5t-237.5 -184t-185.5 -232.5t-104 -221q-4 -20 -10 -42t-10 -40q-27 -135 -1.5 -232.5zM358 381q4 12 8.5 27.5t8.5 31.5v6 q16 57 58 130t99.5 142.5t124 125t134.5 80.5q-41 -72 -90.5 -151t-98.5 -159q-33 -53 -64.5 -106t-64.5 -105q-49 -84 -92 -153q-4 -8 -9 -15.5t-10 -13.5q-23 61 -4 160zM586 172l4 4q6 10 11 18.5t11 18.5q43 68 92.5 142.5t99.5 152.5t99 155.5t92 149.5q4 -63 -8 -123 q-4 -16 -9 -33.5t-9 -35.5l-2 -7q-23 -78 -61 -148.5t-89 -128.5t-110.5 -101.5t-120.5 -63.5z" />
<glyph unicode="&#xf9;" horiz-adv-x="1001" d="M113 79q10 -46 46 -80t97 -52.5t152 -18.5q111 0 214 32t186 84t138.5 118.5t73.5 134.5l190 672q4 10 9.5 23.5t9.5 27.5q4 20 3 39.5t-10.5 35t-30 25.5t-52.5 10q-43 0 -72 -12t-46 -33.5t-25.5 -49t-14.5 -58.5l-207 -678q-8 -25 -36.5 -50.5t-74 -46t-103.5 -33.5 t-124 -13q-35 0 -59.5 10t-20.5 33v2l228 803q2 16 3 37.5t-7.5 42t-28 33.5t-57.5 13q-37 0 -61.5 -10t-40 -25.5t-26 -37t-18.5 -41.5q0 -6 -4 -10v-2l-223 -795q-2 -4 -3 -8t-3 -8l-2 -13q-10 -55 0 -101zM615 1449q-1 -7 1 -17q6 -37 14.5 -61.5t21 -44t29.5 -37 t42 -40.5q27 -23 44 -39t24 -26q25 -41 49 -50.5t32 -9.5h7q45 16 67.5 29.5t28.5 48.5q4 16 3 32.5t-9 39.5q-10 29 -25.5 62.5t-35 67.5t-43 62.5t-48.5 44.5v-2q-29 20 -54.5 32.5t-45.5 12.5q-35 0 -61.5 -20.5t-37.5 -65.5q-2 -12 -3 -19z" />
<glyph unicode="&#xfa;" horiz-adv-x="1001" d="M113 79q10 -46 46 -80t97 -52.5t152 -18.5q111 0 214 32t186 84t138.5 118.5t73.5 134.5l190 672q4 10 9.5 23.5t9.5 27.5q4 20 3 39.5t-10.5 35t-30 25.5t-52.5 10q-43 0 -72 -12t-46 -33.5t-25.5 -49t-14.5 -58.5l-207 -678q-8 -25 -36.5 -50.5t-74 -46t-103.5 -33.5 t-124 -13q-35 0 -59.5 10t-20.5 33v2l228 803q2 16 3 37.5t-7.5 42t-28 33.5t-57.5 13q-37 0 -61.5 -10t-40 -25.5t-26 -37t-18.5 -41.5q0 -6 -4 -10v-2l-223 -795q-2 -4 -3 -8t-3 -8l-2 -13q-10 -55 0 -101zM729 1202q-6 -35 11.5 -48t58.5 -30h8q18 0 37.5 8.5t60.5 51.5 q29 20 96 65q33 23 56.5 40.5t43 37t38 44t39.5 61.5q8 14 10 36q10 45 -8.5 65.5t-53.5 20.5q-20 0 -52 -12t-68 -33v2q-31 -16 -65 -44.5t-66.5 -62.5t-61.5 -67.5t-49 -62.5q-16 -23 -23.5 -39t-11.5 -33z" />
<glyph unicode="&#xfb;" horiz-adv-x="1001" d="M113 79q10 -46 46 -80t97 -52.5t152 -18.5q111 0 214 32t186 84t138.5 118.5t73.5 134.5l190 672q4 10 9.5 23.5t9.5 27.5q4 20 3 39.5t-10.5 35t-30 25.5t-52.5 10q-45 0 -73 -13t-45 -34.5t-25.5 -50t-14.5 -57.5l-207 -676q-8 -25 -36.5 -50.5t-74 -46t-103.5 -33.5 t-124 -13q-35 0 -59.5 10t-20.5 33v2l228 803q2 16 3 37.5t-7.5 42t-28 33.5t-57.5 13q-37 0 -61.5 -10t-40 -25.5t-26 -37t-18.5 -41.5q0 -6 -4 -10v-2l-223 -795q-2 -4 -3 -8t-3 -8l-2 -13q-10 -55 0 -101zM569 1219q-6 -27 8.5 -45.5t57.5 -34.5q2 0 6 -1t8 -1h10 q23 0 47.5 13t65.5 54l143 119l60 -115q12 -45 42 -58t48 -13q2 0 4 1t4 1h6q53 20 73 37.5t30 50.5l2 10q4 16 0 32.5t-8 35.5l-105 198q-10 29 -30.5 53.5t-55.5 24.5q-41 0 -60.5 -15.5t-35.5 -37.5l-246 -207l-8 -8q-23 -16 -37 -31.5t-25 -40.5z" />
<glyph unicode="&#xfc;" horiz-adv-x="1001" d="M113 79q10 -46 46 -80t97 -52.5t152 -18.5q111 0 214 32t186 84t138.5 118.5t73.5 134.5l190 672q4 10 9.5 23.5t9.5 27.5q4 20 3 39.5t-10.5 35t-30 25.5t-52.5 10q-45 0 -73 -13t-45 -34.5t-25.5 -50t-14.5 -57.5l-207 -676q-8 -25 -36.5 -50.5t-74 -46t-103.5 -33.5 t-124 -13q-35 0 -59.5 10t-20.5 33v2l228 803q2 16 3 37.5t-7.5 42t-28 33.5t-57.5 13q-37 0 -61.5 -10t-40 -25.5t-26 -37t-18.5 -41.5q0 -6 -4 -10v-2l-223 -795q-2 -4 -3 -8t-3 -8l-2 -13q-10 -55 0 -101zM557 1284q-10 -51 19.5 -98t89.5 -47q39 0 69.5 14t53 36.5 t37 49t20.5 51.5l4 15q0 4 2 6t2 6q4 23 4 45q0 23 -9 41t-29.5 29.5t-55.5 11.5q-37 0 -72 -14.5t-62.5 -37t-46 -49t-24.5 -51.5zM868 1288q-4 -25 2.5 -50.5t21.5 -46t36.5 -33.5t48.5 -13q37 0 66.5 14.5t53 36t39 47.5t21.5 51q4 6 5 15.5t3 19.5q4 23 4 43 q0 23 -9 40.5t-29.5 27.5t-55.5 10t-69.5 -14.5t-62.5 -38t-47 -50t-26 -51.5z" />
<glyph unicode="&#xfd;" horiz-adv-x="1001" d="M262 1022q-10 -43 29 -109l225 -393l-104 -383q-4 -10 -6.5 -22.5t-6.5 -26.5q-10 -57 2.5 -93t67.5 -36h12q41 2 69 16.5t46 35t28.5 46t16.5 54.5l113 401l489 399q39 35 56.5 62.5t21.5 48.5q6 35 -5 50t-30 26l4 -4q-2 2 -4 2t-4 2l-29 -25l19 29h6l-2 2h2 q-16 6 -28.5 10t-22.5 4q-27 0 -50.5 -12t-52.5 -29q-25 -16 -47 -28l-366 -304l-201 291q-23 45 -43.5 74t-48.5 29h-15q-45 -10 -88 -37t-53 -80zM723 1192q-6 -29 9.5 -44t49.5 -30l13 -4h6q18 0 37.5 8t60.5 52q29 20 96 65q33 23 56.5 40t44 36.5t39 44t39.5 61.5 q8 14 10 37q10 45 -7.5 65.5t-54.5 20.5q-25 0 -57.5 -12t-69.5 -33q-29 -16 -60.5 -44t-64 -61.5t-61.5 -68.5t-49 -65v2q-31 -41 -37 -70zM1278 1104q2 -2 6 -2h-2z" />
<glyph unicode="&#xfe;" horiz-adv-x="858" d="M82 76q-10 -47 8.5 -80t77.5 -41h12q35 0 58.5 13.5t40 35t27.5 50t22 57.5q2 4 4 9t2 9l2 4q0 2 2 6l2 4v7q8 0 15.5 1t11.5 1h26q88 0 188.5 47t192.5 124.5t164 179t100 210.5l4 20q0 4 2.5 10.5t4.5 10.5q23 121 -23.5 189.5t-173.5 68.5q-68 0 -137.5 -11.5 t-145.5 -44.5q0 6 4.5 14.5t4.5 14.5q4 10 7 22.5t7 22.5q8 43 -5.5 71.5t-70.5 28.5q-49 0 -79.5 -9t-50 -28.5t-30 -48t-18.5 -67.5l-242 -850q-6 -18 -14 -51zM403 367l29 106l62 217q33 25 111.5 51.5t170.5 26.5q35 0 29 -35l-4 -12q-16 -66 -60.5 -129.5t-99.5 -112.5 t-114.5 -79.5t-108.5 -30.5q-14 0 -15 -2z" />
<glyph unicode="&#xff;" horiz-adv-x="1001" d="M262 1022q-10 -43 29 -109l225 -393l-104 -383q-4 -10 -6.5 -22.5t-6.5 -26.5q-10 -57 2.5 -93t67.5 -36h12q41 2 69 16.5t46 35t28.5 46t16.5 54.5l113 401l489 399q39 35 56.5 62.5t21.5 48.5q6 35 -5 50t-30 26l2 -2q-4 2 -10 8q-16 6 -28.5 10t-22.5 4 q-27 0 -50.5 -12t-52.5 -29q-25 -16 -47 -28l-366 -304l-201 291q-23 45 -43.5 74t-48.5 29h-15q-45 -10 -88 -37t-53 -80zM565 1220.5q6 -26.5 20.5 -48t37 -35t51.5 -13.5q39 0 68.5 15.5t53 38t38 48t22.5 48.5l4 24q4 20 5 44t-6 44.5t-27.5 33t-57.5 12.5t-71.5 -14.5 t-62.5 -36t-47.5 -48t-25.5 -51.5l-2 -8q-6 -27 0 -53.5zM877 1278q-4 -25 1 -50.5t19 -47t36.5 -36t51.5 -14.5q39 0 69.5 15.5t53 38t38 49t21.5 51.5l2 14q4 8 5 13q4 23 4 45q0 23 -9.5 41t-30 29.5t-55.5 11.5q-37 0 -71.5 -14.5t-62 -37t-46 -49t-24.5 -51.5z M1278 1104q2 -2 6 -2l-2 1t-4 1z" />
<glyph unicode="&#x152;" horiz-adv-x="1996" d="M178 444q-47 -248 43 -388t307 -140q135 0 269.5 55.5t257.5 151.5l-4 -14q-10 -59 10 -93t106 -34h17q4 0 9 1t9 1l653 47q102 0 140.5 35.5t44.5 74.5l4 13q10 57 -17.5 79.5t-97.5 22.5h-35l-579 -49l102 373l455 49q10 2 22.5 3t24.5 1q49 0 93 20.5t67 91.5l2 15 q8 35 -15.5 65.5t-109.5 30.5h-25q-12 0 -26 -2l-426 -53l88 305l499 33q10 0 21.5 1t21.5 1q45 2 78 4t56.5 13t40 33.5t28.5 63.5l4 15q10 59 -23.5 78.5t-90.5 19.5q-18 0 -36 -1t-38 -3q-10 0 -18.5 -1t-16.5 -1q-182 -12 -286.5 -17.5t-164.5 -5.5h-139q-27 0 -49 -8 t-39 -18q-45 41 -108.5 65.5t-155.5 24.5q-106 0 -210.5 -42t-204 -111.5t-186.5 -160t-157.5 -186.5t-121 -191.5t-70.5 -174.5v-5q-6 -23 -12.5 -45t-10.5 -43zM414 455q4 18 9 35.5t9 37.5l2 7q16 59 53 129.5t88.5 142.5t113 139.5t129 119.5t137 84t137.5 32 q57 0 94 -21.5t57.5 -57.5t25.5 -84t1 -101q-16 -61 -33.5 -131t-40.5 -150l2 2q-43 -104 -109.5 -196.5t-148.5 -160t-172 -106.5t-180 -39q-121 0 -162 86t-12 232z" />
<glyph unicode="&#x153;" horiz-adv-x="1597" d="M123 375q-41 -211 37 -329t262 -118q98 0 198.5 38t196.5 104q-2 -41 22.5 -64.5t90.5 -23.5h22q12 0 21 2l2 2l512 34q49 0 80.5 10.5t51 27t29 36t13.5 39.5l2 12q10 57 -17.5 81t-95.5 24h-26l-437 -37l68 250l342 37h25q4 0 7 1t7 1q47 0 92 21.5t62 90.5l4 17 q8 37 -15.5 68.5t-105.5 31.5h-23q-10 0 -20 -2l-311 -41l57 193l379 26h14q4 0 9 1t10 1q41 0 70.5 3t52 14.5t39 33t28.5 62.5l2 14q12 63 -22.5 83t-94.5 20q-6 0 -13 -1t-13 -1h-25q-4 0 -8 -1t-8 -1h-15q-145 -10 -228 -14.5t-130 -4.5h-111q-39 0 -71 -16 q-37 31 -88.5 49t-122.5 18q-133 0 -262 -74.5t-237.5 -184t-185.5 -232.5t-104 -221q-4 -20 -9 -41t-9 -39zM360 385q2 12 6.5 28.5t8.5 32.5q20 68 71.5 154t121 162t149.5 128t155 52q78 0 105 -56.5t16 -133.5q-8 -33 -16 -67t-19 -73q-2 -10 -4 -17t-4 -15 q-4 -10 -8 -27q0 -8 -4 -12q-33 -82 -83 -152t-111.5 -122t-129 -81.5t-135.5 -29.5q-84 0 -112.5 62.5t-6.5 166.5z" />
<glyph unicode="&#x178;" d="M354 1251q-4 -25 2 -54.5t31 -61.5l289 -502l-137 -500q-8 -23 -13 -49q-10 -57 1.5 -94t62.5 -37h10q43 4 71.5 18.5t47 37t30 50t19.5 58.5l143 512l621 506q41 41 59.5 68.5t22.5 47.5q6 31 -10.5 48.5t-38.5 31.5h-2q-18 12 -39 12q-29 0 -55.5 -14t-55.5 -33 q-12 -8 -23.5 -16t-31.5 -18l-488 -402l-241 354v-4q-31 68 -58.5 113t-60.5 45h-10q-47 -10 -91 -37.5t-55 -79.5zM733 1512.5q6 -27.5 20.5 -50t37 -37t53.5 -14.5q39 0 71.5 16.5t56 40t40 52t22.5 53.5l4 14q0 2 4 15q4 20 5 43q0 25 -9.5 44t-29 31.5t-54.5 12.5 q-39 0 -75.5 -15.5t-66.5 -39t-50.5 -51.5t-28.5 -54v-8q-6 -25 0 -52.5zM1122 1515.5q6 -26.5 21.5 -48t38 -35t51.5 -13.5q39 0 71.5 15.5t56 40t40 53t22.5 53.5q4 6 5.5 15.5t3.5 19.5q4 23 4 45q0 23 -9.5 40t-29 28.5t-54.5 11.5q-39 0 -75.5 -15.5t-66.5 -39 t-50.5 -52t-26.5 -55.5l-2 -10q-6 -27 0 -53.5z" />
<glyph unicode="&#x2c6;" horiz-adv-x="819" d="M356 1087q-4 -23 10.5 -38t57.5 -29v2q10 -4 14 -4h8q23 0 47.5 14.5t65.5 54.5l213 181l88 -174q14 -47 44 -61.5t48 -14.5q12 0 21 4q45 16 62.5 32.5t27.5 47.5v8q6 25 -8 66l-129 254l-2 -5q-4 35 -27 59.5t-57 24.5q-41 0 -59.5 -16t-37.5 -39l5 4l-312 -264l-6 -6 q-27 -20 -43 -35.5t-27 -44.5z" />
<glyph unicode="&#x2dc;" horiz-adv-x="1007" d="M459 1116q-6 -33 13.5 -54.5t59.5 -21.5q25 0 46.5 15.5t46.5 38.5q16 16 33.5 29.5t29.5 13.5q4 0 11.5 -9.5t13.5 -19.5l-2 2q16 -27 43.5 -53.5t89.5 -26.5q98 0 164.5 44t101.5 171l2 4q4 27 -18.5 47.5t-55.5 20.5q-23 0 -47 -12.5t-41 -40.5l-10 -25 q-8 -18 -18.5 -36.5t-28.5 -18.5q-14 0 -22.5 13t-18.5 30q-12 29 -33.5 53.5t-75.5 24.5q-35 0 -80 -15.5t-86.5 -42t-74.5 -59.5t-41 -66z" />
<glyph unicode="&#x2000;" horiz-adv-x="959" />
<glyph unicode="&#x2001;" horiz-adv-x="1919" />
<glyph unicode="&#x2002;" horiz-adv-x="959" />
<glyph unicode="&#x2003;" horiz-adv-x="1919" />
<glyph unicode="&#x2004;" horiz-adv-x="639" />
<glyph unicode="&#x2005;" horiz-adv-x="479" />
<glyph unicode="&#x2006;" horiz-adv-x="319" />
<glyph unicode="&#x2007;" horiz-adv-x="319" />
<glyph unicode="&#x2008;" horiz-adv-x="239" />
<glyph unicode="&#x2009;" horiz-adv-x="383" />
<glyph unicode="&#x200a;" horiz-adv-x="106" />
<glyph unicode="&#x2010;" horiz-adv-x="790" d="M172 571q-8 -45 16.5 -81.5t87.5 -36.5q2 0 23 -4q10 -2 21.5 -3.5t25.5 -1.5q29 0 47 11l269 2l143 2q57 0 95 34.5t46 77.5q10 43 -19.5 80t-107.5 37q-8 0 -14 1t-17 1h5q-10 2 -23 2h-20q-23 0 -48 -6h-278q-6 2 -27 2q-12 0 -28.5 -1t-28.5 -3q-10 -2 -16 -2h-9 q-61 0 -98 -35t-45 -76z" />
<glyph unicode="&#x2011;" horiz-adv-x="790" d="M172 571q-8 -45 16.5 -81.5t87.5 -36.5q2 0 23 -4q10 -2 21.5 -3.5t25.5 -1.5q29 0 47 11l269 2l143 2q57 0 95 34.5t46 77.5q10 43 -19.5 80t-107.5 37q-8 0 -14 1t-17 1h5q-10 2 -23 2h-20q-23 0 -48 -6h-278q-6 2 -27 2q-12 0 -28.5 -1t-28.5 -3q-10 -2 -16 -2h-9 q-61 0 -98 -35t-45 -76z" />
<glyph unicode="&#x2012;" horiz-adv-x="790" d="M172 571q-8 -45 16.5 -81.5t87.5 -36.5q2 0 23 -4q10 -2 21.5 -3.5t25.5 -1.5q29 0 47 11l269 2l143 2q57 0 95 34.5t46 77.5q10 43 -19.5 80t-107.5 37q-8 0 -14 1t-17 1h5q-10 2 -23 2h-20q-23 0 -48 -6h-278q-6 2 -27 2q-12 0 -28.5 -1t-28.5 -3q-10 -2 -16 -2h-9 q-61 0 -98 -35t-45 -76z" />
<glyph unicode="&#x2013;" horiz-adv-x="1112" d="M156 549q-8 -41 14.5 -72t83.5 -31l25 -4q10 -2 23 -3t30 -1q10 0 18 1t19 5h604q10 -4 17 -5t18 -1q18 0 28.5 2t20.5 4q8 2 14 2q35 0 64.5 12.5t53 33t39 44t19.5 48.5q8 37 -12.5 65.5t-79.5 28.5l-111 -2h-624q-12 4 -21 4q-33 0 -37 -2t-14 -4q-8 -2 -14 -2h-6 q-74 0 -118 -39t-54 -84z" />
<glyph unicode="&#x2014;" horiz-adv-x="1544" d="M156 549q-8 -41 14.5 -72t83.5 -31l25 -4q10 -2 23 -3t30 -1q10 0 18 1t19 5l1034 -2q8 -4 15 -5t18 -1q18 0 29.5 2t21.5 4q8 2 14 2q35 0 64.5 12.5t53 33t39 44t19.5 48.5q8 37 -12 65.5t-80 28.5l-110 -2l-1055 2q-12 4 -21 4q-33 0 -37 -2t-14 -4q-8 -2 -14 -2h-6 q-74 0 -118 -39t-54 -84z" />
<glyph unicode="&#x2018;" horiz-adv-x="391" d="M319 915q0 -37 1.5 -67.5t9.5 -55t25.5 -40t50.5 -17.5h10q51 0 79.5 34t39.5 89q8 33 8 70l-4 2l8 252q0 8 1 15t1 15q2 27 3 52.5t-8 46t-30.5 34t-64.5 13.5q-59 0 -84 -27.5t-33 -70.5q-4 -23 -5 -46.5t-1 -46.5z" />
<glyph unicode="&#x2019;" horiz-adv-x="307" d="M193 775q8 -32 53 -40q2 0 5 -1t5 -1h6q25 0 50.5 14.5t50 39t45 58t34.5 70.5l115 263q2 6 4 15t4 19q8 27 10 43q8 41 -4 72t-73 31q-39 0 -69 -16.5t-52.5 -42t-37.5 -60.5t-28 -72v2l-88 -243l2 4q-10 -16 -15 -25.5t-8 -17.5t-5 -17.5t-4 -25.5q-8 -37 0 -69z" />
<glyph unicode="&#x201a;" horiz-adv-x="307" d="M-10 -199q-8 -37 0 -68.5t53 -39.5q2 0 5 -1t5 -1h6q25 0 50.5 14t50 39t45.5 58.5t35 70.5l114 262q2 6 4 15.5t4 19.5q8 27 11 43q8 41 -4.5 71.5t-73.5 30.5q-39 0 -68.5 -16t-52 -42t-38 -60.5t-27.5 -71.5v2l-89 -244l3 4q-10 -16 -15.5 -25t-8.5 -17.5t-5 -17.5 t-4 -26z" />
<glyph unicode="&#x201c;" horiz-adv-x="753" d="M211 880q-2 -28 5 -57.5t25.5 -55.5t55.5 -32h16q43 0 75 37t42 96q4 14 6 27.5t2 28.5l-2 -2l21 258v28q-2 25 -5 51.5t-13.5 48t-33 36t-61.5 14.5q-55 0 -84 -32t-39 -79q-4 -23 -5 -44t1 -44v2l-2 -243q-2 -10 -4 -38zM573 915q0 -37 1 -67.5t9.5 -55t26 -40 t49.5 -17.5h11q51 0 79.5 34t38.5 89q8 33 9 70l-4 2l8 252q0 8 1 15t1 15q2 27 3 52.5t-8.5 46t-31 34t-64.5 13.5q-59 0 -83.5 -27.5t-32.5 -70.5q-4 -23 -5 -46.5t-1 -46.5z" />
<glyph unicode="&#x201d;" horiz-adv-x="647" d="M193 775q8 -32 53 -40q2 0 5 -1t5 -1h6q25 0 50.5 14.5t50 39t45 58t34.5 70.5l115 263q2 6 4 15t4 19q8 27 10 43q8 41 -4 72t-73 31q-39 0 -69 -16.5t-52.5 -42t-37.5 -60.5t-28 -72v2l-88 -243l2 4q-10 -16 -15 -25.5t-8 -17.5t-5 -17.5t-4 -25.5q-8 -37 0 -69z M553 834q-8 -41 3 -68t52 -31h10q61 0 109.5 55.5t77.5 135.5l-2 2l92 246q4 6 6 11t6 11l-2 -2q10 20 18.5 40.5t12.5 43.5q8 35 -7.5 57.5t-72.5 22.5q-43 0 -71.5 -16.5t-49 -42t-35 -59.5t-24.5 -66l2 2l-96 -252q-18 -47 -29 -90z" />
<glyph unicode="&#x201e;" horiz-adv-x="647" d="M-12 -207q-6 -37 1 -68.5t52 -39.5q2 0 5 -1t5 -1h6q25 0 50.5 14t50 38.5t46.5 58.5t34 71l114 262q2 6 4 15.5t4 19.5q4 10 6.5 21.5t4.5 21.5q8 41 -4.5 71.5t-73.5 30.5q-39 0 -68.5 -16.5t-52 -42t-38 -60t-28.5 -71.5v2l-88 -244l5 4q-10 -16 -15.5 -25.5 t-8.5 -17.5t-6 -17t-5 -26zM348 -217q-8 -41 3 -67.5t52 -30.5h11q61 0 109 55t77 135l-2 2l94 246q2 6 4 11t6 11v-2q10 20 18.5 41t12.5 43q6 35 -9 57.5t-73 22.5q-43 0 -71.5 -16.5t-49 -42t-34 -59t-23.5 -66.5v2l-96 -252q-18 -47 -29 -90z" />
<glyph unicode="&#x2022;" horiz-adv-x="579" d="M156 557q-8 -45 2 -90t35.5 -82t63.5 -60.5t87 -23.5q68 0 123 27.5t96 69.5t68 91.5t39 92.5q4 10 6 22t6 27q6 37 7 75.5t-13 70.5t-47 52.5t-90 20.5q-68 0 -130.5 -26.5t-114.5 -67.5t-88 -89.5t-48 -93.5z" />
<glyph unicode="&#x2026;" horiz-adv-x="1409" d="M98 94q6 -31 23.5 -55.5t43 -39.5t58.5 -15q45 0 83 18t65.5 46t45 60.5t25.5 61.5v-2q4 12 9 37q6 25 6 51q0 27 -10.5 47.5t-33 33.5t-61.5 13q-45 0 -87 -17.5t-75.5 -44t-57 -58t-32.5 -62.5l-2 -12q-6 -31 0 -62zM571 150q-6 -31 1.5 -62t24.5 -55.5t43 -40 t58 -15.5q45 0 82 18.5t64.5 46.5t46 60.5t27.5 61.5l-3 -2q4 8 5.5 17t5.5 20q4 25 4 51q0 27 -9.5 47t-32 33.5t-61.5 13.5q-45 0 -87 -17.5t-75.5 -44t-58 -58t-33.5 -62.5zM1034 92q6 -31 23.5 -55.5t43 -39.5t58.5 -15q45 0 83 18t65.5 46t45 60.5t25.5 61.5v-2 q4 12 8 37q6 25 7 51q0 27 -10.5 47.5t-33 33.5t-61.5 13q-45 0 -87 -17.5t-75.5 -44t-57.5 -58t-32 -62.5l-2 -12q-6 -31 0 -62z" />
<glyph unicode="&#x202f;" horiz-adv-x="383" />
<glyph unicode="&#x2039;" horiz-adv-x="546" d="M184 666q-8 -41 5.5 -56.5t33.5 -29.5l-4 4l215 -260l4 -7q16 -23 29.5 -36t40.5 -17h20q23 0 42.5 16.5t41.5 63.5h-2q4 10 5 14t3 9q4 23 -6 45t-45 55l-147 178l198 121q51 23 73 55.5t26 50.5q0 4 1 9.5t-3 11.5q-8 41 -21.5 55.5t-42.5 18.5h-8q-31 0 -72 -23 l-286 -178h2q-37 -12 -65.5 -39t-37.5 -61z" />
<glyph unicode="&#x203a;" horiz-adv-x="546" d="M125 344q4 -47 16.5 -63.5t34.5 -16.5h21q29 4 47 17.5t43 35.5l8 7l313 260l-4 -4q27 14 45.5 29.5t26.5 56.5q8 35 -11.5 60.5t-48.5 39.5l-219 178q-35 23 -61 23h-8q-33 -4 -52.5 -18.5t-42.5 -55.5q-8 -10 -8 -21q-4 -18 5.5 -51t50.5 -55l149 -121l-217 -180l2 2 q-47 -33 -65.5 -55.5t-22.5 -44.5q-2 -8 0 -23h-2z" />
<glyph unicode="&#x205f;" horiz-adv-x="479" />
<glyph unicode="&#x2122;" horiz-adv-x="1644" d="M272 1225q-4 -29 13.5 -48.5t66.5 -19.5h19q8 0 18 2l133 27l-172 -613l-4 -20q0 -4 -2 -10t-4 -13q-4 -27 5 -47t54 -20q57 0 76 23.5t39 80.5l180 650l178 32q72 16 99 32.5t37 51.5l2 10q12 74 -64 74h-10t-16 -4l2 2q-68 -12 -121 -22.5t-119 -22.5 q-51 -10 -115.5 -22.5t-156.5 -28.5q-41 -10 -81 -25.5t-55 -60.5zM805 594q-12 -63 4 -86t53 -27h8q18 0 36 12.5t31 30t21.5 37t12.5 33.5l108 391q4 -16 9.5 -32.5t9.5 -32.5q12 -45 22 -89.5t19 -89.5l2 2l2 -18q6 -43 8 -53t8 -25l2 2q0 -12 4 -16q4 -16 25.5 -31.5 t54.5 -15.5q23 0 47.5 10t48.5 39q20 23 29.5 35t20.5 26q6 10 15 22.5t26 35.5q12 16 35.5 43.5t54 62.5t65.5 74l70 78l-121 -422v2q-4 -8 -6 -16.5t-4 -18.5q-6 -33 5 -52.5t52 -23.5h8q47 0 74 31t35 72l2 10l199 702q12 66 -3.5 84.5t-60.5 24.5h-4q-23 0 -62.5 -36 t-78.5 -83q-98 -119 -165 -198.5t-110 -133.5q-25 -29 -45 -50t-33 -38q-4 -4 -19 -24.5t-24 -32.5q0 2 -1 3t1 5q0 4 -2 6q-10 49 -21 108.5t-22 106.5q-8 31 -12 51.5t-4 18.5q-14 88 -42 143.5t-40 63.5l35 6q-6 41 -26.5 64.5t-47.5 23.5q-29 0 -54.5 -22.5t-39.5 -67.5 z" />
<glyph unicode="&#x25fc;" horiz-adv-x="1157" d="M0 0v1157h1157v-1157h-1157z" />
<glyph unicode="&#xfb01;" horiz-adv-x="1175" d="M74 72q-12 -59 4 -87t65 -28h21q10 0 18 2v2q37 4 60.5 14.5t39 29t28 45t26.5 67.5l94 321l358 54q55 4 86 12t48.5 21.5t25.5 33t19 47.5v6q0 2 2 4t2 5v6q4 4 4 8q6 29 -2 47t-25.5 29.5t-42 15.5t-51.5 4q-35 0 -62.5 -3t-50.5 -7q-4 -2 -8 -2h-6l-233 -35l53 188 l399 29q84 6 121 36t53 85l2 8q4 66 -23.5 89.5t-92.5 23.5h-17q-4 0 -11 -1t-11 -1q-90 -8 -156 -13.5t-112 -10.5t-74.5 -8t-46.5 -5q-8 -2 -17 -2q-4 0 -10 -1t-10 -1q-10 0 -19 -2q-98 -10 -142 -36t-54 -85q-4 -16 -7.5 -32.5t-1.5 -33.5q-10 -43 -20 -77.5t-18 -63.5 q-10 -43 -18.5 -73.5t-18.5 -59.5q0 -4 -2 -9t-2 -10q-10 -27 -17.5 -53t-17.5 -65l-115 -371l-2 -8q-4 -14 -7 -26.5t-5 -22.5zM883 94q-10 -47 7 -79.5t77 -41.5h20q33 0 56.5 14.5t41 40t31.5 61.5t31 79l-8 -6l229 805q0 12 6 22q0 4 2 7t2 8q4 10 7.5 22t7.5 23 q8 43 -5.5 71.5t-70.5 28.5q-49 0 -81 -9.5t-51.5 -29.5t-29.5 -50t-18 -69v2l-240 -848q-4 -10 -7 -21t-7 -30z" />
<glyph unicode="&#xfb02;" horiz-adv-x="1501" d="M74 72q-12 -59 4 -87t65 -28h21q10 0 18 2v2q37 4 60.5 14.5t39 29t28 45t26.5 67.5l94 321l358 54q55 4 86 12t48.5 21.5t25.5 33t19 47.5v6q0 2 2 4t2 5v6q4 4 4 8q6 29 -2 47t-25.5 29.5t-42 15.5t-51.5 4q-35 0 -62.5 -3t-50.5 -7q-4 -2 -8 -2h-6l-233 -35l53 188 l399 29q84 6 121 36t53 85l2 8q4 66 -23.5 89.5t-92.5 23.5h-17q-4 0 -11 -1t-11 -1q-90 -8 -156 -13.5t-112 -10.5t-74.5 -8t-46.5 -5q-8 -2 -17 -2q-4 0 -10 -1t-10 -1q-10 0 -19 -2q-98 -10 -142 -36t-54 -85q-4 -16 -7.5 -32.5t-1.5 -33.5q-10 -43 -20 -77.5t-18 -63.5 q-10 -43 -18.5 -73.5t-18.5 -59.5q0 -4 -2 -9t-2 -10q-10 -27 -17.5 -53t-17.5 -65l-115 -371l-2 -8q-4 -14 -7 -26.5t-5 -22.5zM864 35q0 -23 8.5 -42.5t23.5 -31.5t42 -12h6q2 0 5 1t5 1l467 61q72 12 113 45t47 68q0 4 1 8t-1 8l2 2q10 51 -16.5 75t-79.5 24 q-37 0 -70 -6v-3l-278 -36l223 794q4 10 6 20.5t4 22.5q12 61 -6 89t-76 28q-86 0 -117.5 -43t-48.5 -113l-241 -858q-4 -10 -7.5 -20.5t-7.5 -32.5q-4 -25 -4 -49z" />
</font>
</defs>
</svg>
