<?xml version="1.0" standalone="no"?> <!DOCTYPE svg PUBLIC "-//W3C//DTD SVG 1.0//EN" "http://www.w3.org/TR/2001/REC-SVG-20010904/DTD/svg10.dtd" > <svg xmlns="http://www.w3.org/2000/svg" width="100%" height="100%">
<defs >
<font id="/data/www/handident.com/_prepa/fonts/ITC_Bauhaus_LT_Demi" horiz-adv-x="424" ><font-face
    font-family="Bauhaus LT Light"
    units-per-em="1000"
    panose-1="2 0 7 3 2 0 0 2 0 3"
    ascent="952"
    descent="-228"
    alphabetic="0" />
<missing-glyph horiz-adv-x="278" />
<glyph unicode=" " glyph-name="space" horiz-adv-x="278" />
<glyph unicode="!" glyph-name="exclam" horiz-adv-x="278" d="M139 162Q176 162 199 138T222 79Q222 44 199 20T139 -4Q102 -4 79 20T56 79Q56 114 79 138T139 162ZM220 712L207 201H71L58 712H220Z" />
<glyph unicode="&quot;" glyph-name="quotedbl" horiz-adv-x="333" d="M24 700H136V429H24V700ZM198 700H310V429H198V700Z" />
<glyph unicode="#" glyph-name="numbersign" horiz-adv-x="556" d="M243 410L226 290H322L339 410H243ZM213 200L185 0H88L115 200H28L31 290H128L145 410H57L60 500H157L185 700H282L255 500H351L379 700H476L449 500H528L525 410H437L420 290H499L496 200H407L379
0H282L309 200H213Z" />
<glyph unicode="$" glyph-name="dollar" horiz-adv-x="556" d="M236 90H100V212H276Q299 212 312 222T326 251Q326 270 309 288T265 325T207 364T150 409T106 462T88 527Q88 598 127 639T236 688V792H324V688H433V572H272Q243 572 233 561T222 534Q222 518 239
502T283 469T341 431T398 387T442 332T460 264Q460 197 425 151T324 90V-32H236V90Z" />
<glyph unicode="%" glyph-name="percent" horiz-adv-x="889" d="M568 177Q568 144 591 121T647 98Q680 98 703 121T726 177Q726 210 703 233T647 256Q614 256 591 233T568 177ZM130 523Q130 490 153 467T209 444Q242 444 265 467T288 523Q288 556 265 579T209
602Q176 602 153 579T130 523ZM249 -1H160L613 700H699L249 -1ZM470 177Q470 213 483 245T519 302T575 340T647 354Q686 354 718 340T774 302T811 246T824 177Q824 141 811 109T775 52T719 14T647 0Q608 0 576 14T520 52T483 108T470 177ZM32 523Q32 559 45 591T81
648T137 686T209 700Q248 700 280 686T336 648T373 592T386 523Q386 487 373 455T337 398T281 360T209 346Q170 346 138 360T82 398T45 454T32 523Z" />
<glyph unicode="&amp;" glyph-name="ampersand" horiz-adv-x="778" d="M284 402Q252 378 237 344T222 271Q222 240 233 214T263 167T308 136T363 124Q395 124 426 135T477 169L284 402ZM567 560H318L548 285H550Q550 331 539 369T494 438L591 530Q637 485 665
431T694 311Q694 270 684 233T652 160L782 0H609L568 56Q525 19 474 4T366 -12Q303 -12 249 9T155 68T93 159T70 276Q70 346 104 405T197 502Q177 522 169 543T160 593Q160 638 193 669T290 700H567V560Z" />
<glyph unicode="&apos;" glyph-name="quotesingle" horiz-adv-x="222" d="M55 700H167V429H55V700Z" />
<glyph unicode="(" glyph-name="parenleft" horiz-adv-x="444" d="M318 -228Q263 -185 222 -132T152 -19T110 108T96 242Q96 310 110 376T152 502T221 616T318 712L392 636Q304 564 254 461T204 242Q204 126 254 23T392 -152L318 -228Z" />
<glyph unicode=")" glyph-name="parenright" horiz-adv-x="444" d="M126 712Q181 669 222 616T292 503T334 376T348 242Q348 174 334 108T292 -18T223 -132T126 -228L52 -152Q140 -80 190 23T240 242Q240 358 190 461T52 636L126 712Z" />
<glyph unicode="*" glyph-name="asterisk" horiz-adv-x="500" d="M69 478L206 521V523L68 566L125 658L227 563L229 565L201 700H300L272 565L274 563L376 658L433 566L295 523V521L432 478L381 384L276 480L274 478L304 340H197L227 478L225 480L120 384L69 478Z" />
<glyph unicode="+" glyph-name="plus" horiz-adv-x="600" d="M246 486H354V297H542V189H354V0H246V189H58V297H246V486Z" />
<glyph unicode="," glyph-name="comma" horiz-adv-x="278" d="M16 -174L74 128H218L117 -174H16Z" />
<glyph unicode="-" glyph-name="hyphen" horiz-adv-x="333" d="M51 187V299H282V187H51Z" />
<glyph unicode="." glyph-name="period" horiz-adv-x="278" d="M139 162Q176 162 199 138T222 79Q222 44 199 20T139 -4Q102 -4 79 20T56 79Q56 114 79 138T139 162Z" />
<glyph unicode="/" glyph-name="slash" horiz-adv-x="278" d="M-28 -12L196 712H305L81 -12H-28Z" />
<glyph unicode="0" glyph-name="zero" horiz-adv-x="556" d="M373 480Q373 522 351 547T278 572Q227 572 205 547T183 480V220Q183 178 205 153T278 128Q329 128 351 153T373 220V480ZM35 480Q35 529 51 571T99 644T176 694T278 712Q335 712 380 694T456 645T504
571T521 480V220Q521 171 505 129T457 56T380 6T278 -12Q221 -12 176 6T100 55T52 129T35 220V480Z" />
<glyph unicode="1" glyph-name="one" horiz-adv-x="556" d="M104 700H356V0H212V566H104V700Z" />
<glyph unicode="2" glyph-name="two" horiz-adv-x="556" d="M518 0H135Q113 0 94 4T60 18T37 44T28 84Q28 102 31 115T45 145T75 181T126 233L271 377Q306 412 329 442T352 504Q352 515 347 527T331 550T304 567T268 574Q227 574 206 551T184 500Q184 466 200
441T243 410L141 308Q90 336 65 387T40 496Q40 542 58 582T106 650T178 695T268 712Q316 712 357 696T429 651T478 582T496 496Q496 460 489 432T468 380T434 335T388 289L226 138H518V0Z" />
<glyph unicode="3" glyph-name="three" horiz-adv-x="556" d="M30 144H242Q284 144 313 161T342 227Q342 275 313 292T242 310H106V400L310 565V566H42V700H334Q370 700 396 691T439 668T464 634T472 596Q472 561 457 537T420 492T372 455T324 417Q363 410 396
393T453 350T492 290T506 215Q506 156 486 115T432 49T352 12T253 0H30V144Z" />
<glyph unicode="4" glyph-name="four" horiz-adv-x="556" d="M403 700L150 282H318V478L437 680Q442 689 448 699T455 709Q456 709 456 700Q456 691 456 682V282H523V148H456V0H318V148H109Q91 148 74 154T43 172T21 202T12 244Q12 276 24 303T50 352L258 700H403Z" />
<glyph unicode="5" glyph-name="five" horiz-adv-x="556" d="M456 566H208V454H296Q333 454 371 440T440 398T492 327T512 227Q512 170 492 128T441 57T371 14T296 0H49V140H240Q264 140 285 143T321 156T345 183T354 230Q354 259 346 276T322 304T285 317T240
320H64V700H456V566Z" />
<glyph unicode="6" glyph-name="six" horiz-adv-x="556" d="M422 700L206 313Q196 296 188 274T180 234Q180 191 208 164T278 136Q320 136 348 163T376 234Q376 282 349 308T271 338L342 470Q383 460 416 438T474 384T511 315T524 234Q524 181 506 136T456 58T378
7T278 -12Q224 -12 179 6T101 58T50 136T32 234Q32 273 49 316T88 400L252 700H422Z" />
<glyph unicode="7" glyph-name="seven" horiz-adv-x="556" d="M60 700H382Q430 700 463 677T496 618Q496 591 489 563T474 511L304 0H144L345 560H60V700Z" />
<glyph unicode="8" glyph-name="eight" horiz-adv-x="556" d="M276 596Q241 596 218 573T194 513Q194 476 217 453T276 430Q311 430 335 453T360 513Q360 550 336 573T276 596ZM180 216Q180 174 208 146T278 118Q299 118 317 125T348 146T368 178T376 216Q376
236 369 254T348 285T317 306T278 314Q236 314 208 286T180 216ZM524 218Q524 161 506 118T456 46T378 3T278 -12Q224 -12 179 2T101 46T50 118T32 218Q32 273 61 316T139 382Q97 401 77 438T56 520Q56 566 74 602T123 662T194 699T280 712Q323 712 362 700T432
663T480 602T498 520Q498 475 479 438T417 382Q466 359 495 316T524 218Z" />
<glyph unicode="9" glyph-name="nine" horiz-adv-x="556" d="M134 0L350 387Q360 404 368 426T376 466Q376 509 348 536T278 564Q236 564 208 537T180 466Q180 418 207 392T285 362L214 230Q173 240 140 262T82 316T45 385T32 466Q32 519 50 564T100 642T178 693T278
712Q332 712 377 694T455 642T506 564T524 466Q524 427 507 384T468 300L304 0H134Z" />
<glyph unicode=":" glyph-name="colon" horiz-adv-x="278" d="M139 464Q176 464 199 440T222 381Q222 346 199 322T139 298Q102 298 79 322T56 381Q56 416 79 440T139 464ZM139 162Q176 162 199 138T222 79Q222 44 199 20T139 -4Q102 -4 79 20T56 79Q56 114 79
138T139 162Z" />
<glyph unicode=";" glyph-name="semicolon" horiz-adv-x="278" d="M139 464Q176 464 199 440T222 381Q222 346 199 322T139 298Q102 298 79 322T56 381Q56 416 79 440T139 464ZM16 -174L74 128H218L117 -174H16Z" />
<glyph unicode="&lt;" glyph-name="less" horiz-adv-x="600" d="M193 243L542 101V0L58 201V285L542 486V385L193 243Z" />
<glyph unicode="=" glyph-name="equal" horiz-adv-x="600" d="M542 84H58V192H542V84ZM542 294H58V402H542V294Z" />
<glyph unicode="&gt;" glyph-name="greater" horiz-adv-x="600" d="M407 243L58 385V486L542 285V201L58 0V101L407 243Z" />
<glyph unicode="?" glyph-name="question" horiz-adv-x="500" d="M240 162Q277 162 300 138T323 79Q323 44 300 20T240 -4Q203 -4 180 20T157 79Q157 114 180 138T240 162ZM314 204H176V406Q224 406 253 412T299 430T320 458T326 494Q326 527 304 550T239 574Q207
574 185 551T153 500L17 534Q27 573 48 606T98 662T163 699T241 712Q294 712 337 696T411 650T459 577T476 480Q476 446 464 414T429 357T378 314T314 293V204Z" />
<glyph unicode="@" glyph-name="at" horiz-adv-x="800" d="M488 358Q488 393 467 415T411 438Q388 438 370 428T337 402T316 365T308 323Q308 288 327 264T382 240Q406 240 425 250T459 276T480 314T488 358ZM527 526H615L566 289Q564 281 562 272T560 253Q560
244 563 238T574 232Q591 232 608 242T640 272T663 321T672 390Q672 448 653 493T599 568T517 614T414 630Q353 630 304 609T219 550T165 461T146 349Q146 285 167 234T225 146T315 90T430 70Q487 70 536 88T622 138H712Q661 66 587 27T422 -12Q345 -12 277 15T157
90T76 204T46 349Q46 426 75 492T155 607T272 684T417 712Q481 712 542 691T650 632T725 539T754 417Q754 364 740 322T704 249T654 197T599 162T547 142T508 136Q487 136 472 149T455 187L453 188Q435 168 409 152T356 136Q324 136 296 150T246 187T211 242T198
308Q198 352 212 393T252 467T316 518T399 538Q435 538 465 524T516 478L527 526Z" />
<glyph unicode="A" glyph-name="A" horiz-adv-x="611" d="M54 0V456Q54 502 67 547T111 629T189 689T305 712Q373 712 421 689T499 630T543 548T557 456V0H401V252H249V388H401V482Q401 521 380 548T305 576Q251 576 231 549T210 482V0H54Z" />
<glyph unicode="B" glyph-name="B" horiz-adv-x="556" d="M52 0V462Q52 528 69 575T116 653T190 698T285 712Q329 712 367 697T434 655T479 591T496 508Q496 468 479 432T426 374Q476 349 499 304T522 205Q522 161 509 124T471 59T411 16T331 0H229V140H308Q340
140 357 162T374 218Q374 263 352 281T298 299H229V421H266Q304 421 326 439T348 494Q348 527 329 549T274 572Q238 572 215 550T192 476V0H52Z" />
<glyph unicode="C" glyph-name="C" horiz-adv-x="500" d="M476 560H368Q330 560 297 541T239 492T200 425T186 350Q186 313 200 276T238 208T296 159T368 140H476V0H360Q297 0 238 25T132 95T58 205T30 350Q30 429 58 494T132 604T237 675T360 700H476V560Z" />
<glyph unicode="D" glyph-name="D" horiz-adv-x="667" d="M60 0V700H310Q361 700 418 677T523 608T602 496T634 344Q634 267 607 204T533 95T424 25T292 0H250V140H292Q332 140 367 158T428 205T470 270T486 345Q486 397 469 437T422 504T353 546T270 560H208V0H60Z" />
<glyph unicode="E" glyph-name="E" horiz-adv-x="500" d="M449 560H359Q317 560 285 547T232 513T197 466T180 415H449V285H180Q184 260 197 234T231 187T285 153T359 140H449V0H372Q282 0 217 30T110 110T48 222T28 350Q28 414 48 477T110 589T217 669T372 700H449V560Z" />
<glyph unicode="F" glyph-name="F" horiz-adv-x="444" d="M44 0V480Q44 527 56 567T94 637T157 683T246 700H407V560H281Q235 560 214 540T192 476V402H407V262H192V0H44Z" />
<glyph unicode="G" glyph-name="G" horiz-adv-x="778" d="M582 495Q553 527 505 549T401 572Q354 572 315 555T247 507T204 438T188 354Q188 310 203 271T247 201T314 154T401 136Q434 136 465 148T521 180T565 228T588 285H394V415H744V320Q744 268 722 210T655
103T544 21T389 -12Q311 -12 245 17T132 95T59 210T32 350Q32 424 58 489T132 604T245 683T389 712Q425 712 463 707T537 688T609 654T676 603L582 495Z" />
<glyph unicode="H" glyph-name="H" horiz-adv-x="611" d="M62 0V700H210V448H400V700H548V0H400V308H210V0H62Z" />
<glyph unicode="I" glyph-name="I" horiz-adv-x="278" d="M65 0V700H213V0H65Z" />
<glyph unicode="J" glyph-name="J" horiz-adv-x="333" d="M5 148Q42 148 66 153T103 170T122 202T128 255V700H276V258Q276 179 260 129T209 51T125 11T5 0V148Z" />
<glyph unicode="K" glyph-name="K" horiz-adv-x="556" d="M54 0V700H202V438Q228 438 244 441T271 451T289 470T303 499L389 700H551L468 516Q461 500 453 483T434 451T409 424T377 405V403Q408 401 434 390T480 361T511 319T522 264V0H374V234Q374 270 359 286T310
302H202V0H54Z" />
<glyph unicode="L" glyph-name="L" horiz-adv-x="389" d="M204 700V230Q204 182 223 165T280 148H391V0H244Q202 0 168 11T108 47T70 112T56 210V700H204Z" />
<glyph unicode="M" glyph-name="M" horiz-adv-x="833" d="M20 0L89 564Q97 631 124 671T212 712Q262 712 296 686T341 608L416 277H418L491 608Q502 659 536 685T620 712Q680 712 707 672T743 564L812 0H653L604 542H602L475 38Q468 11 454 3T411 -6Q383 -6 369
2T347 38L231 542H229L175 0H20Z" />
<glyph unicode="N" glyph-name="N" horiz-adv-x="667" d="M57 0V610Q57 655 84 683T159 712Q186 712 205 703T240 679T266 646T286 610L458 251H461V700H609V89Q609 69 605 51T591 18T566 -4T526 -12Q503 -12 486 -5T455 15T429 48T405 93L207 502L205 500V0H57Z" />
<glyph unicode="O" glyph-name="O" horiz-adv-x="778" d="M389 568Q340 568 301 551T235 503T194 434T180 350Q180 306 194 267T235 197T301 150T389 132Q438 132 477 149T543 197T584 266T598 350Q598 394 584 433T543 503T477 550T389 568ZM389 712Q467 712
533 683T646 605T719 490T746 350Q746 276 720 211T646 96T533 17T389 -12Q311 -12 245 17T132 95T59 210T32 350Q32 424 58 489T132 604T245 683T389 712Z" />
<glyph unicode="P" glyph-name="P" horiz-adv-x="556" d="M49 0V473Q49 521 65 564T113 640T190 692T292 712Q346 712 391 694T468 643T517 567T535 473Q535 424 518 381T470 305T393 253T292 234H238V374Q269 374 296 377T343 390T375 420T387 472Q387 520 362
546T292 572Q248 572 223 546T197 472V0H49Z" />
<glyph unicode="Q" glyph-name="Q" horiz-adv-x="778" d="M462 -102H334V242H462V146Q489 151 513 170T557 218T587 281T598 350Q598 394 584 433T543 503T477 550T389 568Q340 568 301 551T235 503T194 434T180 350Q180 293 205 243T289 156V0Q234 16 187 49T106
127T52 228T32 350Q32 424 58 489T132 604T245 683T389 712Q467 712 533 683T646 605T719 490T746 350Q747 283 726 224T666 118T576 39T462 -6V-102Z" />
<glyph unicode="R" glyph-name="R" horiz-adv-x="556" d="M52 0V480Q52 520 64 561T104 635T181 690T300 712Q353 712 393 694T460 646T500 579T514 504Q514 456 492 418T427 359Q459 347 478 332T507 298T521 254T524 199V0H376V198Q376 239 359 258T297 278H241V408Q265
408 287 411T327 423T355 448T366 490Q366 531 341 551T283 572Q250 572 225 552T200 490V0H52Z" />
<glyph unicode="S" glyph-name="S" horiz-adv-x="500" d="M441 570H241Q214 570 202 555T189 517Q189 501 209 483T261 443T328 396T395 342T446 281T467 212Q467 175 458 138T426 70T365 20T269 0H35V140H265Q285 140 298 153T311 190Q311 208 291 227T239 267T172
313T105 368T54 434T33 514Q33 563 49 598T90 655T146 689T207 700H441V570Z" />
<glyph unicode="T" glyph-name="T" horiz-adv-x="444" d="M148 560H-4V700H448V560H296V0H148V560Z" />
<glyph unicode="U" glyph-name="U" horiz-adv-x="611" d="M550 700L551 206Q551 165 536 126T491 56T415 7T306 -12Q243 -12 197 6T121 56T76 126T61 206V700H209V248Q209 213 216 191T237 155T268 137T306 132Q325 132 342 137T373 155T394 190T402 248V700H550Z" />
<glyph unicode="V" glyph-name="V" horiz-adv-x="556" d="M148 700L271 162H273L408 700H566L410 112Q403 85 393 62T367 23T328 -3T271 -12Q238 -12 215 -3T175 22T149 62T132 112L-10 700H148Z" />
<glyph unicode="W" glyph-name="W" horiz-adv-x="889" d="M518 700V256Q518 222 520 198T531 159T556 136T599 128Q626 128 642 135T666 158T677 198T680 256V700H828V168Q828 130 813 98T770 41T704 2T622 -12Q564 -12 524 5T444 65Q405 23 365 6T266 -12Q222
-12 184 2T119 40T76 97T60 168V700H208V256Q208 222 210 198T221 159T246 136T289 128Q316 128 332 135T356 158T367 198T370 256V700H518Z" />
<glyph unicode="X" glyph-name="X" horiz-adv-x="500" d="M18 138Q97 156 136 214T176 353Q176 434 137 491T18 562V700Q99 700 159 657T249 541Q280 613 340 656T482 700V562Q403 548 364 491T324 353Q324 272 363 214T482 138V0Q443 0 407 12T340 47T287 100T251
168H249Q236 131 213 100T160 47T94 13T18 0V138Z" />
<glyph unicode="Y" glyph-name="Y" horiz-adv-x="556" d="M198 700V494Q198 444 215 417T278 390Q323 390 340 417T358 494V700H506V444Q506 418 499 391T473 338T426 291T352 256V0H204V256Q159 270 130 291T83 337Q65 363 58 390T50 444V700H198Z" />
<glyph unicode="Z" glyph-name="Z" horiz-adv-x="500" d="M479 0H92Q75 0 61 6T36 23T19 47T13 72Q13 99 18 120T36 163L281 560H46V700H382Q399 700 414 693T440 674T458 647T465 613Q465 591 457 572T431 524L197 140H479V0Z" />
<glyph unicode="[" glyph-name="bracketleft" horiz-adv-x="333" d="M76 -216V700H274V632H178V-148H274V-216H76Z" />
<glyph unicode="\" glyph-name="backslash" horiz-adv-x="278" d="M38 712L349 -12H241L-70 712H38Z" />
<glyph unicode="]" glyph-name="bracketright" horiz-adv-x="333" d="M257 700V-216H59V-148H155V632H59V700H257Z" />
<glyph unicode="^" glyph-name="asciicircum" horiz-adv-x="600" d="M70 325L250 700H350L530 325H420L300 590L179 325H70Z" />
<glyph unicode="_" glyph-name="underscore" horiz-adv-x="500" d="M0 -125V-75H500V-125H0Z" />
<glyph unicode="`" glyph-name="grave" horiz-adv-x="222" d="M101 700L194 556H95L-53 700H101Z" />
<glyph unicode="a" glyph-name="a" horiz-adv-x="556" d="M382 0V274Q382 318 352 344T268 370Q245 370 226 360T192 333T169 293T160 243Q160 219 168 198T192 160T227 135T272 126Q293 126 310 130T345 141V8Q323 3 304 0T264 -4Q208 -4 165 16T92 69T47 146T32
238Q32 296 50 344T101 426T176 479T270 498Q325 498 369 482T444 436T493 367T510 280V0H382Z" />
<glyph unicode="b" glyph-name="b" horiz-adv-x="556" d="M174 700V243Q174 189 205 156T288 122Q334 122 365 155T396 243Q396 297 365 330T284 364Q263 364 247 360T215 349V484Q234 489 253 493T292 498Q343 498 386 477T459 420T507 339T524 244Q524 191 507
144T458 63T382 8T286 -12Q233 -12 189 8T113 62T64 144T46 244V700H174Z" />
<glyph unicode="c" glyph-name="c" horiz-adv-x="389" d="M359 358H274Q220 358 189 326T158 243Q158 192 189 160T274 128H359V0H270Q214 0 170 17T94 65T47 142T30 243Q30 299 46 344T94 420T169 469T270 486H359V358Z" />
<glyph unicode="d" glyph-name="d" horiz-adv-x="556" d="M510 700V244Q510 191 493 144T444 63T368 8T270 -12Q217 -12 174 8T99 62T50 144T32 244Q32 293 49 339T96 420T170 476T264 498Q284 498 303 494T341 484V349Q326 356 310 360T272 364Q223 364 192 331T160
243Q160 189 191 156T268 122Q319 122 350 155T382 243V700H510Z" />
<glyph unicode="e" glyph-name="e" horiz-adv-x="556" d="M532 206Q523 157 500 117T443 48T365 4T270 -12Q213 -12 168 8T90 63T41 144T24 243Q24 295 41 341T90 422T167 477T270 498Q319 498 357 486T425 454T474 408T506 354L259 169L197 250L324 348Q314 359
298 364T261 370Q237 370 217 360T183 333T160 292T152 243Q152 220 160 198T185 157T223 128T275 116Q323 116 359 143T403 220L532 206Z" />
<glyph unicode="f" glyph-name="f" horiz-adv-x="278" d="M41 0V488Q41 529 49 567T77 635T132 682T218 700H269V572H219Q196 572 183 562T169 523V486H269V362H169V0H41Z" />
<glyph unicode="g" glyph-name="g" horiz-adv-x="556" d="M97 -60Q136 -75 171 -81T249 -88Q272 -88 295 -85T336 -70T366 -38T378 16V254Q378 284 369 305T343 341T308 361T269 368Q221 368 191 336T160 251Q160 198 190 168T269 138Q293 138 309 141T340 150V17Q320
10 301 7T269 4Q213 4 170 22T95 73T48 151T32 249Q32 302 48 347T95 426T169 479T269 498Q317 498 360 480T436 430T487 357T506 271V36Q506 -216 252 -216Q213 -216 174 -211T97 -191V-60Z" />
<glyph unicode="h" glyph-name="h" horiz-adv-x="500" d="M49 0V700H177V449H179Q200 478 227 488T289 498Q319 498 348 488T400 457T437 406T451 336V0H323V292Q323 330 304 350T250 370Q215 370 196 350T177 292V0H49Z" />
<glyph unicode="i" glyph-name="i" horiz-adv-x="222" d="M111 712Q143 712 165 691T187 631Q187 592 165 571T111 550Q79 550 57 571T35 631Q35 670 57 691T111 712ZM47 0V486H175V0H47Z" />
<glyph unicode="j" glyph-name="j" horiz-adv-x="222" d="M111 712Q143 712 165 691T187 631Q187 592 165 571T111 550Q79 550 57 571T35 631Q35 670 57 691T111 712ZM173 486V-16Q173 -72 165 -112T137 -178T84 -216T-1 -228H-52V-104H-2Q19 -104 32 -90T45 -40V486H173Z"
/>
<glyph unicode="k" glyph-name="k" horiz-adv-x="500" d="M50 0V700H178V322H215Q231 322 246 334T273 373L323 486H466L415 373Q404 349 396 333T378 307T359 291T334 282V279Q370 273 393 261T431 229T450 184T456 123V0H328V112Q328 160 308 179T251 198H178V0H50Z" />
<glyph unicode="l" glyph-name="l" horiz-adv-x="222" d="M47 0V700H175V0H47Z" />
<glyph unicode="m" glyph-name="m" horiz-adv-x="778" d="M48 0V336Q48 376 62 406T103 456T165 487T247 498Q286 498 325 477T392 424Q454 498 546 498Q582 498 615 488T673 457T714 406T730 336V0H596V292Q596 330 579 350T526 370Q508 369 489 360T456 325V0H322V292Q322
330 305 350T252 370Q217 370 200 350T182 292V0H48Z" />
<glyph unicode="n" glyph-name="n" horiz-adv-x="500" d="M49 0V336Q49 376 63 406T104 456T168 487T250 498Q295 498 332 488T395 457T436 406T451 336V0H323V292Q323 330 304 350T250 370Q215 370 196 350T177 292V0H49Z" />
<glyph unicode="o" glyph-name="o" horiz-adv-x="556" d="M278 370Q224 370 192 337T160 243Q160 182 192 149T278 116Q332 116 364 149T396 243Q396 304 364 337T278 370ZM278 498Q335 498 380 478T458 423T507 342T524 243Q524 191 507 145T458 64T381 9T278
-12Q221 -12 176 8T98 63T49 144T32 243Q32 295 49 341T98 422T175 477T278 498Z" />
<glyph unicode="p" glyph-name="p" horiz-adv-x="556" d="M46 -216V242Q46 295 63 342T112 423T188 478T286 498Q338 498 382 478T457 424T506 342T524 242Q524 193 507 147T460 66T386 10T292 -12Q272 -12 253 -8T215 2V137Q230 130 246 126T284 122Q333 122
364 155T396 243Q396 297 365 330T288 364Q237 364 206 331T174 243V-216H46Z" />
<glyph unicode="q" glyph-name="q" horiz-adv-x="556" d="M382 -216V243Q382 297 351 330T268 364Q222 364 191 331T160 243Q160 189 191 156T272 122Q293 122 309 126T341 137V2Q322 -3 303 -7T264 -12Q213 -12 170 9T97 66T49 147T32 242Q32 295 49 342T98 423T173
478T270 498Q323 498 367 478T443 424T492 342T510 242V-216H382Z" />
<glyph unicode="r" glyph-name="r" horiz-adv-x="333" d="M46 0V486H167V394H169Q186 442 218 467T292 492H319V356H288Q240 356 211 325T182 238V0H46Z" />
<glyph unicode="s" glyph-name="s" horiz-adv-x="389" d="M23 120H188Q206 120 215 128T224 147Q224 162 210 174T173 198T126 222T79 252T43 291T28 343Q28 382 41 409T75 454T125 478T186 486H340V366H192Q180 366 170 363T160 344Q160 333 175 323T213 302T263
278T312 246T350 204T366 148Q366 112 354 84T319 38T266 10T202 0H23V120Z" />
<glyph unicode="t" glyph-name="t" horiz-adv-x="278" d="M259 486V362H166V182Q166 155 178 142T210 128H259V0H192Q148 0 119 12T71 48T46 104T38 178V616H166V486H259Z" />
<glyph unicode="u" glyph-name="u" horiz-adv-x="500" d="M177 486V194Q177 156 196 136T250 116Q285 116 304 136T323 194V486H451V150Q451 110 437 80T396 30T332 -1T250 -12Q205 -12 168 -2T105 29T64 80T49 150V486H177Z" />
<glyph unicode="v" glyph-name="v" horiz-adv-x="444" d="M447 486L322 84Q316 66 309 49T289 18T260 -4T218 -12Q194 -12 177 -4T147 17T128 48T114 84L-4 486H138L219 164H221L303 486H447Z" />
<glyph unicode="w" glyph-name="w" horiz-adv-x="778" d="M456 486V194Q456 156 471 136T522 116Q557 116 574 136T592 194V486H726V162Q726 118 711 85T670 31T611 -1T542 -12Q497 -12 458 7T385 70Q357 26 319 7T236 -12Q200 -12 167 -2T108 30T67 85T52 162V486H186V194Q186
156 203 136T256 116Q291 116 306 136T322 194V486H456Z" />
<glyph unicode="x" glyph-name="x" horiz-adv-x="389" d="M382 366H356Q314 366 285 334T255 243Q255 185 284 153T356 120H383V0H350Q329 0 307 6T263 25T224 55T193 97Q147 0 40 0H7V120H34Q76 120 105 152T135 243Q135 301 106 333T34 366H7V486H40Q61 486
83 480T127 461T166 431T197 389Q243 486 350 486H382V366Z" />
<glyph unicode="y" glyph-name="y" horiz-adv-x="500" d="M175 486V202Q175 161 191 139T250 116Q292 116 308 138T325 202V486H453V176Q453 108 420 60T317 -4V-206H183V-4Q148 4 123 20T81 60Q47 106 47 176V486H175Z" />
<glyph unicode="z" glyph-name="z" horiz-adv-x="444" d="M42 486H320Q370 486 392 466T414 420Q414 384 406 363T376 319L199 124H414V0H102Q58 0 35 22T12 77Q12 97 20 114T42 146L242 362H42V486Z" />
<glyph unicode="{" glyph-name="braceleft" horiz-adv-x="444" d="M232 -216Q216 -216 194 -208T153 -184T120 -142T106 -82V123Q106 147 95 162T69 185T37 197T10 201V291Q20 291 36 294T68 304T95 326T106 361V566Q106 600 119 625T152 667T194 692T232 700H327V618H272Q253
618 241 612T221 595T211 573T208 550V348Q208 318 198 299T172 269T141 253T112 247V244Q124 243 140 239T172 224T197 192T208 136V-66Q208 -77 211 -89T221 -111T240 -127T272 -134H327V-216H232Z" />
<glyph unicode="|" glyph-name="bar" horiz-adv-x="222" d="M57 700H165V0H57V700Z" />
<glyph unicode="}" glyph-name="braceright" horiz-adv-x="444" d="M212 700Q228 700 250 692T291 668T324 626T338 566V361Q338 337 349 322T375 298T407 286T434 283V193Q424 193 408 190T376 179T349 158T338 123V-83Q338 -117 325 -142T292 -183T250 -208T212
-216H117V-134H172Q191 -134 203 -128T223 -111T233 -89T236 -66V136Q236 166 246 185T272 215T303 231T332 237V240Q320 241 304 245T272 260T247 292T236 348V550Q236 561 233 573T223 595T204 611T172 618H117V700H212Z" />
<glyph unicode="~" glyph-name="asciitilde" horiz-adv-x="600" d="M531 243Q520 227 508 212T481 184T448 165T406 157Q378 157 354 166T304 190Q280 204 252 214T189 225Q172 225 160 219T137 202T119 179T105 153L69 243Q77 259 88 274T115 302T149 321T194
329Q220 329 248 320T305 297Q333 285 360 273T407 261Q422 261 434 267T457 284T477 307T495 333L531 243Z" />
</font>
</defs>
</svg>
